<?xml version="1.0" standalone="no"?>
<!DOCTYPE svg PUBLIC "-//W3C//DTD SVG 1.1//EN" "http://www.w3.org/Graphics/SVG/1.1/DTD/svg11.dtd" >
<svg xmlns="http://www.w3.org/2000/svg" xmlns:xlink="http://www.w3.org/1999/xlink" version="1.1">
<metadata>
   Created by FontForge 20170731 at Mon Oct 5 15:13:40 2020
   By Aleksey,,,
   Original Fonts are (c) Bitstream. OpenDyslexic changes and additional glyphs by Abelardo Gonzalez are licensed under
   a Creative Commons Attribution 3.0 Unported License.
   Based on a work at https://dyslexicfonts.com. 2012 by Abelardo Gonzalez. Copying is an act of love. Please copy.
   Bitstream license available here: https://opendyslexic.org/legal/
</metadata>
<defs>
<font id="OpenDyslexic-Bold" horiz-adv-x="1333" >
  <font-face
    font-family="OpenDyslexic"
    font-weight="700"
    font-stretch="normal"
    units-per-em="2048"
    panose-1="0 0 8 0 0 0 0 0 0 0"
    ascent="1638"
    descent="-410"
    x-height="1120"
    cap-height="1493"
    bbox="-113 -19165 2578 2394"
    underline-thickness="102"
    underline-position="-538"
    unicode-range="U+0020-FB02"
  />
<missing-glyph horiz-adv-x="1347"
d="M1198 -344v1790h-1048v-1790h1048zM336 1262h678v-1252h-678v1252z" />
    <glyph glyph-name="fi" unicode="fi" horiz-adv-x="1392"
d="M571 1120v56q0 64 27 108v-2q27 37 104 37l197 45v213l-217 -23q-178 -30 -272 -118q-97 -97 -97 -281v-35h-163v-198h163l-18 -922h303q0 73 -4 225q-4 80 -8 236q-6 240 -15 461h396l-19 -922h295l-29 1120h-643zM967 1233h247v293h-247v-293z" />
    <glyph glyph-name="fl" unicode="fl" horiz-adv-x="1460"
d="M1206 1528h-516q-193 0 -284 -88q-91 -91 -91 -283l-6 -37h-159v-209h153l-27 -911h355l-58 911h273v209h-277l-8 76q0 83 27 107q24 24 100 24h270v-1327h353l-2 270q-68 0 -103 -2v1260z" />
    <glyph glyph-name=".notdef" horiz-adv-x="1347"
d="M1198 -344v1790h-1048v-1790h1048zM336 1262h678v-1252h-678v1252z" />
    <glyph glyph-name=".null" horiz-adv-x="0"
 />
    <glyph glyph-name="nonmarkingreturn" horiz-adv-x="682"
 />
    <glyph glyph-name="NULL" horiz-adv-x="450"
 />
    <glyph glyph-name="NULL" horiz-adv-x="450"
 />
    <glyph glyph-name="space" unicode=" " horiz-adv-x="800"
 />
    <glyph glyph-name="exclam" unicode="!" horiz-adv-x="634"
d="M158 0h315l-22 311h-269zM170 819v2l-20 -372h333l-30 372l-11 647l-272 -4v-645z" />
    <glyph glyph-name="quotedbl" unicode="&#x22;" horiz-adv-x="1030"
d="M211 1468l-61 -622h313l-12 622h-240zM582 1468l-11 -622h310l-58 622h-241z" />
    <glyph glyph-name="numbersign" unicode="#" horiz-adv-x="1681"
d="M911 604h-194l57 238h195zM926 1448h-230q-7 -32 -23.5 -96.5t-23.5 -96.5q-6 -24 -22.5 -92t-24.5 -104h-346v-217h291l-60 -238h-337v-219h284l-96 -385h225l96 385h197l-96 -385h227l96 385h342v219h-286q12 46 16 64q24 92 29 112q9 47 12 62h336v217h-281l97 389
h-226l-98 -389h-197z" />
    <glyph glyph-name="dollar" unicode="$" horiz-adv-x="1277"
d="M754 -274l-15 286q150 13 265 105q121 100 124 276q-7 159 -104.5 243.5t-300.5 123.5q0 63 2 94v88q0 59 2 88q0 59 2 92q147 -16 324 -112l6 231q-181 63 -328 74l4 219l-168 2l-4 -223q-191 -17 -293.5 -112t-105.5 -257q6 -155 106 -248q93 -84 273 -123
q0 -52 -2 -77v-74q-2 -25 -2 -72q-2 -25 -2 -76q-164 15 -383 158l-4 -315q198 -88 378 -107l-22 -280zM545 1114l-6 -332q-168 43 -168 162q0 64 49 109t125 61zM723 272l-8 258q80 -22 116.5 -58.5t36.5 -96.5q0 -56 -37 -74q-51 -19 -108 -29z" />
    <glyph glyph-name="percent" unicode="%" horiz-adv-x="1980"
d="M1473 612q62 0 97.5 -54t35.5 -150q0 -95 -35.5 -150t-97.5 -55q-64 0 -101 55t-37 150q0 96 36.5 150t101.5 54zM1473 807q-164 0 -262.5 -114.5t-98.5 -303.5q0 -191 97 -303.5t264 -112.5q163 0 260 115q98 110 98 301q0 190 -97 304t-261 114zM510 1300
q63 0 99 -58.5t36 -158.5q0 -104 -36 -161.5t-99 -57.5q-65 0 -101 57.5t-36 161.5q0 101 37 159t100 58zM414 -27h237l926 1520h-238zM510 1493q-161 0 -264 -115q-96 -116 -96 -301q0 -191 97 -304.5t263 -113.5q164 0 261 113.5t97 304.5q0 187 -98.5 301.5t-259.5 114.5
z" />
    <glyph glyph-name="ampersand" unicode="&#x26;" horiz-adv-x="1738"
d="M485 772l445 -457q-112 -84 -258 -84q-135 0 -224.5 80.5t-89.5 200.5q0 133 127 260zM625 954q-81 84 -109 129l2 -2q-22 46 -22 78q0 66 47 107q52 43 135 43q122 0 309 -105l100 205q-203 84 -362 84q-186 0 -301 -100h2q-117 -105 -117 -273q0 -105 76 -223
q-235 -188 -235 -428q0 -218 155 -358q153 -138 393 -138q237 0 428 152l121 -125h340l-301 307q70 104 96 228q2 13 6.5 41.5t8 53.5t6.5 48q0 2 14 143h-250q-6 -131 -22 -221q-11 -55 -43 -117z" />
    <glyph glyph-name="quotesingle" unicode="'" horiz-adv-x="534"
d="M150 1468v-594h235v594h-235z" />
    <glyph glyph-name="parenleft" unicode="(" horiz-adv-x="907"
d="M758 1513l-236 21q-335 -435 -372 -858q0 -454 186 -914l282 -18q-116 247 -154.5 449.5t-47.5 461.5q14 398 342 858z" />
    <glyph glyph-name="parenright" unicode=")" horiz-adv-x="907"
d="M539 1540l-232 21q127 -272 162 -488q33 -202 33 -420q-45 -430 -352 -864l305 -18q118 217 213 434q90 215 90 430q0 196 -43 430q-42 213 -176 475z" />
    <glyph glyph-name="asterisk" unicode="*" horiz-adv-x="1243"
d="M1094 1188l-93 158q-98 -59 -141 -86q-98 -62 -147 -91v324h-181v-324l-290 177l-92 -158q26 -14 76.5 -41.5t74.5 -40.5q73 -43 158 -86l-309 -168l94 -158q25 16 72.5 45.5t68.5 42.5q24 15 73 44t74 44v-323h181v323l288 -176l93 158q-253 137 -308 168z" />
    <glyph glyph-name="plus" unicode="+" horiz-adv-x="1570"
d="M670 1274v-520h-520v-234h520v-520h231v520h520v234h-520v520h-231z" />
    <glyph glyph-name="comma" unicode="," horiz-adv-x="718"
d="M258 74l-108 -342h192l225 323v246h-309v-227z" />
    <glyph glyph-name="hyphen" unicode="-" horiz-adv-x="888"
d="M150 446l579 11l8 227l-577 -10z" />
    <glyph glyph-name="period" unicode="." horiz-adv-x="602"
d="M100 0h353v377h-353v-377z" />
    <glyph glyph-name="slash" unicode="/" horiz-adv-x="1081"
d="M150 -176l294 -10l488 1632l-215 4z" />
    <glyph glyph-name="zero" unicode="0" horiz-adv-x="1337"
d="M678 1343q256 0 256 -473q-19 -233 -84 -352q-69 -125 -191 -125q-125 0 -178 105l2 -2q-59 121 -59 372q0 475 254 475zM678 1493q-250 0 -385 -195q-131 -192 -143 -565q0 -374 128.5 -567t380.5 -193q251 0 384.5 193.5t144.5 564.5q0 374 -129 568t-381 194zM670 664
q-40 0 -65.5 29.5t-33.5 66t-8 80.5q0 39 2 69t8.5 62t18 52.5t31.5 34t47 13.5q59 0 81.5 -57.5t22.5 -173.5q0 -32 -4.5 -60.5t-15.5 -55.5t-32.5 -43.5t-51.5 -16.5z" />
    <glyph glyph-name="one" unicode="1" horiz-adv-x="1204"
d="M176 0h879v336h-310v1132h-227l-368 -73v-248l335 65v-876h-309v-336z" />
    <glyph glyph-name="two" unicode="2" horiz-adv-x="1259"
d="M1110 344h-448q37 90 133 186q72 79 100 107q38 41 47 53q92 111 125 191q35 87 35 178q0 197 -141 317q-141 117 -371 117q-171 0 -430 -104v-279q270 150 434 150q110 0 177 -59.5t67 -153.5q0 -52 -33 -123q-30 -59 -121 -164q-42 -51 -209 -174q-103 -78 -325 -260
v-326h960v344z" />
    <glyph glyph-name="three" unicode="3" horiz-adv-x="1292"
d="M1110 1096q0 184 -139 293v-3q-134 107 -365 107q-179 0 -413 -68v-231q251 86 397 86q125 0 191.5 -48t66.5 -138q0 -86 -64.5 -132.5t-185.5 -46.5h-207v-229h199q134 0 212.5 -58t78.5 -139q0 -32 -82 -102q-86 -70 -244 -70q-198 0 -405 121v-387q236 -78 409 -78
q281 0 432 121q152 127 152 367q0 144 -86 250q-51 57 -119 86q172 96 172 299z" />
    <glyph glyph-name="four" unicode="4" horiz-adv-x="1390"
d="M770 625h-360l368 577zM150 557v-164h610l-21 -393h332q0 28 -4 94q0 35 -4 101q-1 18 -3 51.5t-3 50.5q-4 66 -4 96h186v232h-188l-9 843h-294z" />
    <glyph glyph-name="five" unicode="5" horiz-adv-x="1275"
d="M209 1468v-794q199 90 342 90q147 0 225 -63t78 -189q0 -56 -80 -127q-73 -76 -223 -76q-189 0 -401 117v-383q226 -70 405 -70q269 0 420 134.5t151 375.5q0 234 -147.5 373t-394.5 139q-55 0 -146 -16v274h586v215h-815z" />
    <glyph glyph-name="six" unicode="6" horiz-adv-x="1337"
d="M684 772q111 0 174.5 -76t63.5 -213q0 -76 -62 -121t-176 -45t-176 45t-62 121q0 137 63.5 213t174.5 76zM1096 1169v256q-192 68 -330 68q-186 0 -326 -94.5t-215 -266.5t-75 -399q0 -367 136.5 -563.5t397.5 -196.5q227 0 365.5 140t138.5 370q0 234 -133 373t-359 139
q-159 0 -272 -94q59 359 348 359q134 0 324 -91z" />
    <glyph glyph-name="seven" unicode="7" horiz-adv-x="1261"
d="M150 1253h698l-514 -1253h422l354 1346v122h-960v-215z" />
    <glyph glyph-name="eight" unicode="8" horiz-adv-x="1368"
d="M684 680q122 0 187 -60t65 -171q0 -52 -66 -109h2q-65 -59 -188 -59q-113 0 -182.5 53.5t-69.5 114.5q0 111 65 171t187 60zM246 680q-96 -107 -96 -252q0 -218 147 -338q141 -117 387 -117q247 0 391 118.5t144 336.5q0 70 -21.5 130.5t-57.5 102.5t-74.5 71t-82.5 48
q166 97 166 316q0 161 -123 272q-119 107 -342 107q-216 0 -340.5 -105t-124.5 -274q0 -219 166 -316q-74 -32 -139 -100zM465 1133q0 75 53 122q58 52 166 52q50 0 94 -13q51 -15 89 -54t38 -107q0 -91 -58.5 -142t-162.5 -51q-105 0 -162 51t-57 142z" />
    <glyph glyph-name="nine" unicode="9" horiz-adv-x="1335"
d="M240 410v-369q192 -68 331 -68q280 0 447.5 208t167.5 552q0 369 -137 565q-138 195 -398 195q-226 0 -364 -141q-137 -140 -137 -371q0 -233 131 -373q137 -137 360 -137q154 0 270 96q-20 -140 -86 -186q-92 -64 -262 -64q-135 0 -323 93zM637 827q-155 0 -234 33
q-65 23 -65 152q0 135 79.5 210.5t219.5 75.5q137 0 217 -76.5t80 -209.5q0 -128 -68 -152q-79 -33 -229 -33z" />
    <glyph glyph-name="colon" unicode=":" horiz-adv-x="618"
d="M150 0h319v360h-319v-360zM150 762h319v340h-319v-340z" />
    <glyph glyph-name="semicolon" unicode=";" horiz-adv-x="692"
d="M242 750h301v348h-301v-348zM246 68l-96 -373h204l185 358v226h-293v-211z" />
    <glyph glyph-name="less" unicode="&#x3c;" horiz-adv-x="1628"
d="M1479 1178l-1307 -349l-22 -262l1226 -569l27 303l-858 391l911 238z" />
    <glyph glyph-name="equal" unicode="=" horiz-adv-x="1570"
d="M150 711h1271v231h-1271v-231zM150 330h1271v260h-1271v-260z" />
    <glyph glyph-name="greater" unicode="&#x3e;" horiz-adv-x="1628"
d="M1087 655l-911 -235l-26 -305l1306 348l23 262l-1225 571l-23 -247z" />
    <glyph glyph-name="question" unicode="?" horiz-adv-x="1110"
d="M322 -8h319v338h-319v-338zM645 375v151q0 86 10 115q4 11 11 21q4 7 15.5 24.5t18.5 28.5q9 15 21 33q6 6 17.5 18t17.5 18q25 30 32 37q76 82 121 150q49 73 49 155q0 166 -110 267q-109 100 -297 100q-199 0 -401 -123v-237q238 161 368 161q87 0 133 -55
q54 -57 54 -121q-5 -27 -33 -55q-7 -9 -18.5 -20t-22 -19t-30.5 -24.5t-32 -26.5l-94 -84q-86 -84 -119 -160q-28 -76 -28 -174v-180h317z" />
    <glyph glyph-name="at" unicode="@" horiz-adv-x="2027"
d="M782 614q0 101 56 160q60 60 153 60q96 0 153.5 -59.5t57.5 -160.5t-55.5 -159t-153.5 -58q-101 0 -156 57.5t-55 159.5zM1243 166v-88q138 3 238 31q-210 -158 -451 -158q-147 0 -256 35q-110 35 -201 123q-127 141 -170 213h3q-50 83 -50 223q0 169 78 315t217 238
q169 112 396 112q156 0 287.5 -60.5t224.5 -176.5q108 -138 108 -326q0 -150 -70 -248q-58 -73 -145 -100v678h-209v-66q-100 84 -260 84q-176 0 -287 -129q-110 -124 -110 -327q0 -202 110.5 -329.5t286.5 -127.5q157 0 260 84zM1716 236q162 152 162 415q0 243 -152 443
q-123 157 -299.5 242t-382.5 85q-184 0 -347 -65.5t-291 -190.5q-124 -125 -190 -284.5t-66 -335.5q0 -376 256 -629q257 -248 624 -248q306 0 582 213l-117 232q136 41 221 123z" />
    <glyph glyph-name="A" unicode="A" horiz-adv-x="1710"
d="M1065 532h-418q53 161 53 162q27 80 54 156q42 127 49 151q7 22 24.5 74.5t26.5 81.5zM150 0h342l71 231h582l53 -231h363l-590 1493h-232z" />
    <glyph glyph-name="B" unicode="B" horiz-adv-x="1400"
d="M418 678h270q141 0 205 -55q59 -50 59 -82q0 -109 -55 -146q-67 -39 -209 -39h-270v322zM418 1288h246q121 0 180 -55t59 -150q0 -176 -239 -176h-246v381zM150 0h546q256 0 404.5 113.5t148.5 320.5q0 276 -268 375q143 79 143 297q0 184 -127 287q-127 100 -366 100
h-481v-1493z" />
    <glyph glyph-name="C" unicode="C" horiz-adv-x="1517"
d="M1368 1106v309q-148 71 -260.5 91.5t-257.5 13.5q-338 -15 -519 -217t-181 -558q0 -357 196 -565.5t535 -208.5q255 0 487 156v440q-248 -227 -477 -227q-239 0 -349.5 91t-113.5 314q0 269 105 404t327 135q131 0 240.5 -34.5t267.5 -143.5z" />
    <glyph glyph-name="D" unicode="D" horiz-adv-x="1566"
d="M426 1260h195q272 0 399 -121q129 -120 129 -369q-44 -188 -145 -266q-107 -72 -383 -72h-195v828zM150 0h432q424 0 628 180q207 186 207 568q0 375 -205 565q-211 180 -630 180h-432v-1493z" />
    <glyph glyph-name="E" unicode="E" horiz-adv-x="1288"
d="M150 0h989v371h-721v305h674v235h-674v344h704v238h-972v-1493z" />
    <glyph glyph-name="F" unicode="F" horiz-adv-x="1200"
d="M150 0h327l-18 639h540v274h-550q4 110 8 168q4 56 8 164h586v248h-850z" />
    <glyph glyph-name="G" unicode="G" horiz-adv-x="1613"
d="M1169 526v-116q-28 -22 -86 -35h2q-72 -17 -174 -17q-248 0 -364 82h2q-109 81 -121 326q0 539 483 539q254 0 506 -215v286q-230 144 -522 144q-349 0 -547 -206.5t-198 -568.5q0 -361 196 -569q202 -205 549 -205q316 0 569 179v638h-598v-262h303z" />
    <glyph glyph-name="H" unicode="H" horiz-adv-x="1476"
d="M150 0h296v475h582v-475h297l-18 1493h-279v-676h-582v676h-276z" />
    <glyph glyph-name="I" unicode="I" horiz-adv-x="606"
d="M150 0h307l-19 1493h-258z" />
    <glyph glyph-name="J" unicode="J" horiz-adv-x="968"
d="M543 1497l-56 -1386q0 -47 -47 -91q-48 -45 -155 -51l-135 31v-395l147 -15q242 3 354 121q109 115 115 385l53 1385z" />
    <glyph glyph-name="K" unicode="K" horiz-adv-x="1574"
d="M150 0h327q-4 94 -8 141q-4 107 -16 301q-1 27 -4.5 76.5t-4.5 71.5l416 -590h563l-790 793l745 700h-356l-582 -549l17 549h-267z" />
    <glyph glyph-name="L" unicode="L" horiz-adv-x="1269"
d="M150 0h948l22 371h-692l8 1122h-266z" />
    <glyph glyph-name="M" unicode="M" horiz-adv-x="1771"
d="M150 0h352q-15 411 -17 512q-12 344 -16 516l274 -803h285l275 801l-33 -1026h352l-59 1493h-330l-346 -723l-330 723h-346z" />
    <glyph glyph-name="N" unicode="N" horiz-adv-x="1468"
d="M150 0h321q-2 48 -11 234t-14 290q-12 267 -24 531l559 -1055h338v1493h-252l-27 -1042l-553 1013h-299z" />
    <glyph glyph-name="O" unicode="O" horiz-adv-x="1687"
d="M846 1286q191 0 302.5 -143.5t111.5 -397.5q0 -97 -26.5 -162.5t-82 -102t-128.5 -51.5t-177 -15q-201 0 -314 67q-104 69 -104 264q0 253 115 402q117 139 303 139zM846 1520q-316 0 -508 -213q-188 -212 -188 -562q0 -349 188 -561q192 -213 508 -213q312 0 504 213
q188 212 188 561q0 350 -188 562q-192 213 -504 213z" />
    <glyph glyph-name="P" unicode="P" horiz-adv-x="1339"
d="M485 1335h203q126 0 194 -59t68 -168q0 -110 -68 -169.5t-194 -59.5h-219q4 148 8 231q4 146 8 225zM150 0h307l18 551h195q254 0 387 127t133 354q0 228 -130.5 344.5t-389.5 116.5h-459z" />
    <glyph glyph-name="Q" unicode="Q" horiz-adv-x="1800"
d="M846 1286q190 0 302 -144t112 -397q0 -195 -148 -278q-107 15 -238 76q-3 -5 -9 -15.5t-9 -15.5q-8 -16 -22 -37q-3 -7 -11.5 -20.5t-11.5 -18.5q-3 -6 -10 -17.5t-10 -17.5l-66 13q-84 10 -195 73q-102 61 -102 258q0 253 115 402q117 139 303 139zM1651 -252l-334 373
q60 72 139 217q80 151 80 407q0 351 -188.5 563t-501.5 212q-317 0 -506.5 -212t-189.5 -563q0 -232 85.5 -408t241.5 -271t359 -95h26q3 0 16 1t21 1l199 -225h553z" />
    <glyph glyph-name="R" unicode="R" horiz-adv-x="1503"
d="M1112 1047q0 222 -131 335q-126 111 -360 111h-471v-1493h305v598h104q105 0 162.5 -41.5t120.5 -171.5v2l151 -387h361q-17 34 -55 108.5t-56 110.5q-17 34 -56 111.5t-57 111.5q-97 190 -188 258q170 103 170 347zM436 1317h205q40 0 76 -7.5t70.5 -26.5t59 -48.5
t39.5 -77.5t15 -110q0 -66 -81.5 -121.5t-178.5 -55.5h-205v447z" />
    <glyph glyph-name="S" unicode="S" horiz-adv-x="1372"
d="M1139 1161v275q-254 84 -455 84q-245 0 -389.5 -119.5t-144.5 -325.5q0 -177 105 -279t331 -145l116 -22q134 -29 193 -78q51 -51 51 -88q0 -45 -72 -96q-85 -60 -233 -60q-198 0 -485 162v-395q276 -103 485 -103q287 0 434.5 116t147.5 341q0 190 -110.5 302.5
t-340.5 156.5h2l-117 22q-147 27 -196 70q-43 34 -43 113q0 93 75.5 143.5t213.5 50.5q164 0 432 -125z" />
    <glyph glyph-name="T" unicode="T" horiz-adv-x="1574"
d="M150 1255l501 19l-37 -1274h347l-37 1274l501 -21v240h-1275v-238z" />
    <glyph glyph-name="U" unicode="U" horiz-adv-x="1460"
d="M150 1493v-924q0 -295 147 -446.5t434 -151.5t433.5 151t146.5 447v924h-269v-766q0 -214 -73 -305v2q-71 -86 -238 -86q-166 0 -237 86v-2q-74 92 -74 305v766h-270z" />
    <glyph glyph-name="V" unicode="V" horiz-adv-x="1705"
d="M1036 0l518 1493h-276l-424 -999l-426 999h-278l520 -1493h366z" />
    <glyph glyph-name="W" unicode="W" horiz-adv-x="2191"
d="M483 0h357q19 46 127 332q23 63 65.5 178.5t61.5 167.5l235 -678h336l377 1493h-262q-34 -111 -154 -481q-14 -44 -151 -498l-277 608h-217q-28 -56 -84 -164.5t-66 -128.5q-127 -250 -151 -297l-270 961h-260z" />
    <glyph glyph-name="X" unicode="X" horiz-adv-x="1662"
d="M666 702l-516 -702h407l274 469l275 -469h405l-495 700l459 793h-295l-332 -565l-332 565h-293z" />
    <glyph glyph-name="Y" unicode="Y" horiz-adv-x="1619"
d="M637 512v-512h336v512l495 981h-290l-367 -684l-371 684h-290z" />
    <glyph glyph-name="Z" unicode="Z" horiz-adv-x="1533"
d="M172 1255h825l-847 -931v-324h1232v360h-870l850 934v199h-1190v-238z" />
    <glyph glyph-name="bracketleft" unicode="[" horiz-adv-x="770"
d="M150 -252h471v283h-226v1288h226v209h-471v-1780z" />
    <glyph glyph-name="backslash" unicode="\" horiz-adv-x="987"
d="M150 1468l411 -1658l277 -13l-451 1665z" />
    <glyph glyph-name="bracketright" unicode="]" horiz-adv-x="770"
d="M150 1528v-209h223v-1299h-223v-272h471v1780h-471z" />
    <glyph glyph-name="asciicircum" unicode="^" horiz-adv-x="1677"
d="M752 1468l-602 -594h399l289 398l290 -398h400l-602 594h-174z" />
    <glyph glyph-name="underscore" unicode="_" horiz-adv-x="1368"
d="M150 -209v-242h1069v242h-1069z" />
    <glyph glyph-name="grave" unicode="`" horiz-adv-x="886"
d="M150 1604l235 -424h350l-319 424h-266z" />
    <glyph glyph-name="a" unicode="a" horiz-adv-x="1257"
d="M766 535v-3q0 -75 -9.5 -119t-36 -67t-61 -30t-96.5 -7q-79 0 -145 17q-37 12 -49 63q3 77 49 109q52 37 229 37h119zM1108 0v635q0 510 -487 510q-173 0 -394 -84v-227q206 110 373 110q119 -9 186.5 -64t73.5 -145h-203q-507 0 -507 -393q0 -168 106 -268
q107 -101 283 -101q199 0 321 113v-86h248z" />
    <glyph glyph-name="b" unicode="b" horiz-adv-x="1310"
d="M897 410q-70 -51 -166 -56q-112 0 -172.5 59.5t-79.5 182.5q3 170 72 264q72 88 184 88q117 0 172 -88q64 -92 70 -260q-24 -143 -80 -190zM193 211l204 -127q108 -111 297 -111q208 0 336.5 162.5t128.5 423.5t-128.5 423.5t-336.5 162.5q-186 0 -293 -107l17 490h-248z
" />
    <glyph glyph-name="c" unicode="c" horiz-adv-x="1202"
d="M1053 829v238q-179 78 -340 78q-261 0 -412 -158t-151 -428q0 -265 150.5 -425.5t401.5 -160.5q174 0 351 80l-6 359q-113 -67 -185 -70h-147q-159 14 -226 57q-60 45 -73 164q2 176 79.5 273.5t225.5 97.5q141 0 332 -105z" />
    <glyph glyph-name="d" unicode="d" horiz-adv-x="1327"
d="M932 1528l-17 -496q-113 113 -301 113q-208 0 -336 -162.5t-128 -423.5t128 -423.5t336 -162.5q192 0 297 111v-84h248l19 1528h-246zM416 854v-2q68 92 184 92q111 0 170 -94q58 -90 64 -260q-2 -75 -15.5 -120.5t-45 -70t-71 -32t-106.5 -7.5q-120 0 -176 50
q-59 52 -76 174q3 169 72 270z" />
    <glyph glyph-name="e" unicode="e"
d="M1184 565v107q-18 234 -140 350h3q-120 114 -347 123q-251 0 -396 -160.5t-154 -433.5q0 -264 157 -418q160 -151 420 -160q208 0 426 93l-4 323q-142 -74 -223 -80q-84 -8 -189 -8q-164 13 -250 66q-69 50 -81 198h778zM950 791h-524q12 54 72 114v-2q75 78 202 78
q111 0 177 -78q54 -64 73 -112z" />
    <glyph glyph-name="f" unicode="f" horiz-adv-x="993"
d="M834 1487l-187 20q-141 0 -233 -77q-98 -76 -101 -273l-6 -37h-157v-246h153l-27 -874h324q-2 61 -7 208t-7 228q-6 237 -15 438h273v246h-277q0 13 -2 19v10q-2 4 -2 10q-2 4 -2 17q0 84 17 98q13 16 63 16l193 -22v219z" />
    <glyph glyph-name="g" unicode="g" horiz-adv-x="1327"
d="M838 582q0 -63 -12.5 -106t-31.5 -67.5t-56.5 -37.5t-73.5 -16t-95 -3q-122 0 -180 33q-46 40 -61 201q0 79 16 151q53 201 238 201q121 0 188 -92q68 -96 68 -264zM1178 1120h-244q0 -13 -4 -45q-1 -8 -3 -25.5t-3 -25.5q-109 121 -310 121q-210 0 -337 -159t-127 -415
q0 -255 127 -413t337 -158q126 0 217 49q11 7 29.5 19t24.5 16q-32 -67 -72 -111q-70 -79 -219 -79q-151 0 -338 104v-395q189 -66 365 -66q262 0 391 144q124 133 137 485z" />
    <glyph glyph-name="h" unicode="h" horiz-adv-x="1290"
d="M1120 670v-2q0 236 -101.5 356.5t-299.5 120.5q-185 0 -299 -117l16 500h-248l-38 -1528h286q-2 105 -10 313q-1 58 -4 165t-4 151q0 140 71 225.5t191 85.5q96 0 145 -72t49 -204l-20 -664h287z" />
    <glyph glyph-name="i" unicode="i" horiz-adv-x="550"
d="M152 0h245l-8 1120h-227zM150 1235h249l-12 293h-225z" />
    <glyph glyph-name="j" unicode="j" horiz-adv-x="874"
d="M449 1116l-48 -989q-3 -73 -8 -104q-10 -43 -20 -56q-30 -30 -111 -33h-106l-6 -331l133 -2q182 6 272 102q84 93 90 307l39 1102zM475 1235h250l-12 293h-226z" />
    <glyph glyph-name="k" unicode="k" horiz-adv-x="1386"
d="M150 0h307l-25 418l340 -418h465q-41 41 -147 143q-27 25 -80 77t-80 77q-24 23 -51.5 49t-60 58t-50.5 49q-26 26 -76.5 74t-73.5 71l422 522h-315l-299 -350l10 758h-248z" />
    <glyph glyph-name="l" unicode="l" horiz-adv-x="673"
d="M150 0h372v287h-114v1241h-238z" />
    <glyph glyph-name="m" unicode="m" horiz-adv-x="1939"
d="M938 1081q-98 64 -223 64q-170 0 -283 -101l6 76h-250l-38 -1120h305q-1 47 -11 313q-2 50 -5 157t-5 159q0 137 76 235q70 94 184 94q92 0 135 -61.5t45 -191.5l-69 -705h315l10 627q0 145 65 233t177 88q86 0 119 -57.5t33 -198.5l-51 -692h317q-2 99 -10 336
q-2 47 -5.5 161.5t-5.5 172.5v-2q0 232 -98 354q-97 123 -278 123q-66 0 -118.5 -13t-93 -39t-70.5 -57t-60 -75q-39 71 -113 120z" />
    <glyph glyph-name="n" unicode="n" horiz-adv-x="1318"
d="M1167 0l-28 670q-12 232 -116 353.5t-298 121.5q-117 0 -211 -51q-16 -9 -88 -54v88h-246l-30 -1128h315l-31 639q0 141 67.5 217t205.5 76q93 0 134.5 -63t41.5 -195l-39 -674h323z" />
    <glyph glyph-name="o" unicode="o"
d="M668 944q118 0 189 -94.5t71 -259.5q0 -158 -64 -203q-75 -43 -196 -43q-57 0 -94 4.5t-72 19.5t-54 42t-30.5 71.5t-11.5 108.5q0 166 70.5 260t191.5 94zM668 1145q-244 0 -381 -158q-137 -155 -137 -428t137 -428q137 -158 381 -158q239 0 377.5 158t138.5 428
t-138.5 428t-377.5 158z" />
    <glyph glyph-name="p" unicode="p" horiz-adv-x="1329"
d="M397 -397l17 483q113 -113 301 -113q206 0 335.5 163.5t129.5 422.5q0 258 -130 422t-335 164q-170 0 -283 -96l6 71h-250l-24 -999l-64 -518h297zM995 590q0 -85 -14 -137t-47.5 -79t-74.5 -35.5t-109 -8.5q-69 0 -112.5 9t-81 35.5t-54.5 79.5t-17 136q0 171 70 274v-2
q70 94 184 94q118 0 185 -94q71 -95 71 -272z" />
    <glyph glyph-name="q" unicode="q" horiz-adv-x="1544"
d="M338 584q0 173 72 274h-2q71 92 186 92q113 0 184 -92q72 -104 72 -274q0 -169 -66 -207q-70 -43 -196 -43q-69 0 -109.5 7.5t-75.5 32.5t-50 76t-15 134zM1225 -127l-92 133q-3 4 -6 34.5t-3 43.5l54 1036h-242q-4 -30 -12 -96q-109 121 -310 121q-208 0 -336 -162.5
t-128 -423.5t128 -423.5t336 -162.5q98 0 168.5 25t126.5 82l-16 -477h213q35 0 104 18l185 49q-13 7 -28.5 21t-27.5 26.5t-30.5 37.5t-27.5 37t-29.5 42.5t-26.5 38.5z" />
    <glyph glyph-name="r" unicode="r" horiz-adv-x="978"
d="M829 838l-2 272q-79 16 -112 16q-136 0 -232 -57v2q-5 -3 -14 -9t-14 -9q-14 -5 -29 -17v74h-225l-51 -1110h296l-20 561q0 154 59 246q54 82 179 82q44 0 69 -6q41 -13 96 -45z" />
    <glyph glyph-name="s" unicode="s" horiz-adv-x="1173"
d="M969 848v229q-169 68 -371 68q-214 0 -327 -88.5t-113 -255.5q0 -136 79 -207.5t252 -106.5h-2l62 -14q141 -29 162 -47q12 -14 43 -66q0 -47 -49 -69q-48 -25 -148 -25q-170 0 -407 123v-340q232 -76 405 -76q215 0 342 95t127 258q0 142 -90 223q-88 75 -279 115
q-14 0 -26 6q-5 1 -15.5 3t-15.5 3q-126 27 -172 61q-37 30 -37 80q0 60 58.5 93.5t168.5 33.5q156 0 353 -96z" />
    <glyph glyph-name="t" unicode="t" horiz-adv-x="1026"
d="M287 1378l-11 -258h-126v-209h126l-10 -528q0 -212 91 -297.5t307 -85.5h213v330h-213q-92 0 -115 26q-27 24 -27 138l10 417h242v209h-239l8 258h-256z" />
    <glyph glyph-name="u" unicode="u" horiz-adv-x="1259"
d="M150 1120v-669q0 -235 103 -356.5t302 -121.5q175 0 291 113l-4 -86h248l20 1120h-274l-11 -479q-13 -149 -75 -219q-64 -76 -189 -76q-93 0 -138.5 65t-53.5 197v512h-219z" />
    <glyph glyph-name="v" unicode="v" horiz-adv-x="1425"
d="M559 0h307l410 1120h-262q-27 -65 -79.5 -187t-70.5 -165q-6 -14 -151 -354l-301 706h-262z" />
    <glyph glyph-name="w" unicode="w" horiz-adv-x="1800"
d="M442 0h285l172 412l164 -412h295l293 1120h-248q-17 -54 -98 -332q-33 -113 -99 -335l-162 321h-286l-162 -321l-197 667h-249z" />
    <glyph glyph-name="x" unicode="x" horiz-adv-x="1511"
d="M1313 1120h-262q-9 -13 -148 -198q-123 -169 -147 -201l-269 399h-272l383 -579l-448 -541h376l238 336l221 -336h377q-20 24 -105 127q-21 26 -61 73.5t-53 63.5q-19 22 -57 68t-58 69q-30 35 -106 129z" />
    <glyph glyph-name="y" unicode="y" horiz-adv-x="1429"
d="M1280 1120h-260l-264 -567l-346 567h-260q19 -41 57 -122t57 -121q39 -84 118 -254t118 -254q18 -39 56 -120.5t58 -123.5q-7 -13 -17.5 -36t-14.5 -30q-24 -41 -35 -65q-38 -52 -78 -84q-32 -25 -84 -25h-158v-301h193q69 0 118 13.5t98 50.5t92.5 104.5t90.5 173.5z
" />
    <glyph glyph-name="z" unicode="z" horiz-adv-x="1222"
d="M193 918h571l-614 -617v-301h913v305h-535l545 606v209h-880v-202z" />
    <glyph glyph-name="braceleft" unicode="{" horiz-adv-x="1130"
d="M950 -59h-98q-116 3 -139 32q-26 26 -33 113l2 229q-6 136 -47 211q-25 48 -70 74q49 27 76 70q50 77 53 231l4 234v-2q1 35 1.5 53t4.5 39t7 30t14.5 20t21 14.5t31.5 8t42 6t57 3.5h100l4 206l-98 3q-128 -3 -206 -20t-130.5 -59.5t-73 -112.5t-22.5 -183l-5 -223
q-3 -125 -40 -162q-40 -37 -162 -43h-92l-2 -207h20h27q8 -2 26 -2h21q114 -3 149 -44.5t41 -172.5l-2 -221q6 -216 88 -304q96 -83 334 -86l94 -2z" />
    <glyph glyph-name="bar" unicode="|" horiz-adv-x="620"
d="M432 565h-231l-51 -1016h253zM430 592l41 944h-233l-41 -944h233z" />
    <glyph glyph-name="braceright" unicode="}" horiz-adv-x="1112"
d="M150 -311h96q252 0 336 78h-2q92 80 92 303v223q0 127 39.5 170t156.5 43h95v207h-95q-115 0 -155 43v-2q-41 41 -41 168v225q0 220 -92 303h2q-90 78 -336 78h-96v-209h104q60 0 90.5 -5t51 -25t25.5 -52t5 -94v-232q0 -163 47 -233q28 -45 74 -70q-44 -24 -74 -69
q-47 -73 -47 -224v-231q0 -51 -4 -79.5t-12.5 -50t-30 -30.5t-49 -12.5t-76.5 -3.5h-104v-219z" />
    <glyph glyph-name="asciitilde" unicode="~" horiz-adv-x="1570"
d="M1421 635v244q-124 -101 -211.5 -146t-160.5 -45q-79 0 -218 53q-4 4 -10 7q-2 0 -5.5 1t-4.5 1l-14 6q-148 59 -254 59q-96 0 -189 -37q-97 -38 -204 -121v-292q25 21 118 98q86 70 113 90q68 51 139 51q82 0 219 -76l21 -6l12 -4q148 -88 256 -88q97 0 195 64v-2
q15 10 49.5 33.5t46.5 31.5q53 37 102 78z" />
    <glyph glyph-name="uni00A0" unicode="&#xa0;" horiz-adv-x="1753"
 />
    <glyph glyph-name="exclamdown" unicode="&#xa1;" horiz-adv-x="622"
d="M463 1468h-303v-329h303v329zM463 649l-23 371h-258l-22 -371l-10 -649h321z" />
    <glyph glyph-name="cent" unicode="&#xa2;" horiz-adv-x="1210"
d="M631 934l-15 -664q-95 26 -147 86h2q-63 72 -63 199q6 156 63 252q64 99 160 127zM1059 831l2 220q-126 62 -256 77l4 273l-170 2q-2 -41 -2 -133q-1 -23 -2 -69t-2 -68q-218 -27 -342 -168q-135 -150 -141 -406q-3 -253 126 -409q123 -147 336 -177l-4 -274h170
q0 20 1 64t1 67q2 47 2 135q134 18 262 72l7 319q-163 -80 -263 -96l13 678q84 -10 258 -107z" />
    <glyph glyph-name="sterling" unicode="&#xa3;" horiz-adv-x="1323"
d="M1165 1151l6 258q-185 71 -309 74q-233 -6 -346 -125t-119 -375l-6 -184l-184 2l-4 -191l184 -2q-1 -30 -2 -85.5t-2 -82.5q-4 -106 -4 -164l-221 5l-8 -281l1003 -16l6 278l-520 10q2 69 6 168q1 27 2 81t2 83l365 -8l4 190q-22 0 -180 5q-32 0 -94.5 1t-90.5 1l4 163
q2 76 10.5 126t23.5 84t42 52.5t60.5 27t85.5 11.5q100 -3 286 -106z" />
    <glyph glyph-name="currency" unicode="&#xa4;" horiz-adv-x="1447"
d="M1141 1210l-201 -198q-109 59 -215 59q-114 0 -215 -61l-199 198l-159 -159q20 -17 47 -48l51 -51l51 -51q5 -5 15 -15.5t18.5 -19t15.5 -14.5q-61 -101 -61 -213q0 -102 59 -217l-198 -199l157 -160l201 199q109 -59 217 -59q113 0 215 61l199 -196l157 155l-198 201
q61 99 61 215q0 111 -59 217l198 199zM938 637q0 -90 -64 -154h3q-59 -59 -152 -59t-154 61v-2q-61 61 -61 154q0 90 62.5 150.5t152.5 60.5q91 0 152 -60t61 -151z" />
    <glyph glyph-name="yen" unicode="&#xa5;" horiz-adv-x="1503"
d="M1280 614h-389l63 117h326v191h-223l297 546h-283q-25 -49 -78 -150.5t-80 -154.5q-41 -75 -161 -307l-322 612h-280l288 -546h-223v-191h328q35 -51 41 -57q4 -6 17.5 -27.5t21.5 -32.5h-390v-227h385l-26 -387h321q0 26 -4 92q-4 70 -4 101q-5 83 -6 100q-4 66 -4 94
h385v227z" />
    <glyph glyph-name="brokenbar" unicode="&#xa6;" horiz-adv-x="532"
d="M150 455v-783h233v783h-233zM150 1411v-782h233v782h-233z" />
    <glyph glyph-name="section" unicode="&#xa7;" horiz-adv-x="1155"
d="M436 901l23 -12l18 14zM725 719q55 -52 55 -107q0 -61 -84 -127q-207 117 -268 172q-53 53 -53 107q0 59 84 125q205 -112 266 -170zM911 1190v237q-177 66 -321 66q-163 0 -273 -84q-106 -81 -106 -223q0 -115 84 -205q-69 -47 -107 -117.5t-38 -150.5q0 -78 27.5 -134
t99 -114t210.5 -135l25 -15q186 -104 186 -157q0 -48 -39.5 -66t-123.5 -18q-102 0 -312 94v-287q192 -63 332 -63q175 0 282 89t107 238q0 114 -86 203q148 106 148 270q0 105 -70 191q-61 72 -268 192l-37 21q-172 99 -172 160q0 48 39.5 75t113.5 27q98 0 299 -94z" />
    <glyph glyph-name="dieresis" unicode="&#xa8;" horiz-adv-x="968"
d="M541 1260h278v276h-278v-276zM150 1260h278v276h-278v-276z" />
    <glyph glyph-name="copyright" unicode="&#xa9;" horiz-adv-x="1757"
d="M879 1460q-197 0 -365 -98t-266 -266.5t-98 -366.5q0 -299 215 -514t514 -215q196 0 364 98.5t266.5 266.5t98.5 364q0 198 -98.5 366.5t-266.5 266.5t-364 98zM879 1290q230 0 397 -164q162 -165 162 -397q0 -239 -160 -362l2 2q-180 -123 -401 -123q-216 0 -402 123
l6 -4q-166 152 -166 364q0 228 166 397q167 164 396 164zM1194 944v180q-153 64 -293 64q-218 0 -345.5 -124t-127.5 -335q0 -210 128.5 -334.5t344.5 -124.5q150 0 293 66v260q-164 -84 -270 -84q-122 0 -195.5 66.5t-73.5 150.5q0 131 70 217q67 82 188 82q112 0 281 -84z
" />
    <glyph glyph-name="ordfeminine" unicode="&#xaa;" horiz-adv-x="1038"
d="M172 438h717v189h-717v-189zM887 670v454q0 188 -91.5 278.5t-283.5 90.5q-139 0 -305 -63v-205q183 86 285 86q157 0 178 -99h-129q-391 0 -391 -292q0 -121 82.5 -195t216.5 -74t225 70v-51h213zM700 1092l-36 36v-26v-10h36zM612 952q-49 -55 -129 -55q-59 0 -95 26
t-36 68q0 54 39 74q53 27 193 27h80q-3 -85 -52 -140z" />
    <glyph glyph-name="guillemotleft" unicode="&#xab;" horiz-adv-x="1280"
d="M608 641l-53 -143l489 -469l64 301q-123 117 -127 121q-25 24 -68.5 64.5t-60.5 57.5l268 226l10 278zM203 655l-53 -143l491 -469l61 299q-88 88 -256 248l271 223l8 279z" />
    <glyph glyph-name="logicalnot" unicode="&#xac;" horiz-adv-x="1601"
d="M150 879v-252q155 2 518 10q90 1 262.5 4t255.5 4l-47 -377h311l-31 611h-1269z" />
    <glyph glyph-name="softhyphen" unicode="&#xad;" horiz-adv-x="888"
d="M150 446l579 11l8 227l-577 -10z" />
    <glyph glyph-name="registered" unicode="&#xae;" horiz-adv-x="1757"
d="M879 1290q111 0 213.5 -39.5t183.5 -111.5q162 -162 162 -365q0 -139 -74.5 -257.5t-203.5 -187.5t-281 -69q-151 0 -280.5 70t-205.5 188.5t-76 255.5q0 138 76 257t205.5 189t280.5 70zM879 1460q-197 0 -365 -98t-266 -266.5t-98 -366.5q0 -299 215 -514t514 -215
q196 0 364 98.5t266.5 266.5t98.5 364q0 198 -98.5 366.5t-266.5 266.5t-364 98zM823 1047h76q83 0 115.5 -21t32.5 -72q0 -53 -29 -72.5t-119 -19.5h-76v185zM557 1169v-854h266v332h15q2 0 6 -4q1 -1 4 -2t4 -2q2 -4 10 -8q31 -22 80 -103l131 -213h248l-162 267
q-49 75 -82 110q148 61 148 217q0 132 -89.5 196t-275.5 64h-303z" />
    <glyph glyph-name="macron" unicode="&#xaf;" horiz-adv-x="931"
d="M150 1286h632v213h-632v-213z" />
    <glyph glyph-name="degree" unicode="&#xb0;" horiz-adv-x="966"
d="M483 1346q58 0 99 -38t41 -87q0 -52 -40.5 -87.5t-99.5 -35.5q-60 0 -100.5 35.5t-40.5 87.5q0 51 41.5 88t99.5 37zM483 1493q-143 0 -237 -98q-96 -96 -96 -238q0 -141 95 -236.5t236 -95.5q136 0 238 97q96 96 96 235q0 146 -96 238l2 -2q-97 100 -238 100z" />
    <glyph glyph-name="plusminus" unicode="&#xb1;" horiz-adv-x="1570"
d="M670 1274v-363h-520v-231h520v-363h231v363h520v231h-520v363h-231zM150 0h1271v252h-1271v-252z" />
    <glyph glyph-name="twosuperior" unicode="&#xb2;" horiz-adv-x="933"
d="M782 805h-331q2 2 3.5 3t2 1.5t0.5 1.5h2q319 276 319 422q0 119 -93 189.5t-243 70.5q-112 0 -286 -61v-203q177 88 268 88q63 0 100 -27t37 -73q0 -69 -307 -345l-104 -92v-157h632v182z" />
    <glyph glyph-name="threesuperior" unicode="&#xb3;" horiz-adv-x="952"
d="M782 1253q0 111 -96 179q-89 61 -233 61q-117 0 -277 -41v-184q104 28 156 39q49 10 90 10q70 0 107.5 -19.5t37.5 -54.5q0 -78 -141 -78h-125v-176h117q168 0 168 -100q0 -50 -45.5 -76.5t-130.5 -26.5q-118 0 -260 74v-203q162 -49 272 -49q185 0 283 72.5t98 208.5
q0 129 -115 196q94 60 94 168z" />
    <glyph glyph-name="acute" unicode="&#xb4;" horiz-adv-x="952"
d="M150 1139h249l404 465h-305z" />
    <glyph glyph-name="mu" unicode="&#xb5;" horiz-adv-x="1427"
d="M170 -397h246q0 63 -4 219q0 77 -4 225q86 -74 229 -74q146 0 260 105q47 -105 168 -105q48 0 104 39q11 8 29 19t31 16q4 3 13 9.5t13 9.5q13 5 23 12v217q-15 -7 -38 -17t-30 -14q-27 -10 -30 -10q-70 3 -70 25l8 841h-246l-10 -450q0 -277 -239 -277q-217 0 -217 236
l-11 501l-245 -12z" />
    <glyph glyph-name="paragraph" unicode="&#xb6;" horiz-adv-x="1437"
d="M1071 1468h-440q-216 0 -348.5 -118.5t-132.5 -313.5q0 -187 120 -301q105 -94 195 -123l-66 -796h379v1464h103l-11 -1464h418z" />
    <glyph glyph-name="periodcentered" unicode="&#xb7;" horiz-adv-x="571"
d="M150 545h272v311h-272v-311z" />
    <glyph glyph-name="cedilla" unicode="&#xb8;" horiz-adv-x="761"
d="M489 76h-202q57 -76 90 -131q29 -53 29 -74q0 -49 -74 -49q-79 0 -182 53v-213q118 -31 200 -31q260 0 260 205q0 53 -29 109.5t-92 130.5z" />
    <glyph glyph-name="onesuperior" unicode="&#xb9;" horiz-adv-x="907"
d="M168 623h590v178h-191v676h-166l-251 -41v-185q6 1 22 4.5t25 4.5q37 9 108 20q23 3 53 10v-489h-190v-178z" />
    <glyph glyph-name="ordmasculine" unicode="&#xba;" horiz-adv-x="1095"
d="M190 438h717v189h-717v-189zM549 1493q-182 0 -290.5 -115.5t-108.5 -306.5q0 -190 108.5 -305t290.5 -115q183 0 290 114t107 306t-108 307t-289 115zM549 1346q80 0 129 -52q47 -53 47 -145q0 -90 -47.5 -142.5t-128.5 -52.5q-77 0 -129 52q-49 49 -49 143t47.5 145.5
t130.5 51.5z" />
    <glyph glyph-name="guillemotright" unicode="&#xbb;" horiz-adv-x="1269"
d="M178 856l250 -248l-278 -223l36 -303l531 426l-41 145l-483 480zM582 834l252 -246l-279 -223l35 -306l530 426l-41 148l-483 479z" />
    <glyph glyph-name="onequarter" unicode="&#xbc;" horiz-adv-x="2021"
d="M168 623h590v178h-191v676h-166l-251 -41v-185q6 1 22 4.5t25 4.5q37 9 108 20q23 3 53 10v-489h-190v-178zM721 -27h235l916 1520h-238zM1452 305h-176l176 242v-242zM1067 293v-164h385v-172h211v172h125v176h-125v506h-213z" />
    <glyph glyph-name="onehalf" unicode="&#xbd;" horiz-adv-x="2015"
d="M168 623h590v178h-191v676h-166l-251 -41v-185q6 1 22 4.5t25 4.5q37 9 108 20q23 3 53 10v-489h-190v-178zM461 -27h235l916 1520h-238zM1866 137h-332l6 6v2q322 275 322 420q0 119 -93 189.5t-243 70.5q-113 0 -287 -61v-203q177 88 266 88q63 0 101.5 -27t38.5 -71
q0 -71 -310 -344l-102 -94v-156h633v180z" />
    <glyph glyph-name="threequarters" unicode="&#xbe;" horiz-adv-x="1892"
d="M782 1253q0 111 -96 179q-89 61 -233 61q-117 0 -277 -41v-184q104 28 156 39q49 10 90 10q70 0 107.5 -19.5t37.5 -54.5q0 -78 -141 -78h-125v-176h117q168 0 168 -100q0 -50 -45.5 -76.5t-130.5 -26.5q-118 0 -260 74v-203q162 -49 272 -49q185 0 283 72.5t98 208.5
q0 129 -115 196q94 60 94 168zM416 -27h235l916 1520h-238zM1407 305h-176l176 242v-242zM1022 293v-164h385v-172h211v172h125v176h-125v506h-211z" />
    <glyph glyph-name="questiondown" unicode="&#xbf;" horiz-adv-x="1118"
d="M483 1094v-152q0 -18 -1 -42.5t-1 -31.5q-6 -53 -28 -80v3q-13 -21 -58 -66l-82 -80q-83 -80 -125 -153q-38 -74 -38 -152q0 -164 115.5 -265.5t301.5 -101.5q200 0 402 121v326q-238 -164 -369 -164q-88 0 -137 43q-49 40 -49 107q0 71 90 155l86 82q53 59 73 87
t32 70.5t12 110.5v183h-224zM741 1468h-264v-313h264v313z" />
    <glyph glyph-name="Agrave" unicode="&#xc0;" horiz-adv-x="1710"
d="M1065 532h-418q53 161 53 162q27 80 54 156q42 127 49 151q7 22 24.5 74.5t26.5 81.5zM150 0h342l71 231h582l53 -231h363l-590 1493h-232zM428 1872l279 -322h233l-238 322h-274z" />
    <glyph glyph-name="Aacute" unicode="&#xc1;" horiz-adv-x="1710"
d="M1065 532h-418q53 161 53 162q27 80 54 156q42 127 49 151q7 22 24.5 74.5t26.5 81.5zM150 0h342l71 231h582l53 -231h363l-590 1493h-232zM717 1550h233l279 322h-275z" />
    <glyph glyph-name="Acircumflex" unicode="&#xc2;" horiz-adv-x="1710"
d="M1065 532h-418q53 161 53 162q27 80 54 156q42 127 49 151q7 22 24.5 74.5t26.5 81.5zM150 0h342l71 231h582l53 -231h363l-590 1493h-232zM485 1550h224q7 9 67 74q50 54 72 76l139 -150h223l-258 324h-211z" />
    <glyph glyph-name="Atilde" unicode="&#xc3;" horiz-adv-x="1710"
d="M1065 532h-418q53 161 53 162q27 80 54 156q42 127 49 151q7 22 24.5 74.5t26.5 81.5zM150 0h342l71 231h582l53 -231h363l-590 1493h-232zM778 1657l56 -33q62 -29 84 -35q27 -8 69 -8q97 0 154 76q56 74 59 203h-190v-43q0 -22 -9 -36t-22 -14q-19 0 -49 21l-53 27
q-34 21 -82 36q-38 9 -72 9q-98 0 -156 -74q-57 -75 -57 -205h190v43q0 51 35 51q9 0 43 -18z" />
    <glyph glyph-name="Adieresis" unicode="&#xc4;" horiz-adv-x="1710"
d="M1065 532h-418q53 161 53 162q27 80 54 156q42 127 49 151q7 22 24.5 74.5t26.5 81.5zM150 0h342l71 231h582l53 -231h363l-590 1493h-232zM895 1581h262v264h-262v-264zM528 1581h267v264h-267v-264z" />
    <glyph glyph-name="Aring" unicode="&#xc5;" horiz-adv-x="1708"
d="M961 1581q0 -44 -30.5 -74t-76.5 -30q-44 0 -74 30t-30 74q0 46 30 76.5t74 30.5q42 0 74.5 -32.5t32.5 -74.5zM1059 598h-408q18 51 54 145q24 71 51 138q82 225 100 272zM150 0h284l129 365h586l129 -365h281l-515 1350q109 89 109 231q0 125 -86 211q-85 88 -213 88
q-125 0 -211 -86.5t-86 -212.5q0 -143 111 -229z" />
    <glyph glyph-name="AE" unicode="&#xc6;" horiz-adv-x="2156"
d="M774 1493l-624 -1493h452l-10 250h426v-250h989v324h-723v188h676v240h-676v503h705v238h-1215zM1018 1268v-783h-344l287 783h57z" />
    <glyph glyph-name="Ccedilla" unicode="&#xc7;" horiz-adv-x="1517"
d="M1368 1057v309q-226 154 -487 154q-339 0 -535 -209.5t-196 -565.5q0 -357 196 -565.5t535 -208.5q255 0 487 156v440q-248 -227 -477 -227q-239 0 -349.5 91t-113.5 314q0 264 118.5 401.5t344.5 137.5q229 0 477 -227zM899 76h-203q69 -93 90 -131q29 -48 29 -74
q0 -49 -74 -49q-76 0 -182 53v-213q118 -31 203 -31q260 0 260 205q0 52 -29.5 109t-93.5 131z" />
    <glyph glyph-name="Egrave" unicode="&#xc8;" horiz-adv-x="1288"
d="M150 0h989v371h-721v305h674v235h-674v344h704v238h-972v-1493zM158 1872l278 -322h234l-240 322h-272z" />
    <glyph glyph-name="Eacute" unicode="&#xc9;" horiz-adv-x="1288"
d="M150 0h989v371h-721v305h674v235h-674v344h704v238h-972v-1493zM336 1550h233l279 322h-275z" />
    <glyph glyph-name="Ecircumflex" unicode="&#xca;" horiz-adv-x="1288"
d="M150 0h989v371h-721v305h674v235h-674v344h704v238h-972v-1493zM236 1550h223q28 35 67 74q10 12 22 25t26 28t22 23l139 -150h223l-256 324h-210z" />
    <glyph glyph-name="Edieresis" unicode="&#xcb;" horiz-adv-x="1288"
d="M150 0h989v371h-721v305h674v235h-674v344h704v238h-972v-1493zM674 1581h264v264h-264v-264zM307 1581h266v264h-266v-264z" />
    <glyph glyph-name="Igrave" unicode="&#xcc;" horiz-adv-x="876"
d="M420 0h307l-18 1493h-258zM150 1872l278 -322h234l-238 322h-274z" />
    <glyph glyph-name="Iacute" unicode="&#xcd;" horiz-adv-x="819"
d="M150 0h307l-19 1493h-258zM158 1550h235l277 322h-273z" />
    <glyph glyph-name="Icircumflex" unicode="&#xce;" horiz-adv-x="1024"
d="M362 0h308l-21 1493h-256zM150 1550h223q7 9 67 74q50 54 72 76l139 -150h223l-258 324h-210z" />
    <glyph glyph-name="Idieresis" unicode="&#xcf;" horiz-adv-x="929"
d="M268 0h307l-18 1493h-258zM514 1581h264v264h-264v-264zM150 1581h266v264h-266v-264z" />
    <glyph glyph-name="Eth" unicode="&#xd0;" horiz-adv-x="1757"
d="M342 877h-192v-213h192v-664h432q418 0 629 180q205 193 205 568t-205 565q-208 180 -629 180h-432v-616zM610 1260h193q276 0 401 -122t125 -390q0 -90 -12.5 -155.5t-42.5 -111t-69 -73.5t-102.5 -43.5t-131.5 -21t-168 -5.5h-193v326h320v213h-320v383z" />
    <glyph glyph-name="Ntilde" unicode="&#xd1;" horiz-adv-x="1468"
d="M150 0h321q-2 48 -11 234t-14 290q-12 267 -24 531l559 -1055h338v1493h-252l-27 -1042l-553 1013h-299zM610 1657l56 -33q67 -30 84 -35q27 -8 69 -8q97 0 154 76q56 74 59 203h-190v-43q0 -22 -9 -36t-22 -14q-19 0 -49 21l-53 27q-34 21 -82 36q-37 9 -72 9
q-98 0 -156 -74q-57 -75 -57 -205h190v43q0 51 35 51q9 0 43 -18z" />
    <glyph glyph-name="Ograve" unicode="&#xd2;" horiz-adv-x="1687"
d="M846 1286q191 0 302.5 -143.5t111.5 -397.5q0 -97 -26.5 -162.5t-82 -102t-128.5 -51.5t-177 -15q-201 0 -314 67q-104 69 -104 264q0 253 115 402q117 139 303 139zM846 1520q-316 0 -508 -213q-188 -212 -188 -562q0 -349 188 -561q192 -213 508 -213q312 0 504 213
q188 212 188 561q0 350 -188 562q-192 213 -504 213zM459 1872l278 -322h234l-238 322h-274z" />
    <glyph glyph-name="Oacute" unicode="&#xd3;" horiz-adv-x="1687"
d="M846 1286q191 0 302.5 -143.5t111.5 -397.5q0 -97 -26.5 -162.5t-82 -102t-128.5 -51.5t-177 -15q-201 0 -314 67q-104 69 -104 264q0 253 115 402q117 139 303 139zM846 1520q-316 0 -508 -213q-188 -212 -188 -562q0 -349 188 -561q192 -213 508 -213q312 0 504 213
q188 212 188 561q0 350 -188 562q-192 213 -504 213zM657 1550h236l276 322h-272z" />
    <glyph glyph-name="Ocircumflex" unicode="&#xd4;" horiz-adv-x="1687"
d="M846 1286q191 0 302.5 -143.5t111.5 -397.5q0 -97 -26.5 -162.5t-82 -102t-128.5 -51.5t-177 -15q-201 0 -314 67q-104 69 -104 264q0 253 115 402q117 139 303 139zM846 1520q-316 0 -508 -213q-188 -212 -188 -562q0 -349 188 -561q192 -213 508 -213q312 0 504 213
q188 212 188 561q0 350 -188 562q-192 213 -504 213zM467 1550h223q24 30 68 74q11 13 69 76l142 -150h223l-258 324h-211z" />
    <glyph glyph-name="Otilde" unicode="&#xd5;" horiz-adv-x="1687"
d="M846 1286q191 0 302.5 -143.5t111.5 -397.5q0 -97 -26.5 -162.5t-82 -102t-128.5 -51.5t-177 -15q-201 0 -314 67q-104 69 -104 264q0 253 115 402q117 139 303 139zM846 1520q-316 0 -508 -213q-188 -212 -188 -562q0 -349 188 -561q192 -213 508 -213q312 0 504 213
q188 212 188 561q0 350 -188 562q-192 213 -504 213zM760 1657l53 -33q74 -32 84 -35q31 -8 72 -8q94 0 151 76q59 78 62 203h-193v-43q0 -50 -28 -50q-20 0 -50 21l-55 27h2q-34 21 -82 36q-37 9 -71 9q-98 0 -156 -74q-57 -75 -57 -205h190v43q0 51 35 51q9 0 43 -18z" />
    <glyph glyph-name="Odieresis" unicode="&#xd6;" horiz-adv-x="1687"
d="M846 1286q191 0 302.5 -143.5t111.5 -397.5q0 -97 -26.5 -162.5t-82 -102t-128.5 -51.5t-177 -15q-201 0 -314 67q-104 69 -104 264q0 253 115 402q117 139 303 139zM846 1520q-316 0 -508 -213q-188 -212 -188 -562q0 -349 188 -561q192 -213 508 -213q312 0 504 213
q188 212 188 561q0 350 -188 562q-192 213 -504 213zM954 1581h265v264h-265v-264zM590 1581h264v264h-264v-264z" />
    <glyph glyph-name="multiply" unicode="&#xd7;" horiz-adv-x="1435"
d="M1075 1229l-362 -363l-336 336l-209 -213l334 -336l-352 -352l208 -211l355 354l354 -354l209 211l-352 352l362 365z" />
    <glyph glyph-name="Oslash" unicode="&#xd8;" horiz-adv-x="1742"
d="M676 365l567 661q19 -40 27 -72q16 -56 16 -147q-36 -256 -125 -348q-87 -87 -284 -115q-105 0 -142 2q-34 4 -59 19zM1124 1202l-594 -690q-31 35 -65 102q-39 76 -39 168q0 249 115 402q116 138 301 141q112 -9 182 -39q46 -17 100 -84zM150 51l155 -133l156 182
q172 -129 411 -129q312 0 504 213q189 210 189 561q0 296 -140 498l166 195l-153 133l-156 -182q-172 131 -410 131q-209 0 -366.5 -96t-242.5 -271.5t-85 -407.5q0 -295 137 -497z" />
    <glyph glyph-name="Ugrave" unicode="&#xd9;" horiz-adv-x="1480"
d="M150 1493l10 -924q3 -296 149 -447t432 -151q574 0 580 598l10 924h-268l-10 -766q-3 -217 -74 -305v2q-71 -86 -238 -86q-166 0 -237 86v-2q-73 91 -76 305l-8 766h-270zM348 1872l281 -322h231l-237 322h-275z" />
    <glyph glyph-name="Uacute" unicode="&#xda;" horiz-adv-x="1460"
d="M150 1493v-924q0 -295 147 -446.5t434 -151.5t433.5 151t146.5 447v924h-269v-766q0 -214 -73 -305v2q-71 -86 -238 -86q-166 0 -237 86v-2q-74 92 -74 305v766h-270zM578 1550h233l279 322h-275z" />
    <glyph glyph-name="Ucircumflex" unicode="&#xdb;" horiz-adv-x="1460"
d="M150 1493v-924q0 -295 147 -446.5t434 -151.5t433.5 151t146.5 447v924h-269v-766q0 -214 -73 -305v2q-71 -86 -238 -86q-166 0 -237 86v-2q-74 92 -74 305v766h-270zM367 1550h223q7 9 67 74q12 14 70 76l141 -150h224l-258 324h-211z" />
    <glyph glyph-name="Udieresis" unicode="&#xdc;" horiz-adv-x="1460"
d="M150 1493v-924q0 -295 147 -446.5t434 -151.5t433.5 151t146.5 447v924h-269v-766q0 -214 -73 -305v2q-71 -86 -238 -86q-166 0 -237 86v-2q-74 92 -74 305v766h-270zM805 1581h264v264h-264v-264zM440 1581h265v264h-265v-264z" />
    <glyph glyph-name="Yacute" unicode="&#xdd;" horiz-adv-x="1619"
d="M637 512v-512h336v512l495 981h-290l-367 -684l-371 684h-290zM637 1550h233l279 322h-275z" />
    <glyph glyph-name="Thorn" unicode="&#xde;" horiz-adv-x="1290"
d="M150 0h268v322h203q520 0 520 460q0 459 -520 459h-203v252h-268v-1493zM418 1010h203q116 0 178.5 -59.5t62.5 -168.5t-62 -168t-179 -59h-203v455z" />
    <glyph glyph-name="germandbls" unicode="&#xdf;" horiz-adv-x="1376"
d="M150 0h337q-7 160 -24 547q-5 107 -14 303t-11 242q18 143 70.5 199.5t159.5 56.5q54 0 83 -4t59 -22t52.5 -51.5t52.5 -94.5q-154 -30 -222 -114.5t-68 -221.5q0 -97 47 -168q57 -87 90 -125l82 -55q90 -57 110 -89q21 -27 21 -57q0 -39 -45 -59q-46 -21 -137 -21
q-114 0 -304 72v-309q178 -56 291 -56q217 0 332 94.5t115 274.5q0 108 -52.5 181.5t-211.5 174.5l-54 35h2q-98 60 -98 127q0 72 78.5 116.5t220.5 51.5q-3 247 -114.5 373.5t-325.5 126.5q-216 0 -340 -115q-123 -114 -123 -313z" />
    <glyph glyph-name="agrave" unicode="&#xe0;" horiz-adv-x="1257"
d="M766 535v-3q0 -75 -9.5 -119t-36 -67t-61 -30t-96.5 -7q-79 0 -145 17q-37 12 -49 63q3 77 49 109q52 37 229 37h119zM1108 0v635q0 510 -487 510q-173 0 -394 -84v-227q206 110 373 110q119 -9 186.5 -64t73.5 -145h-203q-507 0 -507 -393q0 -168 106 -268
q107 -101 283 -101q199 0 321 113v-86h248zM303 1989l236 -424h350l-320 424h-266z" />
    <glyph glyph-name="aacute" unicode="&#xe1;" horiz-adv-x="1273"
d="M307 1356h250l404 465h-306zM766 535v-3q0 -75 -9.5 -119t-36 -67t-61 -30t-96.5 -7q-79 0 -145 17q-37 12 -49 63q3 77 49 109q52 37 229 37h119zM1108 0v635q0 510 -487 510q-173 0 -394 -84v-227q206 110 373 110q119 -9 186.5 -64t73.5 -145h-203q-507 0 -507 -393
q0 -168 106 -268q107 -101 283 -101q199 0 321 113v-86h248z" />
    <glyph glyph-name="acircumflex" unicode="&#xe2;" horiz-adv-x="1257"
d="M270 1260h219q15 21 72 100q15 19 40.5 53.5t35.5 48.5l149 -202h220l-279 426h-180zM766 535v-3q0 -75 -9.5 -119t-36 -67t-61 -30t-96.5 -7q-79 0 -145 17q-37 12 -49 63q3 77 49 109q52 37 229 37h119zM1108 0v635q0 510 -487 510q-173 0 -394 -84v-227
q206 110 373 110q119 -9 186.5 -64t73.5 -145h-203q-507 0 -507 -393q0 -168 106 -268q107 -101 283 -101q199 0 321 113v-86h248z" />
    <glyph glyph-name="atilde" unicode="&#xe3;" horiz-adv-x="1257"
d="M553 1339l53 -51q37 -36 73 -50.5t83 -14.5q103 0 159.5 87.5t59.5 250.5h-190q-2 -62 -11 -111q-6 -35 -24 -35q-9 0 -39 27h2l-55 51q-42 36 -77 52t-77 16q-103 0 -160.5 -88.5t-60.5 -249.5h192q0 62 8 108q8 35 27 35q10 0 37 -27zM766 535v-3q0 -75 -9.5 -119
t-36 -67t-61 -30t-96.5 -7q-79 0 -145 17q-37 12 -49 63q3 77 49 109q52 37 229 37h119zM1108 0v635q0 510 -487 510q-173 0 -394 -84v-227q206 110 373 110q119 -9 186.5 -64t73.5 -145h-203q-507 0 -507 -393q0 -168 106 -268q107 -101 283 -101q199 0 321 113v-86h248z
" />
    <glyph glyph-name="adieresis" unicode="&#xe4;" horiz-adv-x="1257"
d="M766 535v-3q0 -75 -9.5 -119t-36 -67t-61 -30t-96.5 -7q-79 0 -145 17q-37 12 -49 63q3 77 49 109q52 37 229 37h119zM1108 0v635q0 510 -487 510q-173 0 -394 -84v-227q206 110 373 110q119 -9 186.5 -64t73.5 -145h-203q-507 0 -507 -393q0 -168 106 -268
q107 -101 283 -101q199 0 321 113v-86h248zM721 1434h278v276h-278v-276zM330 1434h278v276h-278v-276z" />
    <glyph glyph-name="aring" unicode="&#xe5;" horiz-adv-x="1257"
d="M729 1460q0 -45 -29.5 -74.5t-74.5 -29.5t-76 28q-29 32 -29 76t30.5 73.5t74.5 29.5q45 0 74.5 -29.5t29.5 -73.5zM918 1460q0 122 -86 207.5t-207 85.5t-207 -85.5t-86 -207.5q0 -123 85.5 -209t207.5 -86t207.5 86t85.5 209zM766 535v-3q0 -75 -9.5 -119t-36 -67
t-61 -30t-96.5 -7q-79 0 -145 17q-37 12 -49 63q3 77 49 109q52 37 229 37h119zM1108 0v635q0 510 -487 510q-173 0 -394 -84v-227q206 110 373 110q119 -9 186.5 -64t73.5 -145h-203q-507 0 -507 -393q0 -168 106 -268q107 -101 283 -101q199 0 321 113v-86h248z" />
    <glyph glyph-name="ae" unicode="&#xe6;" horiz-adv-x="2035"
d="M1636 748l-526 -3q19 78 82 144q74 86 203 86q67 0 121.5 -38.5t82.5 -88.5t37 -100zM621 1145q-173 0 -394 -84v-209q203 111 375 111q126 0 191 -74q56 -56 65 -98h-201q-256 0 -381.5 -102.5t-125.5 -346.5q0 -173 108.5 -271t300.5 -98q259 0 406 195
q77 -103 188 -149t270 -46q102 0 209 35q15 5 51.5 19t57.5 22q60 26 104 43v334q-225 -123 -413 -123q-75 0 -135 20.5t-98 55.5t-61 75t-34 85h782v120q0 129 -59 239t-173 178.5t-261 68.5q-236 0 -389 -150q-60 72 -159 111t-224 39zM899 582l-37 36v-30v-6h37zM786 354
q-72 -69 -202 -69q-87 0 -137 32t-50 89q0 113 60 141q75 35 270 35h135q-3 -158 -76 -228z" />
    <glyph glyph-name="ccedilla" unicode="&#xe7;" horiz-adv-x="1202"
d="M1053 829v238q-179 78 -340 78q-261 0 -412 -158t-151 -428q0 -265 150.5 -425.5t401.5 -160.5q174 0 351 80l-6 359q-113 -67 -185 -70h-147q-159 14 -226 57q-60 45 -73 164q2 176 79.5 273.5t225.5 97.5q141 0 332 -105zM797 76h-203q57 -76 90 -131q29 -53 29 -74
q0 -49 -74 -49q-79 0 -182 53v-213q118 -31 200 -31q261 0 261 205q0 53 -29 109.5t-92 130.5z" />
    <glyph glyph-name="egrave" unicode="&#xe8;"
d="M1184 565v107q-18 234 -140 350h3q-120 114 -347 123q-251 0 -396 -160.5t-154 -433.5q0 -264 157 -418q160 -151 420 -160q208 0 426 93l-4 323q-142 -74 -223 -80q-84 -8 -189 -8q-164 13 -250 66q-69 50 -81 198h778zM950 791h-524q12 54 72 114v-2q75 78 202 78
q111 0 177 -78q54 -64 73 -112zM293 1604l233 -424h353l-320 424h-266z" />
    <glyph glyph-name="eacute" unicode="&#xe9;"
d="M1184 565v107q-18 234 -140 350h3q-120 114 -347 123q-251 0 -396 -160.5t-154 -433.5q0 -264 157 -418q160 -151 420 -160q208 0 426 93l-4 323q-142 -74 -223 -80q-84 -8 -189 -8q-164 13 -250 66q-69 50 -81 198h778zM950 791h-524q12 54 72 114v-2q75 78 202 78
q111 0 177 -78q54 -64 73 -112zM453 1139h249l404 465h-307z" />
    <glyph glyph-name="ecircumflex" unicode="&#xea;"
d="M1184 565v107q-18 234 -140 350h3q-120 114 -347 123q-251 0 -396 -160.5t-154 -433.5q0 -264 157 -418q160 -151 420 -160q208 0 426 93l-4 323q-142 -74 -223 -80q-84 -8 -189 -8q-164 13 -250 66q-69 50 -81 198h778zM950 791h-524q12 54 72 114v-2q75 78 202 78
q111 0 177 -78q54 -64 73 -112zM295 1178h217q23 28 74 100q21 29 76 102l149 -202h217l-276 426h-181z" />
    <glyph glyph-name="edieresis" unicode="&#xeb;"
d="M1184 565v107q-18 234 -140 350h3q-120 114 -347 123q-251 0 -396 -160.5t-154 -433.5q0 -264 157 -418q160 -151 420 -160q208 0 426 93l-4 323q-142 -74 -223 -80q-84 -8 -189 -8q-164 13 -250 66q-69 50 -81 198h778zM950 791h-524q12 54 72 114v-2q75 78 202 78
q111 0 177 -78q54 -64 73 -112zM780 1260h279v276h-279v-276zM389 1260h279v276h-279v-276z" />
    <glyph glyph-name="igrave" unicode="&#xec;" horiz-adv-x="886"
d="M442 0h246v1120h-246v-1120zM150 1604l235 -424h350l-319 424h-266z" />
    <glyph glyph-name="iacute" unicode="&#xed;" horiz-adv-x="952"
d="M172 0h248v1120h-248v-1120zM150 1139h249l404 465h-305z" />
    <glyph glyph-name="icircumflex" unicode="&#xee;" horiz-adv-x="1034"
d="M430 0h248v1120h-248v-1120zM150 1178h219q13 18 38.5 54t32.5 46q15 19 40.5 53.5t35.5 48.5l150 -202h219l-279 426h-180z" />
    <glyph glyph-name="idieresis" unicode="&#xef;" horiz-adv-x="968"
d="M377 0h246v1120h-246v-1120zM541 1260h278v276h-278v-276zM150 1260h278v276h-278v-276z" />
    <glyph glyph-name="eth" unicode="&#xf0;"
d="M852 856l-16 12q0 -4 4 -4q0 -1 1 -3t1 -3zM928 539q0 -161 -71 -253.5t-189 -92.5q-121 0 -191.5 91.5t-70.5 254.5q0 166 77 258h-2q76 88 215 88q64 0 146 -27q86 -115 86 -319zM836 1257l258 86l-56 162l-321 -108l-115 131h-311q2 -2 39 -45q28 -32 49 -53
q23 -29 49 -58q5 -5 47 -53l-244 -82l56 -164q25 8 78.5 26t74.5 25q24 9 156 54l70 -78h-7h-6h2h-4q-223 0 -362 -156.5t-139 -404.5q0 -255 143 -410.5t375 -155.5q230 0 373 156.5t143 409.5q0 167 -56 309q-55 136 -178 278z" />
    <glyph glyph-name="ntilde" unicode="&#xf1;" horiz-adv-x="1318"
d="M1167 0l-28 670q-12 232 -116 353.5t-298 121.5q-117 0 -211 -51q-16 -9 -88 -54v88h-246l-30 -1128h315l-31 639q0 141 67.5 217t205.5 76q93 0 134.5 -63t41.5 -195l-39 -674h323zM496 1339l53 -51q37 -36 73 -50.5t83 -14.5q103 0 159.5 87.5t59.5 250.5h-191
q-3 -69 -10 -111q-6 -35 -25 -35q-9 0 -39 27h3l-56 51q-41 36 -75.5 52t-77.5 16q-103 0 -161 -88.5t-61 -249.5h193q0 62 8 108q8 35 27 35q10 0 37 -27z" />
    <glyph glyph-name="ograve" unicode="&#xf2;" horiz-adv-x="1343"
d="M678 944q118 0 189 -94.5t71 -259.5q0 -158 -64 -203q-75 -43 -196 -43q-57 0 -94 4.5t-72 19.5t-54 42t-30.5 71.5t-11.5 108.5q0 166 70.5 260t191.5 94zM678 1145q-244 0 -381 -158q-137 -155 -137 -428t137 -428q137 -158 381 -158q239 0 377.5 158t138.5 428
t-138.5 428t-377.5 158zM150 1604l235 -424h350l-319 424h-266z" />
    <glyph glyph-name="oacute" unicode="&#xf3;"
d="M668 944q118 0 189 -94.5t71 -259.5q0 -158 -64 -203q-75 -43 -196 -43q-57 0 -94 4.5t-72 19.5t-54 42t-30.5 71.5t-11.5 108.5q0 166 70.5 260t191.5 94zM668 1145q-244 0 -381 -158q-137 -155 -137 -428t137 -428q137 -158 381 -158q239 0 377.5 158t138.5 428
t-138.5 428t-377.5 158zM510 1139h250l401 465h-305z" />
    <glyph glyph-name="ocircumflex" unicode="&#xf4;"
d="M668 944q118 0 189 -94.5t71 -259.5q0 -158 -64 -203q-75 -43 -196 -43q-57 0 -94 4.5t-72 19.5t-54 42t-30.5 71.5t-11.5 108.5q0 166 70.5 260t191.5 94zM668 1145q-244 0 -381 -158q-137 -155 -137 -428t137 -428q137 -158 381 -158q239 0 377.5 158t138.5 428
t-138.5 428t-377.5 158zM252 1178h217q23 28 74 100q37 52 75 102l150 -202h217l-276 426h-181z" />
    <glyph glyph-name="otilde" unicode="&#xf5;"
d="M668 944q118 0 189 -94.5t71 -259.5q0 -158 -64 -203q-75 -43 -196 -43q-57 0 -94 4.5t-72 19.5t-54 42t-30.5 71.5t-11.5 108.5q0 166 70.5 260t191.5 94zM668 1145q-244 0 -381 -158q-137 -155 -137 -428t137 -428q137 -158 381 -158q239 0 377.5 158t138.5 428
t-138.5 428t-377.5 158zM569 1339l54 -51q39 -36 74.5 -50.5t80.5 -14.5q103 0 159.5 87.5t59.5 250.5h-190q0 -73 -10 -111q-6 -35 -25 -35q-9 0 -39 27h2l-53 51q-43 36 -78 52t-78 16q-103 0 -160.5 -88.5t-60.5 -249.5h193q0 70 10 108q6 35 24 35q10 0 37 -27z" />
    <glyph glyph-name="odieresis" unicode="&#xf6;"
d="M668 944q118 0 189 -94.5t71 -259.5q0 -158 -64 -203q-75 -43 -196 -43q-57 0 -94 4.5t-72 19.5t-54 42t-30.5 71.5t-11.5 108.5q0 166 70.5 260t191.5 94zM668 1145q-244 0 -381 -158q-137 -155 -137 -428t137 -428q137 -158 381 -158q239 0 377.5 158t138.5 428
t-138.5 428t-377.5 158zM797 1260h278v276h-278v-276zM406 1260h278v276h-278v-276z" />
    <glyph glyph-name="divide" unicode="&#xf7;" horiz-adv-x="1617"
d="M635 829h350v353h-350v-353zM635 47h350v350h-350v-350zM150 473h1318v281h-1318v-281z" />
    <glyph glyph-name="oslash" unicode="&#xf8;" horiz-adv-x="1437"
d="M575 238l392 471q14 -50 14 -150q0 -172 -70.5 -269t-189.5 -97q-86 0 -146 45zM862 881l-391 -471q-12 55 -12 137q0 181 71 284q72 95 191 95q81 0 141 -45zM150 16l147 -118q12 15 31 34q12 16 37.5 47t29.5 37q3 3 33 39q119 -82 293 -82q240 0 378 158t138 428
q0 214 -90 367l141 174l-145 123q-12 -18 -31 -37q-26 -31 -33 -41q-48 -56 -67 -82q-125 82 -291 82q-242 0 -380 -157.5t-138 -428.5q0 -227 92 -366z" />
    <glyph glyph-name="ugrave" unicode="&#xf9;" horiz-adv-x="1259"
d="M150 1120v-669q0 -235 103 -356.5t302 -121.5q175 0 291 113l-4 -86h248l20 1120h-274l-11 -479q-13 -149 -75 -219q-64 -76 -189 -76q-93 0 -138.5 65t-53.5 197v512h-219zM156 1604l233 -424h352l-319 424h-266z" />
    <glyph glyph-name="uacute" unicode="&#xfa;" horiz-adv-x="1259"
d="M150 1120v-669q0 -235 103 -356.5t302 -121.5q175 0 291 113l-4 -86h248l20 1120h-274l-11 -479q-13 -149 -75 -219q-64 -76 -189 -76q-93 0 -138.5 65t-53.5 197v512h-219zM424 1139h250l403 465h-307z" />
    <glyph glyph-name="ucircumflex" unicode="&#xfb;" horiz-adv-x="1259"
d="M150 1120v-669q0 -235 103 -356.5t302 -121.5q175 0 291 113l-4 -86h248l20 1120h-274l-11 -479q-13 -149 -75 -219q-64 -76 -189 -76q-93 0 -138.5 65t-53.5 197v512h-219zM266 1178h219q15 21 72 100q7 9 34.5 46t43.5 56l147 -202h219l-276 426h-180z" />
    <glyph glyph-name="udieresis" unicode="&#xfc;" horiz-adv-x="1259"
d="M150 1120v-669q0 -235 103 -356.5t302 -121.5q175 0 291 113l-4 -86h248l20 1120h-274l-11 -479q-13 -149 -75 -219q-64 -76 -189 -76q-93 0 -138.5 65t-53.5 197v512h-219zM713 1260h276v276h-276v-276zM322 1260h276v276h-276v-276z" />
    <glyph glyph-name="yacute" unicode="&#xfd;" horiz-adv-x="1429"
d="M1280 1120h-260l-264 -567l-346 567h-260q19 -41 57 -122t57 -121q39 -84 118 -254t118 -254q18 -39 56 -120.5t58 -123.5q-7 -13 -17.5 -36t-14.5 -30q-24 -41 -35 -65q-38 -52 -78 -84q-32 -25 -84 -25h-158v-301h193q69 0 118 13.5t98 50.5t92.5 104.5t90.5 173.5z
M561 1139h250l403 465h-307z" />
    <glyph glyph-name="thorn" unicode="&#xfe;" horiz-adv-x="1310"
d="M397 -397v481q108 -111 297 -111q207 0 336 163t129 423t-129 423t-336 163q-186 0 -297 -111v494h-247v-1925h247zM907 559q0 -176 -71 -276q-66 -93 -185 -93q-116 0 -184 95l2 -2q-72 101 -72 276q0 174 72 275h-2q70 94 184 94q118 0 187 -97t69 -272z" />
    <glyph glyph-name="ydieresis" unicode="&#xff;" horiz-adv-x="1429"
d="M1280 1120h-260l-264 -567l-346 567h-260q19 -41 57 -122t57 -121q39 -84 118 -254t118 -254q18 -39 56 -120.5t58 -123.5q-7 -13 -17.5 -36t-14.5 -30q-24 -41 -35 -65q-38 -52 -78 -84q-32 -25 -84 -25h-158v-301h193q69 0 118 13.5t98 50.5t92.5 104.5t90.5 173.5z
M739 1260h279v276h-279v-276zM348 1260h279v276h-279v-276z" />
    <glyph glyph-name="Amacron" unicode="&#x100;" horiz-adv-x="1710"
d="M1065 532h-418q53 161 53 162q27 80 54 156q42 127 49 151q7 22 24.5 74.5t26.5 81.5zM150 0h342l71 231h582l53 -231h363l-590 1493h-232zM537 1559h632v213h-632v-213z" />
    <glyph glyph-name="amacron" unicode="&#x101;" horiz-adv-x="1257"
d="M766 535v-3q0 -75 -9.5 -119t-36 -67t-61 -30t-96.5 -7q-79 0 -145 17q-37 12 -49 63q3 77 49 109q52 37 229 37h119zM1108 0v635q0 510 -487 510q-173 0 -394 -84v-227q206 110 373 110q119 -9 186.5 -64t73.5 -145h-203q-507 0 -507 -393q0 -168 106 -268
q107 -101 283 -101q199 0 321 113v-86h248zM348 1186h633v213h-633v-213z" />
    <glyph glyph-name="Abreve" unicode="&#x102;" horiz-adv-x="1710"
d="M1065 532h-418q53 161 53 162q27 80 54 156q42 127 49 151q7 22 24.5 74.5t26.5 81.5zM150 0h342l71 231h582l53 -231h363l-590 1493h-232zM707 1898h-185q24 -342 332 -342q311 0 332 342h-180q-12 -71 -49 -105t-103 -34q-129 0 -147 139z" />
    <glyph glyph-name="abreve" unicode="&#x103;" horiz-adv-x="1257"
d="M766 535v-3q0 -75 -9.5 -119t-36 -67t-61 -30t-96.5 -7q-79 0 -145 17q-37 12 -49 63q3 77 49 109q52 37 229 37h119zM1108 0v635q0 510 -487 510q-173 0 -394 -84v-227q206 110 373 110q119 -9 186.5 -64t73.5 -145h-203q-507 0 -507 -393q0 -168 106 -268
q107 -101 283 -101q199 0 321 113v-86h248zM518 1526h-184q24 -342 332 -342q310 0 331 342h-180q-12 -71 -48.5 -105.5t-102.5 -34.5q-63 0 -101 35.5t-47 104.5z" />
    <glyph glyph-name="Aogonek" unicode="&#x104;" horiz-adv-x="1710"
d="M1065 532h-418q53 161 53 162q27 80 54 156q42 127 49 151q7 22 24.5 74.5t26.5 81.5zM150 0h342l71 231h582l53 -231h363l-590 1493h-232zM1481 0h-203q-121 -142 -121 -240q0 -106 62 -155t196 -49q49 0 166 26v213q-104 -49 -154 -49q-65 0 -65 47q0 21 29 74
q25 46 90 133z" />
    <glyph glyph-name="aogonek" unicode="&#x105;" horiz-adv-x="1257"
d="M766 535v-3q0 -75 -9.5 -119t-36 -67t-61 -30t-96.5 -7q-79 0 -145 17q-37 12 -49 63q3 77 49 109q52 37 229 37h119zM1108 0v635q0 510 -487 510q-173 0 -394 -84v-227q206 110 373 110q119 -9 186.5 -64t73.5 -145h-203q-507 0 -507 -393q0 -168 106 -268
q107 -101 283 -101q199 0 321 113v-86h248zM1090 0h-203q-121 -142 -121 -240q0 -106 62 -155t196 -49q49 0 166 26v213q-104 -49 -154 -49q-65 0 -65 47q0 23 28 74q22 41 91 133z" />
    <glyph glyph-name="Cacute" unicode="&#x106;" horiz-adv-x="1517"
d="M1368 1057v309q-226 154 -487 154q-339 0 -535 -209.5t-196 -565.5q0 -357 196 -565.5t535 -208.5q255 0 487 156v440q-248 -227 -477 -227q-239 0 -349.5 91t-113.5 314q0 264 118.5 401.5t344.5 137.5q229 0 477 -227zM733 1550h236l276 322h-272z" />
    <glyph glyph-name="cacute" unicode="&#x107;" horiz-adv-x="1263"
d="M1053 829v238q-179 78 -340 78q-261 0 -412 -158t-151 -428q0 -265 150.5 -425.5t401.5 -160.5q174 0 351 80l-6 359q-113 -67 -185 -70h-147q-159 14 -226 57q-60 45 -73 164q2 176 79.5 273.5t225.5 97.5q141 0 332 -105zM461 1139h250l403 465h-305z" />
    <glyph glyph-name="Cdotaccent" unicode="&#x10a;" horiz-adv-x="1517"
d="M1368 1106v309q-148 71 -260.5 91.5t-257.5 13.5q-338 -15 -519 -217t-181 -558q0 -357 196 -565.5t535 -208.5q255 0 487 156v440q-248 -227 -477 -227q-239 0 -349.5 91t-113.5 314q0 269 105 404t327 135q131 0 240.5 -34.5t267.5 -143.5zM674 1630h266v266h-266v-266
z" />
    <glyph glyph-name="cdotaccent" unicode="&#x10b;" horiz-adv-x="1202"
d="M1053 829v238q-179 78 -340 78q-261 0 -412 -158t-151 -428q0 -265 150.5 -425.5t401.5 -160.5q174 0 351 80l-6 359q-113 -67 -185 -70h-147q-159 14 -226 57q-60 45 -73 164q2 176 79.5 273.5t225.5 97.5q141 0 332 -105zM528 1257h267v267h-267v-267z" />
    <glyph glyph-name="Ccaron" unicode="&#x10c;" horiz-adv-x="1517"
d="M1368 1057v309q-226 154 -487 154q-339 0 -535 -209.5t-196 -565.5q0 -357 196 -565.5t535 -208.5q255 0 487 156v440q-248 -227 -477 -227q-239 0 -349.5 91t-113.5 314q0 264 118.5 401.5t344.5 137.5q229 0 477 -227zM836 1550l258 324h-224q-9 -10 -32 -34.5
t-35 -39.5q-50 -54 -72 -76l-139 150h-223l256 -324h211z" />
    <glyph glyph-name="ccaron" unicode="&#x10d;" horiz-adv-x="1202"
d="M1053 829v238q-179 78 -340 78q-261 0 -412 -158t-151 -428q0 -265 150.5 -425.5t401.5 -160.5q174 0 351 80l-6 359q-113 -67 -185 -70h-147q-159 14 -226 57q-60 45 -73 164q2 176 79.5 273.5t225.5 97.5q141 0 332 -105zM657 1178l279 426h-219q-109 -146 -150 -203
l-147 203h-219l276 -426h180z" />
    <glyph glyph-name="Dcaron" unicode="&#x10e;" horiz-adv-x="1566"
d="M426 1260h195q272 0 399 -121q129 -120 129 -369q-44 -188 -145 -266q-107 -72 -383 -72h-195v828zM150 0h432q424 0 628 180q207 186 207 568q0 375 -205 565q-211 180 -630 180h-432v-1493zM797 1550l278 426h-219q-101 -135 -149 -202l-148 202h-219l276 -426h181z
" />
    <glyph glyph-name="dcaron" unicode="&#x10f;" horiz-adv-x="1327"
d="M932 1528l-17 -496q-113 113 -301 113q-208 0 -336 -162.5t-128 -423.5t128 -423.5t336 -162.5q192 0 297 111v-84h248l19 1528h-246zM416 854v-2q68 92 184 92q111 0 170 -94q58 -90 64 -260q-2 -75 -15.5 -120.5t-45 -70t-71 -32t-106.5 -7.5q-120 0 -176 50
q-59 52 -76 174q3 169 72 270zM1460 1577l-104 -403h219l199 389v219h-314v-205z" />
    <glyph glyph-name="Dcroat" unicode="&#x110;" horiz-adv-x="1566"
d="M426 1260h195q272 0 399 -121q129 -120 129 -369q-44 -188 -145 -266q-107 -72 -383 -72h-195v828zM150 0h432q424 0 628 180q207 186 207 568q0 375 -205 565q-211 180 -630 180h-432v-1493zM389 1559h633v213h-633v-213z" />
    <glyph glyph-name="dcroat" unicode="&#x111;" horiz-adv-x="1452"
d="M913 1198v-164q-111 111 -299 111q-207 0 -335.5 -163t-128.5 -423t128.5 -423t335.5 -163q191 0 299 111v-84h246v1198h144v193h-144v137h-246v-137h-305v-193h305zM401 598q0 154 70 246q71 84 186 84q119 0 187.5 -86t68.5 -244q0 -154 -69 -240t-187 -86
q-116 0 -186 82q-70 92 -70 244z" />
    <glyph glyph-name="Emacron" unicode="&#x112;" horiz-adv-x="1288"
d="M150 0h989v371h-721v305h674v235h-674v344h704v238h-972v-1493zM309 1559h633v213h-633v-213z" />
    <glyph glyph-name="emacron" unicode="&#x113;"
d="M1184 565v107q-18 234 -140 350h3q-120 114 -347 123q-251 0 -396 -160.5t-154 -433.5q0 -264 157 -418q160 -151 420 -160q208 0 426 93l-4 323q-142 -74 -223 -80q-84 -8 -189 -8q-164 13 -250 66q-69 50 -81 198h778zM950 791h-524q12 54 72 114v-2q75 78 202 78
q111 0 177 -78q54 -64 73 -112zM371 1186h633v213h-633v-213z" />
    <glyph glyph-name="Edotaccent" unicode="&#x116;" horiz-adv-x="1288"
d="M150 0h989v371h-721v305h674v235h-674v344h704v238h-972v-1493zM494 1630h266v266h-266v-266z" />
    <glyph glyph-name="edotaccent" unicode="&#x117;"
d="M1184 565v107q-18 234 -140 350h3q-120 114 -347 123q-251 0 -396 -160.5t-154 -433.5q0 -264 157 -418q160 -151 420 -160q208 0 426 93l-4 323q-142 -74 -223 -80q-84 -8 -189 -8q-164 13 -250 66q-69 50 -81 198h778zM950 791h-524q12 54 72 114v-2q75 78 202 78
q111 0 177 -78q54 -64 73 -112zM555 1257h266v267h-266v-267z" />
    <glyph glyph-name="Eogonek" unicode="&#x118;" horiz-adv-x="1288"
d="M150 0h989v371h-721v305h674v235h-674v344h704v238h-972v-1493zM733 0h-203q-120 -140 -120 -240q0 -106 62 -155t196 -49q49 0 166 26v213q-104 -49 -154 -49q-66 0 -66 47q0 21 29 74q25 46 90 133z" />
    <glyph glyph-name="eogonek" unicode="&#x119;"
d="M1184 565v107q-18 234 -140 350h3q-120 114 -347 123q-251 0 -396 -160.5t-154 -433.5q0 -264 157 -418q160 -151 420 -160q208 0 426 93l-4 323q-142 -74 -223 -80q-84 -8 -189 -8q-164 13 -250 66q-69 50 -81 198h778zM950 791h-524q12 54 72 114v-2q75 78 202 78
q111 0 177 -78q54 -64 73 -112zM831 0h-202q-121 -142 -121 -240q0 -106 62 -155t196 -49q49 0 166 26v213q-104 -49 -154 -49q-65 0 -65 47q0 23 28 74q25 46 90 133z" />
    <glyph glyph-name="Ecaron" unicode="&#x11a;" horiz-adv-x="1288"
d="M150 0h989v371h-721v305h674v235h-674v344h704v238h-972v-1493zM717 1550l278 426h-219q-101 -135 -149 -202l-148 202h-219l277 -426h180z" />
    <glyph glyph-name="ecaron" unicode="&#x11b;"
d="M1184 565v107q-18 234 -140 350h3q-120 114 -347 123q-251 0 -396 -160.5t-154 -433.5q0 -264 157 -418q160 -151 420 -160q208 0 426 93l-4 323q-142 -74 -223 -80q-84 -8 -189 -8q-164 13 -250 66q-69 50 -81 198h778zM950 791h-524q12 54 72 114v-2q75 78 202 78
q111 0 177 -78q54 -64 73 -112zM778 1178l279 426h-219q-109 -146 -150 -203l-147 203h-219l276 -426h180z" />
    <glyph glyph-name="Gbreve" unicode="&#x11e;" horiz-adv-x="1613"
d="M1169 508v-98q-28 -22 -86 -35h2q-72 -17 -174 -17q-248 0 -364 82h2q-109 81 -121 326q0 539 483 539q251 0 516 -226v287q-246 154 -532 154q-349 0 -547 -206.5t-198 -568.5q0 -361 196 -569q202 -205 549 -205q316 0 569 179v638h-598v-280h303zM608 1874h-180
q24 -301 334 -301q152 0 236 76t96 225h-181q-27 -105 -151 -105q-129 0 -154 105z" />
    <glyph glyph-name="gbreve" unicode="&#x11f;" horiz-adv-x="1327"
d="M838 582q0 -63 -12.5 -106t-31.5 -67.5t-56.5 -37.5t-73.5 -16t-95 -3q-122 0 -180 33q-46 40 -61 201q0 79 16 151q53 201 238 201q121 0 188 -92q68 -96 68 -264zM1178 1120h-244q0 -13 -4 -45q-1 -8 -3 -25.5t-3 -25.5q-109 121 -310 121q-210 0 -337 -159t-127 -415
q0 -255 127 -413t337 -158q126 0 217 49q11 7 29.5 19t24.5 16q-32 -67 -72 -111q-70 -79 -219 -79q-151 0 -338 104v-395q189 -66 365 -66q262 0 391 144q124 133 137 485zM455 1575h-185q24 -342 332 -342q310 0 334 342h-182q-12 -71 -49 -105t-103 -34q-126 0 -147 139z
" />
    <glyph glyph-name="Gdotaccent" unicode="&#x120;" horiz-adv-x="1613"
d="M1169 526v-116q-28 -22 -86 -35h2q-72 -17 -174 -17q-248 0 -364 82h2q-109 81 -121 326q0 539 483 539q254 0 506 -215v286q-230 144 -522 144q-349 0 -547 -206.5t-198 -568.5q0 -361 196 -569q202 -205 549 -205q316 0 569 179v638h-598v-262h303zM713 1630h266v266
h-266v-266z" />
    <glyph glyph-name="gdotaccent" unicode="&#x121;" horiz-adv-x="1327"
d="M838 582q0 -63 -12.5 -106t-31.5 -67.5t-56.5 -37.5t-73.5 -16t-95 -3q-122 0 -180 33q-46 40 -61 201q0 79 16 151q53 201 238 201q121 0 188 -92q68 -96 68 -264zM1178 1120h-244q0 -13 -4 -45q-1 -8 -3 -25.5t-3 -25.5q-109 121 -310 121q-210 0 -337 -159t-127 -415
q0 -255 127 -413t337 -158q126 0 217 49q11 7 29.5 19t24.5 16q-32 -67 -72 -111q-70 -79 -219 -79q-151 0 -338 104v-395q189 -66 365 -66q262 0 391 144q124 133 137 485zM557 1257h266v267h-266v-267z" />
    <glyph glyph-name="Gcommaaccent" unicode="&#x122;" horiz-adv-x="1613"
d="M1169 526v-116q-28 -22 -86 -35h2q-72 -17 -174 -17q-248 0 -364 82h2q-109 81 -121 326q0 539 483 539q254 0 506 -215v286q-230 144 -522 144q-349 0 -547 -206.5t-198 -568.5q0 -361 196 -569q202 -205 549 -205q316 0 569 179v638h-598v-262h303zM756 -289l-109 -342
h193l225 324v246h-309v-228z" />
    <glyph glyph-name="gcommaaccent" unicode="&#x123;" horiz-adv-x="1327"
d="M838 582q0 -63 -12.5 -106t-31.5 -67.5t-56.5 -37.5t-73.5 -16t-95 -3q-122 0 -180 33q-46 40 -61 201q0 79 16 151q53 201 238 201q121 0 188 -92q68 -96 68 -264zM1178 1120h-244q0 -13 -4 -45q-1 -8 -3 -25.5t-3 -25.5q-109 121 -310 121q-210 0 -337 -159t-127 -415
q0 -255 127 -413t337 -158q126 0 217 49q11 7 29.5 19t24.5 16q-32 -67 -72 -111q-70 -79 -219 -79q-151 0 -338 104v-395q189 -66 365 -66q262 0 391 144q124 133 137 485zM147 -319l-108 -343h192l226 324v246h-310v-227z" />
    <glyph glyph-name="Hbar" unicode="&#x126;" horiz-adv-x="1476"
d="M63 1051h1387l-20 209h-1346zM150 0h296v475h582v-475h297l-18 1493h-279v-676h-582v676h-276z" />
    <glyph glyph-name="hbar" unicode="&#x127;" horiz-adv-x="1290"
d="M63 1200l691 10l8 160l-688 -10zM1120 670v-2q0 236 -101.5 356.5t-299.5 120.5q-185 0 -299 -117l16 500h-248l-38 -1528h286q-2 105 -10 313q-1 58 -4 165t-4 151q0 140 71 225.5t191 85.5q96 0 145 -72t49 -204l-20 -664h287z" />
    <glyph glyph-name="Itilde" unicode="&#x128;" horiz-adv-x="606"
d="M150 0h307l-19 1493h-258zM236 2048l53 -51q38 -36 73.5 -51t81.5 -15q103 0 160 87.5t60 250.5h-191q-3 -68 -10 -110q-6 -35 -25 -35q-10 0 -39 26h2l-55 52q-42 36 -76.5 51.5t-76.5 15.5q-103 0 -161 -88.5t-61 -249.5h193q0 63 8 109q8 35 27 35q10 0 37 -27z" />
    <glyph glyph-name="itilde" unicode="&#x129;" horiz-adv-x="546"
d="M150 0h247v1120h-247v-1120zM188 1675l54 -51q38 -36 73 -50.5t82 -14.5q103 0 159.5 87t59.5 250h-190q-3 -68 -10 -110q-6 -35 -25 -35q-9 0 -39 27h2l-55 51q-78 67 -154 67q-103 0 -160.5 -88t-60.5 -249h193q0 62 8 108q8 35 27 35q9 0 36 -27z" />
    <glyph glyph-name="Imacron" unicode="&#x12a;" horiz-adv-x="606"
d="M150 0h307l-19 1493h-258zM0 1559h633v213h-633v-213z" />
    <glyph glyph-name="imacron" unicode="&#x12b;" horiz-adv-x="546"
d="M150 0h247v1120h-247v-1120zM-47 1186h633v213h-633v-213z" />
    <glyph glyph-name="Iogonek" unicode="&#x12e;" horiz-adv-x="606"
d="M150 0h307l-19 1493h-258zM418 0h-203q-121 -142 -121 -240q0 -106 62 -155t196 -49q49 0 166 26v213q-104 -49 -153 -49q-66 0 -66 47q0 21 29 74q25 46 90 133z" />
    <glyph glyph-name="iogonek" unicode="&#x12f;" horiz-adv-x="546"
d="M150 0h247v1120h-247v-1120zM137 1257h266v267h-266v-267zM377 0h-203q-121 -142 -121 -240q0 -106 62 -155t196 -49q49 0 166 26v213q-104 -49 -153 -49q-66 0 -66 47q0 21 29 74q25 46 90 133z" />
    <glyph glyph-name="Idotaccent" unicode="&#x130;" horiz-adv-x="626"
d="M170 0h305l-18 1493h-256zM150 1581h266v266h-266v-266z" />
    <glyph glyph-name="dotlessi" unicode="&#x131;" horiz-adv-x="546"
d="M150 0h247v1120h-247v-1120z" />
    <glyph glyph-name="IJ" unicode="&#x132;" horiz-adv-x="1574"
d="M150 0h307l-19 1493h-258zM1149 1497l-55 -1386q0 -47 -47 -91q-48 -45 -156 -51l-135 31v-395l147 -15q242 3 354 121q109 115 115 385l53 1385z" />
    <glyph glyph-name="ij" unicode="&#x133;" horiz-adv-x="1425"
d="M152 0h245l-8 1120h-227zM150 1235h249l-12 293h-225zM999 1116l-47 -989q-3 -73 -8 -104q-10 -43 -20 -56q-30 -30 -111 -33h-106l-7 -331l134 -2q182 6 272 102q84 93 90 307l39 1102zM1026 1235h250l-12 293h-226z" />
    <glyph glyph-name="Kcommaaccent" unicode="&#x136;" horiz-adv-x="1574"
d="M150 0h327q-4 94 -8 141q-4 107 -16 301q-1 27 -4.5 76.5t-4.5 71.5l416 -590h563l-790 793l745 700h-356l-582 -549l17 549h-267zM621 -289l-109 -342h193l225 324v246h-309v-228z" />
    <glyph glyph-name="kcommaaccent" unicode="&#x137;" horiz-adv-x="1386"
d="M150 0h307l-25 418l340 -418h465q-41 41 -147 143q-27 25 -80 77t-80 77q-24 23 -51.5 49t-60 58t-50.5 49q-26 26 -76.5 74t-73.5 71l422 522h-315l-299 -350l10 758h-248zM467 -289l-109 -342h193l225 324v246h-309v-228z" />
    <glyph glyph-name="Lacute" unicode="&#x139;" horiz-adv-x="1269"
d="M150 0h948l22 371h-692l8 1122h-266zM324 1866h249l404 465h-305z" />
    <glyph glyph-name="lacute" unicode="&#x13a;" horiz-adv-x="673"
d="M150 0h372v287h-114v1241h-238zM197 1929h249l404 465h-305z" />
    <glyph glyph-name="Lcommaaccent" unicode="&#x13b;" horiz-adv-x="1269"
d="M150 0h948l22 371h-692l8 1122h-266zM524 -354l-108 -342h192l226 323v246h-310v-227z" />
    <glyph glyph-name="lcommaaccent" unicode="&#x13c;" horiz-adv-x="673"
d="M150 0h372v287h-114v1241h-238zM156 -289l-109 -342h193l225 324v246h-309v-228z" />
    <glyph glyph-name="Lcaron" unicode="&#x13d;" horiz-adv-x="1269"
d="M150 0h948l22 371h-692l8 1122h-266zM743 1524l-104 -404h219l199 389v220h-314v-205z" />
    <glyph glyph-name="lcaron" unicode="&#x13e;" horiz-adv-x="673"
d="M150 0h372v287h-114v1241h-238zM659 1479l-108 -342h192l226 323v246h-310v-227z" />
    <glyph glyph-name="Ldot" unicode="&#x13f;" horiz-adv-x="1269"
d="M150 0h948l22 371h-692l8 1122h-266zM657 711h273v311h-273v-311z" />
    <glyph glyph-name="ldot" unicode="&#x140;" horiz-adv-x="673"
d="M150 0h372v287h-114v1241h-238zM150 545h272v311h-272v-311z" />
    <glyph glyph-name="Lslash" unicode="&#x141;" horiz-adv-x="1486"
d="M379 754l-229 -160l116 -168l113 80v-506h958v238h-690v454l387 271l-119 167l-268 -188v551h-268v-739z" />
    <glyph glyph-name="lslash" unicode="&#x142;" horiz-adv-x="946"
d="M348 825l-198 -141l110 -160l88 64v-588h248v762l201 141l-115 162l-86 -64v527h-248v-703z" />
    <glyph glyph-name="Nacute" unicode="&#x143;" horiz-adv-x="1468"
d="M150 0h321q-2 48 -11 234t-14 290q-12 267 -24 531l559 -1055h338v1493h-252l-27 -1042l-553 1013h-299zM584 1866h250l403 465h-305z" />
    <glyph glyph-name="nacute" unicode="&#x144;" horiz-adv-x="1318"
d="M1167 0l-28 670q-12 232 -116 353.5t-298 121.5q-117 0 -211 -51q-16 -9 -88 -54v88h-246l-30 -1128h315l-31 639q0 141 67.5 217t205.5 76q93 0 134.5 -63t41.5 -195l-39 -674h323zM463 1493h250l403 465h-305z" />
    <glyph glyph-name="Ncommaaccent" unicode="&#x145;" horiz-adv-x="1468"
d="M150 0h321q-2 48 -11 234t-14 290q-12 267 -24 531l559 -1055h338v1493h-252l-27 -1042l-553 1013h-299zM662 -289l-109 -342h192l226 324v246h-309v-228z" />
    <glyph glyph-name="ncommaaccent" unicode="&#x146;" horiz-adv-x="1318"
d="M1167 0l-28 670q-12 232 -116 353.5t-298 121.5q-117 0 -211 -51q-16 -9 -88 -54v88h-246l-30 -1128h315l-31 639q0 141 67.5 217t205.5 76q93 0 134.5 -63t41.5 -195l-39 -674h323zM541 -289l-109 -342h193l225 324v246h-309v-228z" />
    <glyph glyph-name="Ncaron" unicode="&#x147;" horiz-adv-x="1468"
d="M150 0h321q-2 48 -11 234t-14 290q-12 267 -24 531l559 -1055h338v1493h-252l-27 -1042l-553 1013h-299zM842 1550l278 426h-219q-101 -135 -149 -202l-148 202h-219l277 -426h180z" />
    <glyph glyph-name="ncaron" unicode="&#x148;" horiz-adv-x="1318"
d="M1167 0l-28 670q-12 232 -116 353.5t-298 121.5q-117 0 -211 -51q-16 -9 -88 -54v88h-246l-30 -1128h315l-31 639q0 141 67.5 217t205.5 76q93 0 134.5 -63t41.5 -195l-39 -674h323zM721 1178l278 426h-219q-80 -107 -149 -203l-148 203h-219l277 -426h180z" />
    <glyph glyph-name="Eng" unicode="&#x14a;" horiz-adv-x="1468"
d="M934 -86q-34 -31 -153.5 -94t-151.5 -94q22 -34 119 -73.5t205.5 -74.5t133.5 -49l107 182l125 289l-311 166q-8 -28 -13.5 -79t-18 -93t-42.5 -80zM150 0h321q-2 48 -11 234t-14 290q-12 267 -24 531l559 -1055h338v1493h-252l-27 -1042l-553 1013h-299z" />
    <glyph glyph-name="eng" unicode="&#x14b;" horiz-adv-x="1318"
d="M1157 0l-18 670q-8 230 -113.5 352.5t-300.5 122.5q-117 0 -211 -51q-16 -9 -88 -54v88h-246l-30 -1128h315l-31 639q0 141 67.5 217t205.5 76q93 0 134.5 -63t41.5 -195l-39 -674q-19 -35 -58.5 -63t-68.5 -39.5t-76.5 -26t-48.5 -14.5q-23 -18 -10 -64t66.5 -100.5
t111.5 -69.5q15 -4 61.5 15t105.5 56.5t113 84.5t88.5 106.5t28.5 114.5z" />
    <glyph glyph-name="Omacron" unicode="&#x14c;" horiz-adv-x="1687"
d="M846 1286q191 0 302.5 -143.5t111.5 -397.5q0 -97 -26.5 -162.5t-82 -102t-128.5 -51.5t-177 -15q-201 0 -314 67q-104 69 -104 264q0 253 115 402q117 139 303 139zM846 1520q-316 0 -508 -213q-188 -212 -188 -562q0 -349 188 -561q192 -213 508 -213q312 0 504 213
q188 212 188 561q0 350 -188 562q-192 213 -504 213zM526 1559h633v213h-633v-213z" />
    <glyph glyph-name="omacron" unicode="&#x14d;"
d="M668 944q118 0 189 -94.5t71 -259.5q0 -158 -64 -203q-75 -43 -196 -43q-57 0 -94 4.5t-72 19.5t-54 42t-30.5 71.5t-11.5 108.5q0 166 70.5 260t191.5 94zM668 1145q-244 0 -381 -158q-137 -155 -137 -428t137 -428q137 -158 381 -158q239 0 377.5 158t138.5 428
t-138.5 428t-377.5 158zM348 1186h633v213h-633v-213z" />
    <glyph glyph-name="Ohungarumlaut" unicode="&#x150;" horiz-adv-x="1687"
d="M846 1286q191 0 302.5 -143.5t111.5 -397.5q0 -97 -26.5 -162.5t-82 -102t-128.5 -51.5t-177 -15q-201 0 -314 67q-104 69 -104 264q0 253 115 402q117 139 303 139zM846 1520q-316 0 -508 -213q-188 -212 -188 -562q0 -349 188 -561q192 -213 508 -213q312 0 504 213
q188 212 188 561q0 350 -188 562q-192 213 -504 213zM748 1550h206l283 426h-258zM451 1550h208l254 426h-247z" />
    <glyph glyph-name="ohungarumlaut" unicode="&#x151;"
d="M668 944q118 0 189 -94.5t71 -259.5q0 -158 -64 -203q-75 -43 -196 -43q-57 0 -94 4.5t-72 19.5t-54 42t-30.5 71.5t-11.5 108.5q0 166 70.5 260t191.5 94zM668 1145q-244 0 -381 -158q-137 -155 -137 -428t137 -428q137 -158 381 -158q239 0 377.5 158t138.5 428
t-138.5 428t-377.5 158zM569 1178h207l283 426h-258zM272 1178h209l254 426h-248z" />
    <glyph glyph-name="OE" unicode="&#x152;" horiz-adv-x="2222"
d="M2054 1493h-1030q-431 0 -651 -190q-223 -190 -223 -555q0 -369 222 -558.5t652 -189.5h1049v342h-723v399h694v238h-694v315h704v199zM1083 342h-86q-285 0 -430 127q-139 133 -139 279q0 290 138.5 418t430.5 128h86v-952z" />
    <glyph glyph-name="oe" unicode="&#x153;" horiz-adv-x="2123"
d="M1714 821l-506 -2q22 37 70 82q75 72 203 72q110 0 178 -74q42 -44 55 -78zM1974 623v120q0 55 -35.5 123t-96.5 131t-158 105.5t-205 42.5q-272 0 -420 -178q-132 178 -391 178q-242 0 -380 -157.5t-138 -428.5q0 -273 137 -428q137 -158 381 -158q136 0 229 41
q94 43 166 140q161 -181 446 -181q206 0 424 93v305q-230 -121 -413 -121q-163 0 -246 57h2q-37 22 -62 105q-18 67 -28 211h788zM668 952q120 0 190 -89.5t70 -244.5q0 -157 -69.5 -245t-190.5 -88q-123 0 -192.5 86.5t-69.5 246.5q0 157 70 245.5t192 88.5z" />
    <glyph glyph-name="Racute" unicode="&#x154;" horiz-adv-x="1503"
d="M1112 1047q0 222 -131 335q-126 111 -360 111h-471v-1493h305v598h104q105 0 162.5 -41.5t120.5 -171.5v2l151 -387h361q-17 34 -55 108.5t-56 110.5q-17 34 -56 111.5t-57 111.5q-97 190 -188 258q170 103 170 347zM436 1317h205q40 0 76 -7.5t70.5 -26.5t59 -48.5
t39.5 -77.5t15 -110q0 -66 -81.5 -121.5t-178.5 -55.5h-205v447zM461 1866h250l403 465h-305z" />
    <glyph glyph-name="racute" unicode="&#x155;" horiz-adv-x="978"
d="M829 838l-2 272q-79 16 -112 16q-136 0 -232 -57v2q-5 -3 -14 -9t-14 -9q-14 -5 -29 -17v74h-225l-51 -1110h296l-20 561q0 154 59 246q54 82 179 82q44 0 69 -6q41 -13 96 -45zM207 1493h250l403 465h-305z" />
    <glyph glyph-name="Rcommaaccent" unicode="&#x156;" horiz-adv-x="1503"
d="M1112 1047q0 222 -131 335q-126 111 -360 111h-471v-1493h305v598h104q105 0 162.5 -41.5t120.5 -171.5v2l151 -387h361q-17 34 -55 108.5t-56 110.5q-17 34 -56 111.5t-57 111.5q-97 190 -188 258q170 103 170 347zM436 1317h205q40 0 76 -7.5t70.5 -26.5t59 -48.5
t39.5 -77.5t15 -110q0 -66 -81.5 -121.5t-178.5 -55.5h-205v447zM539 -289l-109 -342h193l225 324v246h-309v-228z" />
    <glyph glyph-name="rcommaaccent" unicode="&#x157;" horiz-adv-x="978"
d="M829 838l-2 272q-79 16 -112 16q-136 0 -232 -57v2q-5 -3 -14 -9t-14 -9q-14 -5 -29 -17v74h-225l-51 -1110h296l-20 561q0 154 59 246q54 82 179 82q44 0 69 -6q41 -13 96 -45zM285 -289l-109 -342h193l225 324v246h-309v-228z" />
    <glyph glyph-name="Rcaron" unicode="&#x158;" horiz-adv-x="1503"
d="M1112 1047q0 222 -131 335q-126 111 -360 111h-471v-1493h305v598h104q105 0 162.5 -41.5t120.5 -171.5v2l151 -387h361q-17 34 -55 108.5t-56 110.5q-17 34 -56 111.5t-57 111.5q-97 190 -188 258q170 103 170 347zM436 1317h205q40 0 76 -7.5t70.5 -26.5t59 -48.5
t39.5 -77.5t15 -110q0 -66 -81.5 -121.5t-178.5 -55.5h-205v447zM719 1550l278 426h-219q-101 -135 -149 -202l-148 202h-219l277 -426h180z" />
    <glyph glyph-name="rcaron" unicode="&#x159;" horiz-adv-x="978"
d="M829 838l-2 272q-79 16 -112 16q-136 0 -232 -57v2q-5 -3 -14 -9t-14 -9q-14 -5 -29 -17v74h-225l-51 -1110h296l-20 561q0 154 59 246q54 82 179 82q44 0 69 -6q41 -13 96 -45zM465 1178l278 426h-219q-80 -107 -149 -203l-148 203h-219l277 -426h180z" />
    <glyph glyph-name="Sacute" unicode="&#x15a;" horiz-adv-x="1372"
d="M1139 1161v275q-254 84 -455 84q-245 0 -389.5 -119.5t-144.5 -325.5q0 -177 105 -279t331 -145l116 -22q134 -29 193 -78q51 -51 51 -88q0 -45 -72 -96q-85 -60 -233 -60q-198 0 -485 162v-395q276 -103 485 -103q287 0 434.5 116t147.5 341q0 190 -110.5 302.5
t-340.5 156.5h2l-117 22q-147 27 -196 70q-43 34 -43 113q0 93 75.5 143.5t213.5 50.5q164 0 432 -125zM494 1866h249l404 465h-305z" />
    <glyph glyph-name="sacute" unicode="&#x15b;" horiz-adv-x="1173"
d="M969 848v229q-169 68 -371 68q-214 0 -327 -88.5t-113 -255.5q0 -136 79 -207.5t252 -106.5h-2l62 -14q141 -29 162 -47q12 -14 43 -66q0 -47 -49 -69q-48 -25 -148 -25q-170 0 -407 123v-340q232 -76 405 -76q215 0 342 95t127 258q0 142 -90 223q-88 75 -279 115
q-14 0 -26 6q-5 1 -15.5 3t-15.5 3q-126 27 -172 61q-37 30 -37 80q0 60 58.5 93.5t168.5 33.5q156 0 353 -96zM395 1493h250l404 465h-306z" />
    <glyph glyph-name="Scedilla" unicode="&#x15e;" horiz-adv-x="1372"
d="M1139 1161v275q-254 84 -455 84q-245 0 -389.5 -119.5t-144.5 -325.5q0 -177 105 -279t331 -145l116 -22q134 -29 193 -78q51 -51 51 -88q0 -45 -72 -96q-85 -60 -233 -60q-198 0 -485 162v-395q276 -103 485 -103q287 0 434.5 116t147.5 341q0 190 -110.5 302.5
t-340.5 156.5h2l-117 22q-147 27 -196 70q-43 34 -43 113q0 93 75.5 143.5t213.5 50.5q164 0 432 -125zM514 76h-201q73 -103 90 -131q29 -53 29 -74q0 -49 -74 -49q-79 0 -182 53v-213q118 -31 201 -31q260 0 260 205q0 53 -29.5 110t-93.5 130z" />
    <glyph glyph-name="scedilla" unicode="&#x15f;" horiz-adv-x="1265"
d="M1061 848v229q-169 68 -373 68q-212 0 -325 -88.5t-113 -255.5q0 -136 79 -207.5t253 -106.5h-2l61 -14q141 -29 162 -47q12 -14 43 -66q0 -47 -49 -69q-48 -25 -148 -25q-170 0 -407 123v-340q232 -76 405 -76q215 0 342 95t127 258q0 142 -90 223q-88 75 -278 115
q-15 0 -27 6q-5 1 -15.5 3t-15.5 3q-124 27 -174 61h2q-37 30 -37 80q0 60 59 93.5t169 33.5q155 0 352 -96zM489 76h-202q57 -76 90 -131q29 -53 29 -74q0 -49 -74 -49q-79 0 -182 53v-213q118 -31 200 -31q260 0 260 205q0 53 -29 109.5t-92 130.5z" />
    <glyph glyph-name="Scaron" unicode="&#x160;" horiz-adv-x="1388"
d="M1153 1161v275q-254 84 -453 84q-247 0 -390.5 -119t-143.5 -326q0 -177 104.5 -279t329.5 -145l119 -22q136 -30 190 -78q54 -54 54 -88q0 -43 -74 -96q-82 -60 -232 -60q-200 0 -487 162v-395q276 -103 487 -103q285 0 432.5 116.5t147.5 340.5q0 191 -109.5 303
t-339.5 156l-116 22q-145 27 -197 70q-43 34 -43 113q0 94 75.5 144t215.5 50q165 0 430 -125zM616 1550l258 324h-223q-9 -10 -32 -34.5t-35 -39.5q-50 -54 -72 -76l-139 150h-223l256 -324h210z" />
    <glyph glyph-name="scaron" unicode="&#x161;" horiz-adv-x="1316"
d="M1110 848v229q-169 68 -371 68q-213 0 -326.5 -88.5t-113.5 -255.5q0 -136 79.5 -207.5t252.5 -106.5l59 -14q145 -30 162 -47q18 -21 45 -66q-3 -48 -49 -69q-52 -25 -148 -25q-170 0 -407 123v-340q229 -76 403 -76q215 0 342 95t127 258q0 142 -90 223
q-88 75 -276 115q-17 0 -29 6q-25 5 -29 6q-124 27 -174 61q-37 30 -37 80q0 60 60 93.5t170 33.5q153 0 350 -96zM707 1178l276 426h-217q-109 -146 -150 -203l-147 203h-219l276 -426h181z" />
    <glyph glyph-name="Tcedilla" unicode="&#x162;" horiz-adv-x="1574"
d="M150 1255l501 19l-37 -1274h347l-37 1274l501 -21v240h-1275v-238zM895 76h-203q57 -76 90 -131q29 -53 29 -74q0 -49 -74 -49q-79 0 -182 53v-213q118 -31 201 -31q260 0 260 205q0 53 -29 109.5t-92 130.5z" />
    <glyph glyph-name="tcedilla" unicode="&#x163;" horiz-adv-x="1026"
d="M287 1378l-11 -258h-126v-209h126l-10 -528q0 -212 91 -297.5t307 -85.5h213v330h-213q-92 0 -115 26q-27 24 -27 138l10 417h242v209h-239l8 258h-256zM610 76h-202q57 -76 90 -131q28 -51 28 -74q0 -49 -73 -49q-80 0 -183 53v-213q118 -31 201 -31q260 0 260 205
q0 53 -29 109.5t-92 130.5z" />
    <glyph glyph-name="Tcaron" unicode="&#x164;" horiz-adv-x="1574"
d="M150 1255l501 19l-37 -1274h347l-37 1274l501 -21v240h-1275v-238zM877 1550l278 426h-219q-130 -175 -150 -202l-147 202h-219l276 -426h181z" />
    <glyph glyph-name="tcaron" unicode="&#x165;" horiz-adv-x="1026"
d="M287 1378l-11 -258h-126v-209h126l-10 -528q0 -212 91 -297.5t307 -85.5h213v330h-213q-92 0 -115 26q-27 24 -27 138l10 417h242v209h-239l8 258h-256zM1008 1395l-105 -404h219l199 389v219h-313v-204z" />
    <glyph glyph-name="Tbar" unicode="&#x166;" horiz-adv-x="1574"
d="M150 1255l501 19l-37 -1274h347l-37 1274l501 -21v240h-1275v-238zM469 1559h633v213h-633v-213z" />
    <glyph glyph-name="tbar" unicode="&#x167;" horiz-adv-x="1026"
d="M287 1378l-11 -258h-126v-209h126l-10 -528q0 -212 91 -297.5t307 -85.5h213v330h-213q-92 0 -115 26q-27 24 -27 138l10 417h242v209h-239l8 258h-256zM150 1286h632v213h-632v-213z" />
    <glyph glyph-name="Utilde" unicode="&#x168;" horiz-adv-x="1460"
d="M150 1493v-924q0 -295 147 -446.5t434 -151.5t433.5 151t146.5 447v924h-269v-766q0 -214 -73 -305v2q-71 -86 -238 -86q-166 0 -237 86v-2q-74 92 -74 305v766h-270zM647 2048l53 -51q38 -36 73.5 -51t82.5 -15q103 0 159.5 87.5t59.5 250.5h-190q-2 -60 -11 -110
q-6 -35 -24 -35q-10 0 -39 26h2l-55 52q-78 67 -154 67q-103 0 -160.5 -88.5t-60.5 -249.5h192q0 57 9 109q8 35 26 35q10 0 37 -27z" />
    <glyph glyph-name="utilde" unicode="&#x169;" horiz-adv-x="1259"
d="M150 1120v-669q0 -235 103 -356.5t302 -121.5q175 0 291 113l-4 -86h248l20 1120h-274l-11 -479q-13 -149 -75 -219q-64 -76 -189 -76q-93 0 -138.5 65t-53.5 197v512h-219zM559 1675l53 -51q37 -36 73 -50.5t83 -14.5q103 0 159.5 87t59.5 250h-190q-2 -60 -11 -110
q-6 -35 -24 -35q-9 0 -39 27h2l-55 51q-78 67 -154 67q-103 0 -160.5 -88t-60.5 -249h192q0 56 9 108q8 35 26 35q10 0 37 -27z" />
    <glyph glyph-name="Umacron" unicode="&#x16a;" horiz-adv-x="1460"
d="M150 1493v-924q0 -295 147 -446.5t434 -151.5t433.5 151t146.5 447v924h-269v-766q0 -214 -73 -305v2q-71 -86 -238 -86q-166 0 -237 86v-2q-74 92 -74 305v766h-270zM412 1559h632v213h-632v-213z" />
    <glyph glyph-name="umacron" unicode="&#x16b;" horiz-adv-x="1259"
d="M150 1120v-669q0 -235 103 -356.5t302 -121.5q175 0 291 113l-4 -86h248l20 1120h-274l-11 -479q-13 -149 -75 -219q-64 -76 -189 -76q-93 0 -138.5 65t-53.5 197v512h-219zM324 1186h632v213h-632v-213z" />
    <glyph glyph-name="Uring" unicode="&#x16e;" horiz-adv-x="1460"
d="M150 1493v-924q0 -295 147 -446.5t434 -151.5t433.5 151t146.5 447v924h-269v-766q0 -214 -73 -305v2q-71 -86 -238 -86q-166 0 -237 86v-2q-74 92 -74 305v766h-270zM834 1833q0 -45 -30 -74.5t-75 -29.5t-76 28q-28 31 -28 76q0 44 30 73t74 29q46 0 75.5 -29t29.5 -73
zM1022 1833q0 121 -86 207t-207 86t-207 -86t-86 -207q0 -123 85.5 -209t207.5 -86t207.5 86t85.5 209z" />
    <glyph glyph-name="uring" unicode="&#x16f;" horiz-adv-x="1259"
d="M150 1120v-669q0 -235 103 -356.5t302 -121.5q175 0 291 113l-4 -86h248l20 1120h-274l-11 -479q-13 -149 -75 -219q-64 -76 -189 -76q-93 0 -138.5 65t-53.5 197v512h-219zM745 1460q0 -45 -29.5 -74.5t-74.5 -29.5t-76 28q-28 31 -28 76q0 44 30 73.5t74 29.5
q45 0 74.5 -29.5t29.5 -73.5zM934 1460q0 122 -86 207.5t-207 85.5t-207 -85.5t-86 -207.5q0 -123 85.5 -209t207.5 -86t207.5 86t85.5 209z" />
    <glyph glyph-name="Uhungarumlaut" unicode="&#x170;" horiz-adv-x="1460"
d="M150 1493v-924q0 -295 147 -446.5t434 -151.5t433.5 151t146.5 447v924h-269v-766q0 -214 -73 -305v2q-71 -86 -238 -86q-166 0 -237 86v-2q-74 92 -74 305v766h-270zM633 1550h207l282 426h-258zM336 1550h209l254 426h-248z" />
    <glyph glyph-name="uhungarumlaut" unicode="&#x171;" horiz-adv-x="1259"
d="M150 1120v-669q0 -235 103 -356.5t302 -121.5q175 0 291 113l-4 -86h248l20 1120h-274l-11 -479q-13 -149 -75 -219q-64 -76 -189 -76q-93 0 -138.5 65t-53.5 197v512h-219zM545 1178h207l282 426h-258zM248 1178h209l254 426h-248z" />
    <glyph glyph-name="Uogonek" unicode="&#x172;" horiz-adv-x="1460"
d="M150 1493v-924q0 -295 147 -446.5t434 -151.5t433.5 151t146.5 447v924h-269v-766q0 -214 -73 -305v2q-71 -86 -238 -86q-166 0 -237 86v-2q-74 92 -74 305v766h-270zM821 0h-203q-120 -140 -120 -240q0 -106 62 -155t196 -49q49 0 166 26v213q-104 -49 -154 -49
q-66 0 -66 47q0 21 29 74q25 46 90 133z" />
    <glyph glyph-name="uogonek" unicode="&#x173;" horiz-adv-x="1259"
d="M150 1120v-669q0 -235 103 -356.5t302 -121.5q175 0 291 113l-4 -86h248l20 1120h-274l-11 -479q-13 -149 -75 -219q-64 -76 -189 -76q-93 0 -138.5 65t-53.5 197v512h-219zM1069 8h-203q-121 -142 -121 -239q0 -106 62.5 -155.5t196.5 -49.5q48 0 165 26v213
q-104 -49 -153 -49q-66 0 -66 47q0 21 29 74q25 46 90 133z" />
    <glyph glyph-name="Wcircumflex" unicode="&#x174;" horiz-adv-x="2191"
d="M483 0h357q19 46 127 332q23 63 65.5 178.5t61.5 167.5l235 -678h336l377 1493h-262q-34 -111 -154 -481q-14 -44 -151 -498l-277 608h-217q-28 -56 -84 -164.5t-66 -128.5q-127 -250 -151 -297l-270 961h-260zM721 1550h219q14 18 41 57t31 44q15 19 39.5 53t35.5 49
l150 -203h219l-278 426h-181z" />
    <glyph glyph-name="wcircumflex" unicode="&#x175;" horiz-adv-x="1800"
d="M442 0h285l172 412l164 -412h295l293 1120h-248q-17 -54 -98 -332q-33 -113 -99 -335l-162 321h-286l-162 -321l-197 667h-249zM535 1178h219q13 18 38.5 54t32.5 46q15 19 40.5 53.5t35.5 48.5l150 -202h219l-279 426h-180z" />
    <glyph glyph-name="Ycircumflex" unicode="&#x176;" horiz-adv-x="1619"
d="M637 512v-512h336v512l495 981h-290l-367 -684l-371 684h-290zM442 1550h220q13 17 37 52.5t34 48.5q15 19 40.5 53.5t35.5 48.5l149 -203h220l-279 426h-180z" />
    <glyph glyph-name="ycircumflex" unicode="&#x177;" horiz-adv-x="1429"
d="M1280 1120h-260l-264 -567l-346 567h-260q19 -41 57 -122t57 -121q39 -84 118 -254t118 -254q18 -39 56 -120.5t58 -123.5q-7 -13 -17.5 -36t-14.5 -30q-24 -41 -35 -65q-38 -52 -78 -84q-32 -25 -84 -25h-158v-301h193q69 0 118 13.5t98 50.5t92.5 104.5t90.5 173.5z
M250 1178h219q15 21 72 100q15 19 39.5 53t35.5 49l150 -202h219l-278 426h-181z" />
    <glyph glyph-name="Ydieresis" unicode="&#x178;" horiz-adv-x="1619"
d="M637 512v-512h336v512l495 981h-290l-367 -684l-371 684h-290zM903 1581h264v264h-264v-264zM539 1581h266v264h-266v-264z" />
    <glyph glyph-name="Zacute" unicode="&#x179;" horiz-adv-x="1533"
d="M172 1255h825l-847 -931v-324h1232v360h-870l850 934v199h-1190v-238zM604 1866h250l403 465h-305z" />
    <glyph glyph-name="zacute" unicode="&#x17a;" horiz-adv-x="1222"
d="M193 918h571l-614 -617v-301h913v305h-535l545 606v209h-880v-202zM459 1493h250l403 465h-305z" />
    <glyph glyph-name="Zdotaccent" unicode="&#x17b;" horiz-adv-x="1533"
d="M172 1255h825l-847 -931v-324h1232v360h-870l850 934v199h-1190v-238zM639 1630h266v266h-266v-266z" />
    <glyph glyph-name="zdotaccent" unicode="&#x17c;" horiz-adv-x="1222"
d="M193 918h571l-614 -617v-301h913v305h-535l545 606v209h-880v-202zM494 1257h266v267h-266v-267z" />
    <glyph glyph-name="Zcaron" unicode="&#x17d;" horiz-adv-x="1533"
d="M172 1255h825l-847 -931v-324h1232v360h-870l850 934v199h-1190v-238zM862 1550l279 426h-219q-130 -175 -150 -202l-147 202h-219l276 -426h180z" />
    <glyph glyph-name="zcaron" unicode="&#x17e;" horiz-adv-x="1413"
d="M383 918h571l-612 -617v-301h911v305h-532l543 606v209h-881v-202zM907 1178l277 426h-217q-109 -146 -150 -203l-149 203h-217l276 -426h180z" />
    <glyph glyph-name="florin" unicode="&#x192;" horiz-adv-x="1546"
d="M1397 1245v236q-115 47 -223 47q-157 0 -259 -98.5t-137 -284.5l-53 -281l-266 -18v-209l223 16q-12 -101 -33 -225q-4 -32 -9.5 -68t-12.5 -82t-11 -75h2q-31 -144 -75 -203q-40 -49 -113 -49t-209 86l-71 -379q118 -55 233 -55q191 0 322 143q124 135 176 492l57 421
l299 21v209q-36 -4 -59 -4q-20 -2 -66 -6q-58 -5 -68 -5q-38 -3 -65 -6l45 262q44 207 184 207q75 0 189 -92z" />
    <glyph glyph-name="Ohorn" unicode="&#x1a0;" horiz-adv-x="1687"
d="M846 1286q191 0 302.5 -143.5t111.5 -397.5q0 -97 -26.5 -162.5t-82 -102t-128.5 -51.5t-177 -15q-201 0 -314 67q-104 69 -104 264q0 253 115 402q117 139 303 139zM846 1520q-316 0 -508 -213q-188 -212 -188 -562q0 -349 188 -561q192 -213 508 -213q312 0 504 213
q188 212 188 561q0 350 -188 562q-192 213 -504 213zM1415 1206l45 -94q15 7 25 12.5t20.5 13t14.5 10.5t18.5 15.5t22.5 18.5q43 38 63.5 102t20.5 131q0 20 -11 66l-98 12q14 -35 14 -61v-12v-15.5t-0.5 -17t-1 -19t-2 -19t-3.5 -20.5t-5 -18.5t-7 -18.5t-9.5 -16
t-12.5 -14q-13 -11 -42.5 -26.5t-51.5 -29.5z" />
    <glyph glyph-name="ohorn" unicode="&#x1a1;"
d="M668 944q118 0 189 -94.5t71 -259.5q0 -158 -64 -203q-75 -43 -196 -43q-57 0 -94 4.5t-72 19.5t-54 42t-30.5 71.5t-11.5 108.5q0 166 70.5 260t191.5 94zM668 1145q-244 0 -381 -158q-137 -155 -137 -428t137 -428q137 -158 381 -158q239 0 377.5 158t138.5 428
t-138.5 428t-377.5 158zM1024 874l45 -94q19 9 32.5 17.5t18.5 12t23.5 19t25.5 21.5q43 38 63.5 102t20.5 131q0 24 -10 66l-98 12q14 -35 14 -61v-12v-15.5t-0.5 -17t-1 -19t-2 -19t-3.5 -20.5t-5 -18.5t-7 -18.5t-9.5 -16t-12.5 -14q-13 -11 -42.5 -26.5t-51.5 -29.5z
" />
    <glyph glyph-name="Uhorn" unicode="&#x1af;" horiz-adv-x="1460"
d="M150 1493v-924q0 -295 147 -446.5t434 -151.5t433.5 151t146.5 447v924h-269v-766q0 -214 -73 -305v2q-71 -86 -238 -86q-166 0 -237 86v-2q-74 92 -74 305v766h-270zM1243 1288l45 -94q15 7 25 12.5t20.5 13t14.5 10.5t18.5 15.5t22.5 18.5q43 38 63.5 102t20.5 131
q0 20 -11 66l-98 12q14 -35 14 -62v-12v-15.5t-0.5 -17t-1 -19t-2 -19t-3.5 -20.5t-5 -18.5t-7 -18.5t-9.5 -16t-12.5 -14q-13 -11 -42 -25.5t-52 -29.5z" />
    <glyph glyph-name="uhorn" unicode="&#x1b0;" horiz-adv-x="1259"
d="M150 1120v-669q0 -235 103 -356.5t302 -121.5q175 0 291 113l-4 -86h248l20 1120h-274l-11 -479q-13 -149 -75 -219q-64 -76 -189 -76q-93 0 -138.5 65t-53.5 197v512h-219zM1057 961l45 -95q19 9 32.5 17.5t18.5 12t23.5 19t25.5 21.5q43 38 63.5 102t20.5 131
q0 24 -10 66l-98 12q14 -35 14 -61v-12v-15.5t-0.5 -17t-1 -19t-2 -19t-3.5 -20.5t-5 -18.5t-7 -18.5t-9.5 -16t-12.5 -14q-13 -11 -42 -25.5t-52 -29.5z" />
    <glyph glyph-name="Acaron" unicode="&#x1cd;" horiz-adv-x="1710"
d="M1065 532h-418q53 161 53 162q27 80 54 156q42 127 49 151q7 22 24.5 74.5t26.5 81.5zM150 0h342l71 231h582l53 -231h363l-590 1493h-232zM944 1550l279 426h-219q-130 -175 -150 -202l-147 202h-220l277 -426h180z" />
    <glyph glyph-name="acaron" unicode="&#x1ce;" horiz-adv-x="1257"
d="M766 535v-3q0 -75 -9.5 -119t-36 -67t-61 -30t-96.5 -7q-79 0 -145 17q-37 12 -49 63q3 77 49 109q52 37 229 37h119zM1108 0v635q0 510 -487 510q-173 0 -394 -84v-227q206 110 373 110q119 -9 186.5 -64t73.5 -145h-203q-507 0 -507 -393q0 -168 106 -268
q107 -101 283 -101q199 0 321 113v-86h248zM756 1178l278 426h-219q-80 -107 -149 -203l-148 203h-219l276 -426h181z" />
    <glyph glyph-name="Icaron" unicode="&#x1cf;" horiz-adv-x="606"
d="M150 0h307l-19 1493h-258zM408 1550l278 426h-219q-130 -175 -150 -202l-147 202h-219l276 -426h181z" />
    <glyph glyph-name="icaron" unicode="&#x1d0;" horiz-adv-x="546"
d="M150 0h247v1120h-247v-1120zM360 1178l279 426h-219q-109 -146 -150 -203l-147 203h-219l276 -426h180z" />
    <glyph glyph-name="Ocaron" unicode="&#x1d1;" horiz-adv-x="1687"
d="M846 1286q191 0 302.5 -143.5t111.5 -397.5q0 -97 -26.5 -162.5t-82 -102t-128.5 -51.5t-177 -15q-201 0 -314 67q-104 69 -104 264q0 253 115 402q117 139 303 139zM846 1520q-316 0 -508 -213q-188 -212 -188 -562q0 -349 188 -561q192 -213 508 -213q312 0 504 213
q188 212 188 561q0 350 -188 562q-192 213 -504 213zM934 1550l278 426h-219q-101 -135 -149 -202l-148 202h-219l277 -426h180z" />
    <glyph glyph-name="ocaron" unicode="&#x1d2;"
d="M668 944q118 0 189 -94.5t71 -259.5q0 -158 -64 -203q-75 -43 -196 -43q-57 0 -94 4.5t-72 19.5t-54 42t-30.5 71.5t-11.5 108.5q0 166 70.5 260t191.5 94zM668 1145q-244 0 -381 -158q-137 -155 -137 -428t137 -428q137 -158 381 -158q239 0 377.5 158t138.5 428
t-138.5 428t-377.5 158zM756 1178l278 426h-219q-80 -107 -149 -203l-148 203h-219l276 -426h181z" />
    <glyph glyph-name="Ucaron" unicode="&#x1d3;" horiz-adv-x="1460"
d="M150 1493v-924q0 -295 147 -446.5t434 -151.5t433.5 151t146.5 447v924h-269v-766q0 -214 -73 -305v2q-71 -86 -238 -86q-166 0 -237 86v-2q-74 92 -74 305v766h-270zM819 1550l279 426h-219q-130 -175 -150 -202l-147 202h-220l277 -426h180z" />
    <glyph glyph-name="ucaron" unicode="&#x1d4;" horiz-adv-x="1259"
d="M150 1120v-669q0 -235 103 -356.5t302 -121.5q175 0 291 113l-4 -86h248l20 1120h-274l-11 -479q-13 -149 -75 -219q-64 -76 -189 -76q-93 0 -138.5 65t-53.5 197v512h-219zM731 1178l279 426h-219q-109 -146 -150 -203l-147 203h-220l277 -426h180z" />
    <glyph glyph-name="Udieresismacron" unicode="&#x1d5;" horiz-adv-x="1460"
d="M150 1493v-924q0 -295 147 -446.5t434 -151.5t433.5 151t146.5 447v924h-269v-766q0 -214 -73 -305v2q-71 -86 -238 -86q-166 0 -237 86v-2q-74 92 -74 305v766h-270zM784 1806h279v277h-279v-277zM393 1806h279v277h-279v-277zM412 1559h632v213h-632v-213z" />
    <glyph glyph-name="udieresismacron" unicode="&#x1d6;" horiz-adv-x="1259"
d="M150 1120v-669q0 -235 103 -356.5t302 -121.5q175 0 291 113l-4 -86h248l20 1120h-274l-11 -479q-13 -149 -75 -219q-64 -76 -189 -76q-93 0 -138.5 65t-53.5 197v512h-219zM696 1434h279v276h-279v-276zM305 1434h279v276h-279v-276zM324 1186h632v213h-632v-213z" />
    <glyph glyph-name="Udieresisacute" unicode="&#x1d7;" horiz-adv-x="1460"
d="M150 1493v-924q0 -295 147 -446.5t434 -151.5t433.5 151t146.5 447v924h-269v-766q0 -214 -73 -305v2q-71 -86 -238 -86q-166 0 -237 86v-2q-74 92 -74 305v766h-270zM784 1806h279v277h-279v-277zM393 1806h279v277h-279v-277zM561 1866h250l403 465h-305z" />
    <glyph glyph-name="udieresisacute" unicode="&#x1d8;" horiz-adv-x="1259"
d="M150 1120v-669q0 -235 103 -356.5t302 -121.5q175 0 291 113l-4 -86h248l20 1120h-274l-11 -479q-13 -149 -75 -219q-64 -76 -189 -76q-93 0 -138.5 65t-53.5 197v512h-219zM696 1434h279v276h-279v-276zM305 1434h279v276h-279v-276zM473 1493h250l403 465h-305z" />
    <glyph glyph-name="Udieresiscaron" unicode="&#x1d9;" horiz-adv-x="1460"
d="M150 1493v-924q0 -295 147 -446.5t434 -151.5t433.5 151t146.5 447v924h-269v-766q0 -214 -73 -305v2q-71 -86 -238 -86q-166 0 -237 86v-2q-74 92 -74 305v766h-270zM784 1806h279v277h-279v-277zM393 1806h279v277h-279v-277zM819 1550l279 426h-219
q-130 -175 -150 -202l-147 202h-220l277 -426h180z" />
    <glyph glyph-name="udieresiscaron" unicode="&#x1da;" horiz-adv-x="1259"
d="M150 1120v-669q0 -235 103 -356.5t302 -121.5q175 0 291 113l-4 -86h248l20 1120h-274l-11 -479q-13 -149 -75 -219q-64 -76 -189 -76q-93 0 -138.5 65t-53.5 197v512h-219zM696 1434h279v276h-279v-276zM305 1434h279v276h-279v-276zM731 1178l279 426h-219
q-109 -146 -150 -203l-147 203h-220l277 -426h180z" />
    <glyph glyph-name="Udieresisgrave" unicode="&#x1db;" horiz-adv-x="1460"
d="M150 1493v-924q0 -295 147 -446.5t434 -151.5t433.5 151t146.5 447v924h-269v-766q0 -214 -73 -305v2q-71 -86 -238 -86q-166 0 -237 86v-2q-74 92 -74 305v766h-270zM784 1806h279v277h-279v-277zM393 1806h279v277h-279v-277zM367 2361l235 -424h350l-319 424h-266z
" />
    <glyph glyph-name="udieresisgrave" unicode="&#x1dc;" horiz-adv-x="1259"
d="M150 1120v-669q0 -235 103 -356.5t302 -121.5q175 0 291 113l-4 -86h248l20 1120h-274l-11 -479q-13 -149 -75 -219q-64 -76 -189 -76q-93 0 -138.5 65t-53.5 197v512h-219zM696 1434h279v276h-279v-276zM305 1434h279v276h-279v-276zM279 1989l235 -424h350l-319 424
h-266z" />
    <glyph glyph-name="Adieresismacron" unicode="&#x1de;" horiz-adv-x="1710"
d="M1065 532h-418q53 161 53 162q27 80 54 156q42 127 49 151q7 22 24.5 74.5t26.5 81.5zM150 0h342l71 231h582l53 -231h363l-590 1493h-232zM909 1806h279v277h-279v-277zM518 1806h279v277h-279v-277zM537 1559h632v213h-632v-213z" />
    <glyph glyph-name="adieresismacron" unicode="&#x1df;" horiz-adv-x="1257"
d="M766 535v-3q0 -75 -9.5 -119t-36 -67t-61 -30t-96.5 -7q-79 0 -145 17q-37 12 -49 63q3 77 49 109q52 37 229 37h119zM1108 0v635q0 510 -487 510q-173 0 -394 -84v-227q206 110 373 110q119 -9 186.5 -64t73.5 -145h-203q-507 0 -507 -393q0 -168 106 -268
q107 -101 283 -101q199 0 321 113v-86h248zM721 1434h278v276h-278v-276zM330 1434h278v276h-278v-276zM348 1186h633v213h-633v-213z" />
    <glyph glyph-name="Gcaron" unicode="&#x1e6;" horiz-adv-x="1613"
d="M1169 526v-116q-28 -22 -86 -35h2q-72 -17 -174 -17q-248 0 -364 82h2q-109 81 -121 326q0 539 483 539q254 0 506 -215v286q-230 144 -522 144q-349 0 -547 -206.5t-198 -568.5q0 -361 196 -569q202 -205 549 -205q316 0 569 179v638h-598v-262h303zM936 1550l278 426
h-219q-101 -135 -149 -202l-148 202h-219l277 -426h180z" />
    <glyph glyph-name="gcaron" unicode="&#x1e7;" horiz-adv-x="1327"
d="M838 582q0 -63 -12.5 -106t-31.5 -67.5t-56.5 -37.5t-73.5 -16t-95 -3q-122 0 -180 33q-46 40 -61 201q0 79 16 151q53 201 238 201q121 0 188 -92q68 -96 68 -264zM1178 1120h-244q0 -13 -4 -45q-1 -8 -3 -25.5t-3 -25.5q-109 121 -310 121q-210 0 -337 -159t-127 -415
q0 -255 127 -413t337 -158q126 0 217 49q11 7 29.5 19t24.5 16q-32 -67 -72 -111q-70 -79 -219 -79q-151 0 -338 104v-395q189 -66 365 -66q262 0 391 144q124 133 137 485zM780 1178l279 426h-219q-109 -146 -150 -203l-147 203h-219l276 -426h180z" />
    <glyph glyph-name="Oslashacute" unicode="&#x1fe;" horiz-adv-x="1742"
d="M676 365l567 661q19 -40 27 -72q16 -56 16 -147q-36 -256 -125 -348q-87 -87 -284 -115q-105 0 -142 2q-34 4 -59 19zM1124 1202l-594 -690q-31 35 -65 102q-39 76 -39 168q0 249 115 402q116 138 301 141q112 -9 182 -39q46 -17 100 -84zM150 51l155 -133l156 182
q172 -129 411 -129q312 0 504 213q189 210 189 561q0 296 -140 498l166 195l-153 133l-156 -182q-172 131 -410 131q-209 0 -366.5 -96t-242.5 -271.5t-85 -407.5q0 -295 137 -497zM702 1866h250l404 465h-305z" />
    <glyph glyph-name="oslashacute" unicode="&#x1ff;" horiz-adv-x="1437"
d="M575 238l392 471q14 -50 14 -150q0 -172 -70.5 -269t-189.5 -97q-86 0 -146 45zM862 881l-391 -471q-12 55 -12 137q0 181 71 284q72 95 191 95q81 0 141 -45zM150 16l147 -118q12 15 31 34q12 16 37.5 47t29.5 37q3 3 33 39q119 -82 293 -82q240 0 378 158t138 428
q0 214 -90 367l141 174l-145 123q-12 -18 -31 -37q-26 -31 -33 -41q-48 -56 -67 -82q-125 82 -291 82q-242 0 -380 -157.5t-138 -428.5q0 -227 92 -366zM551 1493h250l403 465h-305z" />
    <glyph glyph-name="Scommaaccent" unicode="&#x218;" horiz-adv-x="1372"
d="M1139 1161v275q-254 84 -455 84q-245 0 -389.5 -119.5t-144.5 -325.5q0 -177 105 -279t331 -145l116 -22q134 -29 193 -78q51 -51 51 -88q0 -45 -72 -96q-85 -60 -233 -60q-198 0 -485 162v-395q276 -103 485 -103q287 0 434.5 116t147.5 341q0 190 -110.5 302.5
t-340.5 156.5h2l-117 22q-147 27 -196 70q-43 34 -43 113q0 93 75.5 143.5t213.5 50.5q164 0 432 -125zM571 -289l-108 -342h192l226 324v246h-310v-228z" />
    <glyph glyph-name="scommaaccent" unicode="&#x219;" horiz-adv-x="1173"
d="M969 848v229q-169 68 -371 68q-214 0 -327 -88.5t-113 -255.5q0 -136 79 -207.5t252 -106.5h-2l62 -14q141 -29 162 -47q12 -14 43 -66q0 -47 -49 -69q-48 -25 -148 -25q-170 0 -407 123v-340q232 -76 405 -76q215 0 342 95t127 258q0 142 -90 223q-88 75 -279 115
q-14 0 -26 6q-5 1 -15.5 3t-15.5 3q-126 27 -172 61q-37 30 -37 80q0 60 58.5 93.5t168.5 33.5q156 0 353 -96zM473 -289l-108 -342h192l225 324v246h-309v-228z" />
    <glyph glyph-name="uni021A" unicode="&#x21a;" horiz-adv-x="1574"
d="M150 1255l501 19l-37 -1274h347l-37 1274l501 -21v240h-1275v-238zM696 -289l-108 -342h192l226 324v246h-310v-228z" />
    <glyph glyph-name="uni021B" unicode="&#x21b;" horiz-adv-x="1026"
d="M287 1378l-11 -258h-126v-209h126l-10 -528q0 -212 91 -297.5t307 -85.5h213v330h-213q-92 0 -115 26q-27 24 -27 138l10 417h242v209h-239l8 258h-256zM412 -289l-109 -342h193l225 324v246h-309v-228z" />
    <glyph glyph-name="uni0228" unicode="&#x228;" horiz-adv-x="1288"
d="M150 0h989v371h-721v305h674v235h-674v344h704v238h-972v-1493zM735 76h-203q62 -83 91 -131q28 -51 28 -74q0 -49 -73 -49q-80 0 -183 53v-213q118 -31 201 -31q260 0 260 205q0 53 -29 109.5t-92 130.5z" />
    <glyph glyph-name="uni0229" unicode="&#x229;"
d="M1184 565v107q-18 234 -140 350h3q-120 114 -347 123q-251 0 -396 -160.5t-154 -433.5q0 -264 157 -418q160 -151 420 -160q208 0 426 93l-4 323q-142 -74 -223 -80q-84 -8 -189 -8q-164 13 -250 66q-69 50 -81 198h778zM950 791h-524q12 54 72 114v-2q75 78 202 78
q111 0 177 -78q54 -64 73 -112zM854 49h-203q57 -76 90 -131q29 -53 29 -74q0 -49 -74 -49q-79 0 -182 53v-213q114 -30 201 -30q260 0 260 205q0 53 -29 109t-92 130z" />
    <glyph glyph-name="uni022A" unicode="&#x22a;" horiz-adv-x="1687"
d="M846 1286q191 0 302.5 -143.5t111.5 -397.5q0 -97 -26.5 -162.5t-82 -102t-128.5 -51.5t-177 -15q-201 0 -314 67q-104 69 -104 264q0 253 115 402q117 139 303 139zM846 1520q-316 0 -508 -213q-188 -212 -188 -562q0 -349 188 -561q192 -213 508 -213q312 0 504 213
q188 212 188 561q0 350 -188 562q-192 213 -504 213zM899 1806h279v277h-279v-277zM508 1806h278v277h-278v-277zM526 1559h633v213h-633v-213z" />
    <glyph glyph-name="uni022B" unicode="&#x22b;"
d="M668 944q118 0 189 -94.5t71 -259.5q0 -158 -64 -203q-75 -43 -196 -43q-57 0 -94 4.5t-72 19.5t-54 42t-30.5 71.5t-11.5 108.5q0 166 70.5 260t191.5 94zM668 1145q-244 0 -381 -158q-137 -155 -137 -428t137 -428q137 -158 381 -158q239 0 377.5 158t138.5 428
t-138.5 428t-377.5 158zM721 1434h278v276h-278v-276zM330 1434h278v276h-278v-276zM348 1186h633v213h-633v-213z" />
    <glyph glyph-name="circumflex" unicode="&#x2c6;" horiz-adv-x="1034"
d="M150 1178h219q13 18 38.5 54t32.5 46q15 19 40.5 53.5t35.5 48.5l150 -202h219l-279 426h-180z" />
    <glyph glyph-name="caron" unicode="&#x2c7;" horiz-adv-x="1034"
d="M606 1178l279 426h-219q-109 -146 -150 -203l-147 203h-219l276 -426h180z" />
    <glyph glyph-name="breve" unicode="&#x2d8;" horiz-adv-x="964"
d="M334 1575h-184q24 -342 331 -342q311 0 332 342h-180q-12 -71 -49 -105t-103 -34q-129 0 -147 139z" />
    <glyph glyph-name="dotaccent" unicode="&#x2d9;" horiz-adv-x="565"
d="M150 1257h266v267h-266v-267z" />
    <glyph glyph-name="ring" unicode="&#x2da;" horiz-adv-x="886"
d="M547 1460q0 -44 -29.5 -74t-75.5 -30q-44 0 -75 28q-29 32 -29 76t30 73.5t74 29.5q46 0 75.5 -29.5t29.5 -73.5zM735 1460q0 122 -85.5 207.5t-207.5 85.5q-121 0 -206.5 -85.5t-85.5 -207.5q0 -123 85 -209t207 -86t207.5 86t85.5 209z" />
    <glyph glyph-name="ogonek" unicode="&#x2db;" horiz-adv-x="722"
d="M473 76h-203q-120 -140 -120 -240q0 -106 62.5 -155.5t195.5 -49.5q44 0 165 27v213q-104 -49 -153 -49q-66 0 -66 47q0 21 29 74q25 46 90 133z" />
    <glyph glyph-name="tilde" unicode="&#x2dc;" horiz-adv-x="991"
d="M414 1339l53 -51q37 -36 73 -50.5t83 -14.5q103 0 159.5 87.5t59.5 250.5h-191q-3 -69 -10 -111q-6 -35 -25 -35q-8 0 -38 27h2l-56 51q-43 36 -77 52t-76 16q-103 0 -160.5 -88.5t-60.5 -249.5h192q0 62 8 108q8 35 27 35q10 0 37 -27z" />
    <glyph glyph-name="hungarumlaut" unicode="&#x2dd;" horiz-adv-x="1085"
d="M446 1178h207l283 426h-258zM150 1178h208l254 426h-247z" />
    <glyph glyph-name="hookabovecomb" unicode="&#x309;" horiz-adv-x="0"
d="M180 1397v-41q49 24 94 24q31 0 48.5 -8t17.5 -18q0 -21 -25 -37l-20 -17q-29 -22 -33 -30q-6 -10 -6 -33v-6h57q0 16 2 22q1 3 21 19l20 14q43 30 43 62t-30 53q-29 20 -82 20q-51 0 -107 -24z" />
    <glyph glyph-name="uni031B" unicode="&#x31b;" horiz-adv-x="0"
d="M135 985l45 -94q15 7 25 12.5t20.5 13t14.5 10.5t18.5 15.5t22.5 18.5q43 38 63.5 102t20.5 131q0 20 -11 66l-98 12q14 -35 14 -62v-12v-15.5t-0.5 -17t-1 -19t-2 -19t-3.5 -20.5t-5 -18.5t-7 -18.5t-9.5 -16t-12.5 -14q-13 -11 -42 -25.5t-52 -29.5z" />
    <glyph glyph-name="dotbelowcomb" unicode="&#x323;" horiz-adv-x="0"
d="M150 -313h266v266h-266v-266z" />
    <glyph glyph-name="uni0326" unicode="&#x326;" horiz-adv-x="0"
d="M147 -319l-108 -343h192l226 324v246h-310v-227z" />
    <glyph glyph-name="uni032D" unicode="&#x32d;" horiz-adv-x="0"
d="M-63 -528h219q13 18 38.5 54t32.5 46q15 19 40.5 53.5t35.5 48.5l150 -202h219l-279 426h-180z" />
    <glyph glyph-name="uni0331" unicode="&#x331;" horiz-adv-x="0"
d="M4 -348h633v213h-633v-213z" />
    <glyph glyph-name="pi" unicode="&#x3c0;" horiz-adv-x="1533"
d="M1384 1073h-876q-170 0 -246 -67q-78 -71 -112 -279h227q6 68 24 98q16 32 43 35l-254 -860h353q46 277 75 430q42 245 76 430h226q-19 -55 -25 -82q-38 -135 -41 -145q-3 -9 -8 -25.5t-9 -30.5l-8 -28v2q-36 -116 -41 -133q-30 -114 -30 -207q0 -111 92 -201t215 -90
q58 0 137 23l39 270q-66 -6 -94 -12q-40 -4 -43 -4q-31 0 -44 14.5t-13 46.5q0 20 6 64q3 16 10.5 53.5t9.5 50.5q7 37 22.5 109.5t22.5 109.5q26 115 45 215h170z" />
    <glyph glyph-name="Bdotbelow" unicode="&#x1e04;" horiz-adv-x="1400"
d="M418 678h270q141 0 205 -55q59 -50 59 -82q0 -109 -55 -146q-67 -39 -209 -39h-270v322zM418 1288h246q121 0 180 -55t59 -150q0 -176 -239 -176h-246v381zM150 0h546q256 0 404.5 113.5t148.5 320.5q0 276 -268 375q143 79 143 297q0 184 -127 287q-127 100 -366 100
h-481v-1493zM508 -19165h266v266h-266v-266z" />
    <glyph glyph-name="bdotbelow" unicode="&#x1e05;" horiz-adv-x="1310"
d="M897 410q-70 -51 -166 -56q-112 0 -172.5 59.5t-79.5 182.5q3 170 72 264q72 88 184 88q117 0 172 -88q64 -92 70 -260q-24 -143 -80 -190zM193 211l204 -127q108 -111 297 -111q208 0 336.5 162.5t128.5 423.5t-128.5 423.5t-336.5 162.5q-186 0 -293 -107l17 490h-248z
M526 -12882h267v266h-267v-266z" />
    <glyph glyph-name="Ddotbelow" unicode="&#x1e0c;" horiz-adv-x="1566"
d="M426 1260h195q272 0 399 -121q129 -120 129 -369q-44 -188 -145 -266q-107 -72 -383 -72h-195v828zM150 0h432q424 0 628 180q207 186 207 568q0 375 -205 565q-211 180 -630 180h-432v-1493zM506 -301h266v266h-266v-266z" />
    <glyph glyph-name="ddotbelow" unicode="&#x1e0d;" horiz-adv-x="1327"
d="M932 1528l-17 -496q-113 113 -301 113q-208 0 -336 -162.5t-128 -423.5t128 -423.5t336 -162.5q192 0 297 111v-84h248l19 1528h-246zM416 854v-2q68 92 184 92q111 0 170 -94q58 -90 64 -260q-2 -75 -15.5 -120.5t-45 -70t-71 -32t-106.5 -7.5q-120 0 -176 50
q-59 52 -76 174q3 169 72 270zM479 -430h266v266h-266v-266z" />
    <glyph glyph-name="Dlinebelow" unicode="&#x1e0e;" horiz-adv-x="1566"
d="M426 1260h195q272 0 399 -121q129 -120 129 -369q-44 -188 -145 -266q-107 -72 -383 -72h-195v828zM150 0h432q424 0 628 180q207 186 207 568q0 375 -205 565q-211 180 -630 180h-432v-1493zM338 -309h633v213h-633v-213z" />
    <glyph glyph-name="dlinebelow" unicode="&#x1e0f;" horiz-adv-x="1327"
d="M932 1528l-17 -496q-113 113 -301 113q-208 0 -336 -162.5t-128 -423.5t128 -423.5t336 -162.5q192 0 297 111v-84h248l19 1528h-246zM416 854v-2q68 92 184 92q111 0 170 -94q58 -90 64 -260q-2 -75 -15.5 -120.5t-45 -70t-71 -32t-106.5 -7.5q-120 0 -176 50
q-59 52 -76 174q3 169 72 270zM311 -438h633v213h-633v-213z" />
    <glyph glyph-name="Dcircumflexbelow" unicode="&#x1e12;" horiz-adv-x="1566"
d="M426 1260h195q272 0 399 -121q129 -120 129 -369q-44 -188 -145 -266q-107 -72 -383 -72h-195v828zM150 0h432q424 0 628 180q207 186 207 568q0 375 -205 565q-211 180 -630 180h-432v-1493zM287 -571h219q15 21 72 100q15 19 39.5 53t35.5 49l150 -202h219l-279 426
h-180z" />
    <glyph glyph-name="dcircumflexbelow" unicode="&#x1e13;" horiz-adv-x="1327"
d="M932 1528l-17 -496q-113 113 -301 113q-208 0 -336 -162.5t-128 -423.5t128 -423.5t336 -162.5q192 0 297 111v-84h248l19 1528h-246zM416 854v-2q68 92 184 92q111 0 170 -94q58 -90 64 -260q-2 -75 -15.5 -120.5t-45 -70t-71 -32t-106.5 -7.5q-120 0 -176 50
q-59 52 -76 174q3 169 72 270zM260 -700h219q15 21 72 100q15 19 40.5 53.5t35.5 48.5l149 -202h219l-278 426h-180z" />
    <glyph glyph-name="Hdotbelow" unicode="&#x1e24;" horiz-adv-x="1476"
d="M150 0h296v475h582v-475h297l-18 1493h-279v-676h-582v676h-276zM594 -326h266v267h-266v-267z" />
    <glyph glyph-name="hdotbelow" unicode="&#x1e25;" horiz-adv-x="1290"
d="M1120 670v-2q0 236 -101.5 356.5t-299.5 120.5q-185 0 -299 -117l16 500h-248l-38 -1528h286q-2 105 -10 313q-1 58 -4 165t-4 151q0 140 71 225.5t191 85.5q96 0 145 -72t49 -204l-20 -664h287zM399 -313h267v266h-267v-266z" />
    <glyph glyph-name="Idieresisacute" unicode="&#x1e2e;" horiz-adv-x="606"
d="M150 0h307l-19 1493h-258zM373 1806h278v277h-278v-277zM-18 1806h278v277h-278v-277zM150 1866h249l404 465h-305z" />
    <glyph glyph-name="idieresisacute" unicode="&#x1e2f;" horiz-adv-x="546"
d="M150 0h247v1120h-247v-1120zM326 1434h278v276h-278v-276zM-66 1434h279v276h-279v-276zM102 1493h250l404 465h-305z" />
    <glyph glyph-name="Ldotbelow" unicode="&#x1e36;" horiz-adv-x="1269"
d="M150 0h948l22 371h-692l8 1122h-266zM475 -369h266v267h-266v-267z" />
    <glyph glyph-name="ldotbelow" unicode="&#x1e37;" horiz-adv-x="673"
d="M150 0h372v287h-114v1241h-238zM106 -303h267v266h-267v-266z" />
    <glyph glyph-name="Lcircumflexbelow" unicode="&#x1e3c;" horiz-adv-x="1269"
d="M150 0h948l22 371h-692l8 1122h-266zM256 -639h219q15 21 72 100q15 19 40 54t36 49l149 -203h219l-278 426h-181z" />
    <glyph glyph-name="lcircumflexbelow" unicode="&#x1e3d;" horiz-adv-x="673"
d="M150 0h372v287h-114v1241h-238zM-113 -573h219q15 21 72 100q15 19 40.5 53.5t35.5 48.5l149 -202h220l-279 426h-180z" />
    <glyph glyph-name="Macute" unicode="&#x1e3e;" horiz-adv-x="1771"
d="M150 0h352q-15 411 -17 512q-12 344 -16 516l274 -803h285l275 801l-33 -1026h352l-59 1493h-330l-346 -723l-330 723h-346zM772 1731h250l403 464h-305z" />
    <glyph glyph-name="macute" unicode="&#x1e3f;" horiz-adv-x="1939"
d="M938 1081q-98 64 -223 64q-170 0 -283 -101l6 76h-250l-38 -1120h305q-1 47 -11 313q-2 50 -5 157t-5 159q0 137 76 235q70 94 184 94q92 0 135 -61.5t45 -191.5l-69 -705h315l10 627q0 145 65 233t177 88q86 0 119 -57.5t33 -198.5l-51 -692h317q-2 99 -10 336
q-2 47 -5.5 161.5t-5.5 172.5v-2q0 232 -98 354q-97 123 -278 123q-66 0 -118.5 -13t-93 -39t-70.5 -57t-60 -75q-39 71 -113 120zM150 1139h249l404 465h-305z" />
    <glyph glyph-name="Ndotaccent" unicode="&#x1e44;" horiz-adv-x="1468"
d="M150 0h321q-2 48 -11 234t-14 290q-12 267 -24 531l559 -1055h338v1493h-252l-27 -1042l-553 1013h-299zM618 1630h267v266h-267v-266z" />
    <glyph glyph-name="ndotaccent" unicode="&#x1e45;" horiz-adv-x="1318"
d="M1167 0l-28 670q-12 232 -116 353.5t-298 121.5q-117 0 -211 -51q-16 -9 -88 -54v88h-246l-30 -1128h315l-31 639q0 141 67.5 217t205.5 76q93 0 134.5 -63t41.5 -195l-39 -674h323zM498 1257h266v267h-266v-267z" />
    <glyph glyph-name="Ndotbelow" unicode="&#x1e46;" horiz-adv-x="1468"
d="M150 0h321q-2 48 -11 234t-14 290q-12 267 -24 531l559 -1055h338v1493h-252l-27 -1042l-553 1013h-299zM612 -303h267v266h-267v-266z" />
    <glyph glyph-name="ndotbelow" unicode="&#x1e47;" horiz-adv-x="1318"
d="M1167 0l-28 670q-12 232 -116 353.5t-298 121.5q-117 0 -211 -51q-16 -9 -88 -54v88h-246l-30 -1128h315l-31 639q0 141 67.5 217t205.5 76q93 0 134.5 -63t41.5 -195l-39 -674h323zM492 -303h266v266h-266v-266z" />
    <glyph glyph-name="Ncircumflexbelow" unicode="&#x1e4a;" horiz-adv-x="1468"
d="M150 0h321q-2 48 -11 234t-14 290q-12 267 -24 531l559 -1055h338v1493h-252l-27 -1042l-553 1013h-299zM393 -573h219q15 21 72 100q15 19 40.5 53.5t35.5 48.5l149 -202h219l-278 426h-180z" />
    <glyph glyph-name="ncircumflexbelow" unicode="&#x1e4b;" horiz-adv-x="1318"
d="M1167 0l-28 670q-12 232 -116 353.5t-298 121.5q-117 0 -211 -51q-16 -9 -88 -54v88h-246l-30 -1128h315l-31 639q0 141 67.5 217t205.5 76q93 0 134.5 -63t41.5 -195l-39 -674h323zM272 -573h220q13 18 38.5 54t32.5 46q15 19 40.5 53.5t35.5 48.5l149 -202h220
l-279 426h-180z" />
    <glyph glyph-name="Otildeacute" unicode="&#x1e4c;" horiz-adv-x="1687"
d="M846 1286q191 0 302.5 -143.5t111.5 -397.5q0 -97 -26.5 -162.5t-82 -102t-128.5 -51.5t-177 -15q-201 0 -314 67q-104 69 -104 264q0 253 115 402q117 139 303 139zM846 1520q-316 0 -508 -213q-188 -212 -188 -562q0 -349 188 -561q192 -213 508 -213q312 0 504 213
q188 212 188 561q0 350 -188 562q-192 213 -504 213zM762 1612l53 -51q38 -36 73.5 -51t82.5 -15q103 0 159.5 87.5t59.5 250.5h-191q-3 -69 -10 -111q-5 -34 -24 -34q-10 0 -39 26h2l-56 51q-43 36 -77 52t-76 16q-103 0 -160.5 -88.5t-60.5 -249.5h192q0 63 8 109
q8 34 27 34q11 0 37 -26zM676 1866h250l403 465h-305z" />
    <glyph glyph-name="otildeacute" unicode="&#x1e4d;"
d="M668 944q118 0 189 -94.5t71 -259.5q0 -158 -64 -203q-75 -43 -196 -43q-57 0 -94 4.5t-72 19.5t-54 42t-30.5 71.5t-11.5 108.5q0 166 70.5 260t191.5 94zM668 1145q-244 0 -381 -158q-137 -155 -137 -428t137 -428q137 -158 381 -158q239 0 377.5 158t138.5 428
t-138.5 428t-377.5 158zM584 1675l53 -51q37 -36 73 -50.5t83 -14.5q103 0 159.5 87t59.5 250h-191q-3 -68 -10 -110q-6 -35 -25 -35q-8 0 -38 27h2l-56 51q-42 36 -76.5 51.5t-76.5 15.5q-103 0 -161 -88t-61 -249h193q0 62 8 108q8 35 27 35q10 0 37 -27zM498 1493h250
l403 465h-305z" />
    <glyph glyph-name="Omacrongrave" unicode="&#x1e50;" horiz-adv-x="1687"
d="M846 1286q191 0 302.5 -143.5t111.5 -397.5q0 -97 -26.5 -162.5t-82 -102t-128.5 -51.5t-177 -15q-201 0 -314 67q-104 69 -104 264q0 253 115 402q117 139 303 139zM846 1520q-316 0 -508 -213q-188 -212 -188 -562q0 -349 188 -561q192 -213 508 -213q312 0 504 213
q188 212 188 561q0 350 -188 562q-192 213 -504 213zM526 1559h633v213h-633v-213zM481 2361l236 -424h350l-319 424h-267z" />
    <glyph glyph-name="omacrongrave" unicode="&#x1e51;"
d="M668 944q118 0 189 -94.5t71 -259.5q0 -158 -64 -203q-75 -43 -196 -43q-57 0 -94 4.5t-72 19.5t-54 42t-30.5 71.5t-11.5 108.5q0 166 70.5 260t191.5 94zM668 1145q-244 0 -381 -158q-137 -155 -137 -428t137 -428q137 -158 381 -158q239 0 377.5 158t138.5 428
t-138.5 428t-377.5 158zM348 1186h633v213h-633v-213zM303 1989l236 -424h350l-320 424h-266z" />
    <glyph glyph-name="Omacronacute" unicode="&#x1e52;" horiz-adv-x="1687"
d="M846 1286q191 0 302.5 -143.5t111.5 -397.5q0 -97 -26.5 -162.5t-82 -102t-128.5 -51.5t-177 -15q-201 0 -314 67q-104 69 -104 264q0 253 115 402q117 139 303 139zM846 1520q-316 0 -508 -213q-188 -212 -188 -562q0 -349 188 -561q192 -213 508 -213q312 0 504 213
q188 212 188 561q0 350 -188 562q-192 213 -504 213zM526 1559h633v213h-633v-213zM676 1866h250l403 465h-305z" />
    <glyph glyph-name="omacronacute" unicode="&#x1e53;"
d="M668 944q118 0 189 -94.5t71 -259.5q0 -158 -64 -203q-75 -43 -196 -43q-57 0 -94 4.5t-72 19.5t-54 42t-30.5 71.5t-11.5 108.5q0 166 70.5 260t191.5 94zM668 1145q-244 0 -381 -158q-137 -155 -137 -428t137 -428q137 -158 381 -158q239 0 377.5 158t138.5 428
t-138.5 428t-377.5 158zM348 1186h633v213h-633v-213zM498 1493h250l403 465h-305z" />
    <glyph glyph-name="Sdotbelow" unicode="&#x1e62;" horiz-adv-x="1372"
d="M1139 1161v275q-254 84 -455 84q-245 0 -389.5 -119.5t-144.5 -325.5q0 -177 105 -279t331 -145l116 -22q134 -29 193 -78q51 -51 51 -88q0 -45 -72 -96q-85 -60 -233 -60q-198 0 -485 162v-395q276 -103 485 -103q287 0 434.5 116t147.5 341q0 190 -110.5 302.5
t-340.5 156.5h2l-117 22q-147 27 -196 70q-43 34 -43 113q0 93 75.5 143.5t213.5 50.5q164 0 432 -125zM522 -303h266v266h-266v-266z" />
    <glyph glyph-name="sdotbelow" unicode="&#x1e63;" horiz-adv-x="1173"
d="M969 848v229q-169 68 -371 68q-214 0 -327 -88.5t-113 -255.5q0 -136 79 -207.5t252 -106.5h-2l62 -14q141 -29 162 -47q12 -14 43 -66q0 -47 -49 -69q-48 -25 -148 -25q-170 0 -407 123v-340q232 -76 405 -76q215 0 342 95t127 258q0 142 -90 223q-88 75 -279 115
q-14 0 -26 6q-5 1 -15.5 3t-15.5 3q-126 27 -172 61q-37 30 -37 80q0 60 58.5 93.5t168.5 33.5q156 0 353 -96zM424 -303h266v266h-266v-266z" />
    <glyph glyph-name="Tdotbelow" unicode="&#x1e6c;" horiz-adv-x="1574"
d="M150 1255l501 19l-37 -1274h347l-37 1274l501 -21v240h-1275v-238zM647 -303h266v266h-266v-266z" />
    <glyph glyph-name="tdotbelow" unicode="&#x1e6d;" horiz-adv-x="1026"
d="M287 1378l-11 -258h-126v-209h126l-10 -528q0 -212 91 -297.5t307 -85.5h213v330h-213q-92 0 -115 26q-27 24 -27 138l10 417h242v209h-239l8 258h-256zM362 -303h267v266h-267v-266z" />
    <glyph glyph-name="Tlinebelow" unicode="&#x1e6e;" horiz-adv-x="1574"
d="M150 1255l501 19l-37 -1274h347l-37 1274l501 -21v240h-1275v-238zM479 -311h633v213h-633v-213z" />
    <glyph glyph-name="tlinebelow" unicode="&#x1e6f;" horiz-adv-x="1026"
d="M287 1378l-11 -258h-126v-209h126l-10 -528q0 -212 91 -297.5t307 -85.5h213v330h-213q-92 0 -115 26q-27 24 -27 138l10 417h242v209h-239l8 258h-256zM195 -311h632v213h-632v-213z" />
    <glyph glyph-name="Tcircumflexbelow" unicode="&#x1e70;" horiz-adv-x="1574"
d="M150 1255l501 19l-37 -1274h347l-37 1274l501 -21v240h-1275v-238zM428 -573h219q15 21 72 100q15 19 40.5 53.5t35.5 48.5l149 -202h219l-278 426h-180z" />
    <glyph glyph-name="tcircumflexbelow" unicode="&#x1e71;" horiz-adv-x="1026"
d="M287 1378l-11 -258h-126v-209h126l-10 -528q0 -212 91 -297.5t307 -85.5h213v330h-213q-92 0 -115 26q-27 24 -27 138l10 417h242v209h-239l8 258h-256zM143 -573h219q15 21 72 100q15 19 40.5 53.5t35.5 48.5l149 -202h220l-279 426h-180z" />
    <glyph glyph-name="Wgrave" unicode="&#x1e80;" horiz-adv-x="2191"
d="M483 0h357q19 46 127 332q23 63 65.5 178.5t61.5 167.5l235 -678h336l377 1493h-262q-34 -111 -154 -481q-14 -44 -151 -498l-277 608h-217q-28 -56 -84 -164.5t-66 -128.5q-127 -250 -151 -297l-270 961h-260zM725 2361l236 -424h350l-320 424h-266z" />
    <glyph glyph-name="wgrave" unicode="&#x1e81;" horiz-adv-x="1800"
d="M442 0h285l172 412l164 -412h295l293 1120h-248q-17 -54 -98 -332q-33 -113 -99 -335l-162 321h-286l-162 -321l-197 667h-249zM539 1989l235 -424h350l-319 424h-266z" />
    <glyph glyph-name="Wacute" unicode="&#x1e82;" horiz-adv-x="2191"
d="M483 0h357q19 46 127 332q23 63 65.5 178.5t61.5 167.5l235 -678h336l377 1493h-262q-34 -111 -154 -481q-14 -44 -151 -498l-277 608h-217q-28 -56 -84 -164.5t-66 -128.5q-127 -250 -151 -297l-270 961h-260zM920 1866h249l404 465h-305z" />
    <glyph glyph-name="wacute" unicode="&#x1e83;" horiz-adv-x="1800"
d="M442 0h285l172 412l164 -412h295l293 1120h-248q-17 -54 -98 -332q-33 -113 -99 -335l-162 321h-286l-162 -321l-197 667h-249zM733 1493h250l403 465h-305z" />
    <glyph glyph-name="Wdieresis" unicode="&#x1e84;" horiz-adv-x="2191"
d="M483 0h357q19 46 127 332q23 63 65.5 178.5t61.5 167.5l235 -678h336l377 1493h-262q-34 -111 -154 -481q-14 -44 -151 -498l-277 608h-217q-28 -56 -84 -164.5t-66 -128.5q-127 -250 -151 -297l-270 961h-260zM1143 1806h278v277h-278v-277zM752 1806h278v277h-278v-277
z" />
    <glyph glyph-name="wdieresis" unicode="&#x1e85;" horiz-adv-x="1800"
d="M442 0h285l172 412l164 -412h295l293 1120h-248q-17 -54 -98 -332q-33 -113 -99 -335l-162 321h-286l-162 -321l-197 667h-249zM956 1434h279v276h-279v-276zM565 1434h279v276h-279v-276z" />
    <glyph glyph-name="Zdotbelow" unicode="&#x1e92;" horiz-adv-x="1533"
d="M172 1255h825l-847 -931v-324h1232v360h-870l850 934v199h-1190v-238zM639 59h266v267h-266v-267z" />
    <glyph glyph-name="zdotbelow" unicode="&#x1e93;" horiz-adv-x="1222"
d="M193 918h571l-614 -617v-301h913v305h-535l545 606v209h-880v-202zM492 -313h266v266h-266v-266z" />
    <glyph glyph-name="Adotbelow" unicode="&#x1ea0;" horiz-adv-x="1710"
d="M1065 532h-418q53 161 53 162q27 80 54 156q42 127 49 151q7 22 24.5 74.5t26.5 81.5zM150 0h342l71 231h582l53 -231h363l-590 1493h-232zM711 -313h266v266h-266v-266z" />
    <glyph glyph-name="adotbelow" unicode="&#x1ea1;" horiz-adv-x="1257"
d="M766 535v-3q0 -75 -9.5 -119t-36 -67t-61 -30t-96.5 -7q-79 0 -145 17q-37 12 -49 63q3 77 49 109q52 37 229 37h119zM1108 0v635q0 510 -487 510q-173 0 -394 -84v-227q206 110 373 110q119 -9 186.5 -64t73.5 -145h-203q-507 0 -507 -393q0 -168 106 -268
q107 -101 283 -101q199 0 321 113v-86h248zM532 -313h267v266h-267v-266z" />
    <glyph glyph-name="Ahookabove" unicode="&#x1ea2;" horiz-adv-x="1710"
d="M1065 532h-418q53 161 53 162q27 80 54 156q42 127 49 151q7 22 24.5 74.5t26.5 81.5zM150 0h342l71 231h582l53 -231h363l-590 1493h-232zM760 1729v-41q50 24 94 24q31 0 48.5 -8t17.5 -18q0 -21 -25 -37l-21 -17q-27 -20 -32 -30q-6 -10 -6 -33v-6h57q0 16 2 22
q2 4 20 19l21 14q43 30 43 61q0 32 -31 54q-29 20 -82 20q-50 0 -106 -24z" />
    <glyph glyph-name="ahookabove" unicode="&#x1ea3;" horiz-adv-x="1257"
d="M766 535v-3q0 -75 -9.5 -119t-36 -67t-61 -30t-96.5 -7q-79 0 -145 17q-37 12 -49 63q3 77 49 109q52 37 229 37h119zM1108 0v635q0 510 -487 510q-173 0 -394 -84v-227q206 110 373 110q119 -9 186.5 -64t73.5 -145h-203q-507 0 -507 -393q0 -168 106 -268
q107 -101 283 -101q199 0 321 113v-86h248zM571 1356v-41q50 24 95 24q31 0 48 -8t17 -18q0 -22 -24 -37l-21 -16q-28 -21 -33 -31q-6 -10 -6 -33v-6h58q0 16 2 22q2 4 20 19l21 14q43 30 43 62q0 31 -31 53q-29 20 -82 20q-51 0 -107 -24z" />
    <glyph glyph-name="Acircumflexacute" unicode="&#x1ea4;" horiz-adv-x="1710"
d="M1065 532h-418q53 161 53 162q27 80 54 156q42 127 49 151q7 22 24.5 74.5t26.5 81.5zM150 0h342l71 231h582l53 -231h363l-590 1493h-232zM487 1550h220q13 17 37 52.5t34 48.5q15 19 40.5 53.5t35.5 48.5l150 -203h219l-279 426h-180zM686 1866h250l403 465h-305z" />
    <glyph glyph-name="acircumflexacute" unicode="&#x1ea5;" horiz-adv-x="1257"
d="M766 535v-3q0 -75 -9.5 -119t-36 -67t-61 -30t-96.5 -7q-79 0 -145 17q-37 12 -49 63q3 77 49 109q52 37 229 37h119zM1108 0v635q0 510 -487 510q-173 0 -394 -84v-227q206 110 373 110q119 -9 186.5 -64t73.5 -145h-203q-507 0 -507 -393q0 -168 106 -268
q107 -101 283 -101q199 0 321 113v-86h248zM299 1178h219q15 21 72 100q15 19 40.5 53.5t35.5 48.5l149 -202h219l-278 426h-181zM498 1493h250l403 465h-305z" />
    <glyph glyph-name="Acircumflexgrave" unicode="&#x1ea6;" horiz-adv-x="1710"
d="M1065 532h-418q53 161 53 162q27 80 54 156q42 127 49 151q7 22 24.5 74.5t26.5 81.5zM150 0h342l71 231h582l53 -231h363l-590 1493h-232zM487 1550h220q13 17 37 52.5t34 48.5q15 19 40.5 53.5t35.5 48.5l150 -203h219l-279 426h-180zM492 2361l235 -424h350l-319 424
h-266z" />
    <glyph glyph-name="acircumflexgrave" unicode="&#x1ea7;" horiz-adv-x="1257"
d="M766 535v-3q0 -75 -9.5 -119t-36 -67t-61 -30t-96.5 -7q-79 0 -145 17q-37 12 -49 63q3 77 49 109q52 37 229 37h119zM1108 0v635q0 510 -487 510q-173 0 -394 -84v-227q206 110 373 110q119 -9 186.5 -64t73.5 -145h-203q-507 0 -507 -393q0 -168 106 -268
q107 -101 283 -101q199 0 321 113v-86h248zM299 1178h219q15 21 72 100q15 19 40.5 53.5t35.5 48.5l149 -202h219l-278 426h-181zM303 1989l236 -424h350l-320 424h-266z" />
    <glyph glyph-name="Acircumflexhookabove" unicode="&#x1ea8;" horiz-adv-x="1710"
d="M1065 532h-418q53 161 53 162q27 80 54 156q42 127 49 151q7 22 24.5 74.5t26.5 81.5zM150 0h342l71 231h582l53 -231h363l-590 1493h-232zM487 1550h220q13 17 37 52.5t34 48.5q15 19 40.5 53.5t35.5 48.5l150 -203h219l-279 426h-180zM760 1729v-41q50 24 94 24
q31 0 48.5 -8t17.5 -18q0 -21 -25 -37l-21 -17q-27 -20 -32 -30q-6 -10 -6 -33v-6h57q0 16 2 22q2 4 20 19l21 14q43 30 43 61q0 32 -31 54q-29 20 -82 20q-50 0 -106 -24z" />
    <glyph glyph-name="acircumflexhookabove" unicode="&#x1ea9;" horiz-adv-x="1257"
d="M766 535v-3q0 -75 -9.5 -119t-36 -67t-61 -30t-96.5 -7q-79 0 -145 17q-37 12 -49 63q3 77 49 109q52 37 229 37h119zM1108 0v635q0 510 -487 510q-173 0 -394 -84v-227q206 110 373 110q119 -9 186.5 -64t73.5 -145h-203q-507 0 -507 -393q0 -168 106 -268
q107 -101 283 -101q199 0 321 113v-86h248zM299 1178h219q15 21 72 100q15 19 40.5 53.5t35.5 48.5l149 -202h219l-278 426h-181zM571 1356v-41q50 24 95 24q31 0 48 -8t17 -18q0 -22 -24 -37l-21 -16q-28 -21 -33 -31q-6 -10 -6 -33v-6h58q0 16 2 22q2 4 20 19l21 14
q43 30 43 62q0 31 -31 53q-29 20 -82 20q-51 0 -107 -24z" />
    <glyph glyph-name="Acircumflextilde" unicode="&#x1eaa;" horiz-adv-x="1710"
d="M1065 532h-418q53 161 53 162q27 80 54 156q42 127 49 151q7 22 24.5 74.5t26.5 81.5zM150 0h342l71 231h582l53 -231h363l-590 1493h-232zM487 1550h220q13 17 37 52.5t34 48.5q15 19 40.5 53.5t35.5 48.5l150 -203h219l-279 426h-180zM772 2048l53 -51q38 -36 73.5 -51
t82.5 -15q103 0 159.5 87.5t59.5 250.5h-190q-2 -60 -11 -110q-6 -35 -24 -35q-10 0 -39 26h2l-55 52q-78 67 -154 67q-103 0 -160.5 -88.5t-60.5 -249.5h192q0 57 9 109q8 35 26 35q10 0 37 -27z" />
    <glyph glyph-name="acircumflextilde" unicode="&#x1eab;" horiz-adv-x="1257"
d="M766 535v-3q0 -75 -9.5 -119t-36 -67t-61 -30t-96.5 -7q-79 0 -145 17q-37 12 -49 63q3 77 49 109q52 37 229 37h119zM1108 0v635q0 510 -487 510q-173 0 -394 -84v-227q206 110 373 110q119 -9 186.5 -64t73.5 -145h-203q-507 0 -507 -393q0 -168 106 -268
q107 -101 283 -101q199 0 321 113v-86h248zM299 1178h219q15 21 72 100q15 19 40.5 53.5t35.5 48.5l149 -202h219l-278 426h-181zM584 1675l53 -51q37 -36 73 -50.5t83 -14.5q103 0 159.5 87t59.5 250h-191q-3 -68 -10 -110q-6 -35 -25 -35q-8 0 -38 27h2l-56 51
q-42 36 -76.5 51.5t-76.5 15.5q-103 0 -161 -88t-61 -249h193q0 62 8 108q8 35 27 35q10 0 37 -27z" />
    <glyph glyph-name="Acircumflexdotbelow" unicode="&#x1eac;" horiz-adv-x="1710"
d="M1065 532h-418q53 161 53 162q27 80 54 156q42 127 49 151q7 22 24.5 74.5t26.5 81.5zM150 0h342l71 231h582l53 -231h363l-590 1493h-232zM711 -313h266v266h-266v-266zM487 1550h220q13 17 37 52.5t34 48.5q15 19 40.5 53.5t35.5 48.5l150 -203h219l-279 426h-180z" />
    <glyph glyph-name="acircumflexdotbelow" unicode="&#x1ead;" horiz-adv-x="1257"
d="M766 535v-3q0 -75 -9.5 -119t-36 -67t-61 -30t-96.5 -7q-79 0 -145 17q-37 12 -49 63q3 77 49 109q52 37 229 37h119zM1108 0v635q0 510 -487 510q-173 0 -394 -84v-227q206 110 373 110q119 -9 186.5 -64t73.5 -145h-203q-507 0 -507 -393q0 -168 106 -268
q107 -101 283 -101q199 0 321 113v-86h248zM532 -313h267v266h-267v-266zM299 1178h219q15 21 72 100q15 19 40.5 53.5t35.5 48.5l149 -202h219l-278 426h-181z" />
    <glyph glyph-name="Abreveacute" unicode="&#x1eae;" horiz-adv-x="1710"
d="M1065 532h-418q53 161 53 162q27 80 54 156q42 127 49 151q7 22 24.5 74.5t26.5 81.5zM150 0h342l71 231h582l53 -231h363l-590 1493h-232zM707 1898h-185q24 -342 332 -342q311 0 332 342h-180q-12 -71 -49 -105t-103 -34q-129 0 -147 139zM686 1866h250l403 465h-305z
" />
    <glyph glyph-name="abreveacute" unicode="&#x1eaf;" horiz-adv-x="1257"
d="M766 535v-3q0 -75 -9.5 -119t-36 -67t-61 -30t-96.5 -7q-79 0 -145 17q-37 12 -49 63q3 77 49 109q52 37 229 37h119zM1108 0v635q0 510 -487 510q-173 0 -394 -84v-227q206 110 373 110q119 -9 186.5 -64t73.5 -145h-203q-507 0 -507 -393q0 -168 106 -268
q107 -101 283 -101q199 0 321 113v-86h248zM518 1526h-184q24 -342 332 -342q310 0 331 342h-180q-12 -71 -48.5 -105.5t-102.5 -34.5q-63 0 -101 35.5t-47 104.5zM498 1493h250l403 465h-305z" />
    <glyph glyph-name="Abrevegrave" unicode="&#x1eb0;" horiz-adv-x="1710"
d="M1065 532h-418q53 161 53 162q27 80 54 156q42 127 49 151q7 22 24.5 74.5t26.5 81.5zM150 0h342l71 231h582l53 -231h363l-590 1493h-232zM707 1898h-185q24 -342 332 -342q311 0 332 342h-180q-12 -71 -49 -105t-103 -34q-129 0 -147 139zM492 2361l235 -424h350
l-319 424h-266z" />
    <glyph glyph-name="abrevegrave" unicode="&#x1eb1;" horiz-adv-x="1257"
d="M766 535v-3q0 -75 -9.5 -119t-36 -67t-61 -30t-96.5 -7q-79 0 -145 17q-37 12 -49 63q3 77 49 109q52 37 229 37h119zM1108 0v635q0 510 -487 510q-173 0 -394 -84v-227q206 110 373 110q119 -9 186.5 -64t73.5 -145h-203q-507 0 -507 -393q0 -168 106 -268
q107 -101 283 -101q199 0 321 113v-86h248zM518 1526h-184q24 -342 332 -342q310 0 331 342h-180q-12 -71 -48.5 -105.5t-102.5 -34.5q-63 0 -101 35.5t-47 104.5zM303 1989l236 -424h350l-320 424h-266z" />
    <glyph glyph-name="Abrevehookabove" unicode="&#x1eb2;" horiz-adv-x="1710"
d="M1065 532h-418q53 161 53 162q27 80 54 156q42 127 49 151q7 22 24.5 74.5t26.5 81.5zM150 0h342l71 231h582l53 -231h363l-590 1493h-232zM707 1898h-185q24 -342 332 -342q311 0 332 342h-180q-12 -71 -49 -105t-103 -34q-129 0 -147 139zM760 1729v-41q50 24 94 24
q31 0 48.5 -8t17.5 -18q0 -21 -25 -37l-21 -17q-27 -20 -32 -30q-6 -10 -6 -33v-6h57q0 16 2 22q2 4 20 19l21 14q43 30 43 61q0 32 -31 54q-29 20 -82 20q-50 0 -106 -24z" />
    <glyph glyph-name="abrevehookabove" unicode="&#x1eb3;" horiz-adv-x="1257"
d="M766 535v-3q0 -75 -9.5 -119t-36 -67t-61 -30t-96.5 -7q-79 0 -145 17q-37 12 -49 63q3 77 49 109q52 37 229 37h119zM1108 0v635q0 510 -487 510q-173 0 -394 -84v-227q206 110 373 110q119 -9 186.5 -64t73.5 -145h-203q-507 0 -507 -393q0 -168 106 -268
q107 -101 283 -101q199 0 321 113v-86h248zM518 1526h-184q24 -342 332 -342q310 0 331 342h-180q-12 -71 -48.5 -105.5t-102.5 -34.5q-63 0 -101 35.5t-47 104.5zM571 1356v-41q50 24 95 24q31 0 48 -8t17 -18q0 -22 -24 -37l-21 -16q-28 -21 -33 -31q-6 -10 -6 -33v-6h58
q0 16 2 22q2 4 20 19l21 14q43 30 43 62q0 31 -31 53q-29 20 -82 20q-51 0 -107 -24z" />
    <glyph glyph-name="Abrevetilde" unicode="&#x1eb4;" horiz-adv-x="1710"
d="M1065 532h-418q53 161 53 162q27 80 54 156q42 127 49 151q7 22 24.5 74.5t26.5 81.5zM150 0h342l71 231h582l53 -231h363l-590 1493h-232zM707 1898h-185q24 -342 332 -342q311 0 332 342h-180q-12 -71 -49 -105t-103 -34q-129 0 -147 139zM772 2048l53 -51
q38 -36 73.5 -51t82.5 -15q103 0 159.5 87.5t59.5 250.5h-190q-2 -60 -11 -110q-6 -35 -24 -35q-10 0 -39 26h2l-55 52q-78 67 -154 67q-103 0 -160.5 -88.5t-60.5 -249.5h192q0 57 9 109q8 35 26 35q10 0 37 -27z" />
    <glyph glyph-name="abrevetilde" unicode="&#x1eb5;" horiz-adv-x="1257"
d="M766 535v-3q0 -75 -9.5 -119t-36 -67t-61 -30t-96.5 -7q-79 0 -145 17q-37 12 -49 63q3 77 49 109q52 37 229 37h119zM1108 0v635q0 510 -487 510q-173 0 -394 -84v-227q206 110 373 110q119 -9 186.5 -64t73.5 -145h-203q-507 0 -507 -393q0 -168 106 -268
q107 -101 283 -101q199 0 321 113v-86h248zM518 1526h-184q24 -342 332 -342q310 0 331 342h-180q-12 -71 -48.5 -105.5t-102.5 -34.5q-63 0 -101 35.5t-47 104.5zM584 1675l53 -51q37 -36 73 -50.5t83 -14.5q103 0 159.5 87t59.5 250h-191q-3 -68 -10 -110q-6 -35 -25 -35
q-8 0 -38 27h2l-56 51q-42 36 -76.5 51.5t-76.5 15.5q-103 0 -161 -88t-61 -249h193q0 62 8 108q8 35 27 35q10 0 37 -27z" />
    <glyph glyph-name="Abrevedotbelow" unicode="&#x1eb6;" horiz-adv-x="1710"
d="M1065 532h-418q53 161 53 162q27 80 54 156q42 127 49 151q7 22 24.5 74.5t26.5 81.5zM150 0h342l71 231h582l53 -231h363l-590 1493h-232zM711 -313h266v266h-266v-266zM707 1898h-185q24 -342 332 -342q311 0 332 342h-180q-12 -71 -49 -105t-103 -34q-129 0 -147 139z
" />
    <glyph glyph-name="abrevedotbelow" unicode="&#x1eb7;" horiz-adv-x="1257"
d="M766 535v-3q0 -75 -9.5 -119t-36 -67t-61 -30t-96.5 -7q-79 0 -145 17q-37 12 -49 63q3 77 49 109q52 37 229 37h119zM1108 0v635q0 510 -487 510q-173 0 -394 -84v-227q206 110 373 110q119 -9 186.5 -64t73.5 -145h-203q-507 0 -507 -393q0 -168 106 -268
q107 -101 283 -101q199 0 321 113v-86h248zM532 -313h267v266h-267v-266zM518 1526h-184q24 -342 332 -342q310 0 331 342h-180q-12 -71 -48.5 -105.5t-102.5 -34.5q-63 0 -101 35.5t-47 104.5z" />
    <glyph glyph-name="Edotbelow" unicode="&#x1eb8;" horiz-adv-x="1288"
d="M150 0h989v371h-721v305h674v235h-674v344h704v238h-972v-1493zM487 -303h267v266h-267v-266z" />
    <glyph glyph-name="edotbelow" unicode="&#x1eb9;"
d="M1184 565v107q-18 234 -140 350h3q-120 114 -347 123q-251 0 -396 -160.5t-154 -433.5q0 -264 157 -418q160 -151 420 -160q208 0 426 93l-4 323q-142 -74 -223 -80q-84 -8 -189 -8q-164 13 -250 66q-69 50 -81 198h778zM950 791h-524q12 54 72 114v-2q75 78 202 78
q111 0 177 -78q54 -64 73 -112zM606 -330h266v267h-266v-267z" />
    <glyph glyph-name="Ehookabove" unicode="&#x1eba;" horiz-adv-x="1288"
d="M150 0h989v371h-721v305h674v235h-674v344h704v238h-972v-1493zM532 1729v-41q50 24 95 24q31 0 48 -8t17 -18q0 -22 -24 -37l-21 -17q-29 -22 -33 -30q-6 -10 -6 -33v-6h58q0 16 2 22q2 4 20 19l21 14q43 30 43 61q0 32 -31 54q-29 20 -82 20q-51 0 -107 -24z" />
    <glyph glyph-name="ehookabove" unicode="&#x1ebb;"
d="M1184 565v107q-18 234 -140 350h3q-120 114 -347 123q-251 0 -396 -160.5t-154 -433.5q0 -264 157 -418q160 -151 420 -160q208 0 426 93l-4 323q-142 -74 -223 -80q-84 -8 -189 -8q-164 13 -250 66q-69 50 -81 198h778zM950 791h-524q12 54 72 114v-2q75 78 202 78
q111 0 177 -78q54 -64 73 -112zM594 1356v-41q50 24 94 24q31 0 48.5 -8t17.5 -18q0 -21 -25 -37l-20 -16q-28 -21 -33 -31q-6 -10 -6 -33v-6h57q0 16 2 22q1 3 21 19l20 14q43 30 43 62q0 31 -31 53q-29 20 -82 20q-50 0 -106 -24z" />
    <glyph glyph-name="Etilde" unicode="&#x1ebc;" horiz-adv-x="1288"
d="M150 0h989v371h-721v305h674v235h-674v344h704v238h-972v-1493zM545 2048l53 -51q38 -36 73.5 -51t82.5 -15q103 0 159.5 87.5t59.5 250.5h-191q-3 -68 -10 -110q-6 -35 -24 -35q-10 0 -39 26h2l-56 52q-42 36 -76.5 51.5t-76.5 15.5q-103 0 -160.5 -88.5t-60.5 -249.5
h192q0 63 8 109q8 35 27 35q10 0 37 -27z" />
    <glyph glyph-name="etilde" unicode="&#x1ebd;"
d="M1184 565v107q-18 234 -140 350h3q-120 114 -347 123q-251 0 -396 -160.5t-154 -433.5q0 -264 157 -418q160 -151 420 -160q208 0 426 93l-4 323q-142 -74 -223 -80q-84 -8 -189 -8q-164 13 -250 66q-69 50 -81 198h778zM950 791h-524q12 54 72 114v-2q75 78 202 78
q111 0 177 -78q54 -64 73 -112zM606 1675l53 -51q37 -36 73 -50.5t83 -14.5q103 0 159.5 87t59.5 250h-190q-3 -68 -10 -110q-6 -35 -25 -35q-9 0 -39 27h2l-55 51q-78 67 -154 67q-103 0 -160.5 -88t-60.5 -249h193q0 62 8 108q8 35 26 35q10 0 37 -27z" />
    <glyph glyph-name="Ecircumflexacute" unicode="&#x1ebe;" horiz-adv-x="1288"
d="M150 0h989v371h-721v305h674v235h-674v344h704v238h-972v-1493zM260 1550h219q14 18 41 57t31 44q15 19 40.5 53.5t35.5 48.5l149 -203h219l-278 426h-180zM459 1866h250l403 465h-305z" />
    <glyph glyph-name="ecircumflexacute" unicode="&#x1ebf;"
d="M1184 565v107q-18 234 -140 350h3q-120 114 -347 123q-251 0 -396 -160.5t-154 -433.5q0 -264 157 -418q160 -151 420 -160q208 0 426 93l-4 323q-142 -74 -223 -80q-84 -8 -189 -8q-164 13 -250 66q-69 50 -81 198h778zM950 791h-524q12 54 72 114v-2q75 78 202 78
q111 0 177 -78q54 -64 73 -112zM322 1178h219q13 18 38.5 54t32.5 46q15 19 40.5 53.5t35.5 48.5l150 -202h219l-279 426h-180zM520 1493h250l404 465h-306z" />
    <glyph glyph-name="Ecircumflexgrave" unicode="&#x1ec0;" horiz-adv-x="1288"
d="M150 0h989v371h-721v305h674v235h-674v344h704v238h-972v-1493zM260 1550h219q14 18 41 57t31 44q15 19 40.5 53.5t35.5 48.5l149 -203h219l-278 426h-180zM264 2361l236 -424h350l-320 424h-266z" />
    <glyph glyph-name="ecircumflexgrave" unicode="&#x1ec1;"
d="M1184 565v107q-18 234 -140 350h3q-120 114 -347 123q-251 0 -396 -160.5t-154 -433.5q0 -264 157 -418q160 -151 420 -160q208 0 426 93l-4 323q-142 -74 -223 -80q-84 -8 -189 -8q-164 13 -250 66q-69 50 -81 198h778zM950 791h-524q12 54 72 114v-2q75 78 202 78
q111 0 177 -78q54 -64 73 -112zM322 1178h219q13 18 38.5 54t32.5 46q15 19 40.5 53.5t35.5 48.5l150 -202h219l-279 426h-180zM326 1989l235 -424h350l-319 424h-266z" />
    <glyph glyph-name="Ecircumflexhookabove" unicode="&#x1ec2;" horiz-adv-x="1288"
d="M150 0h989v371h-721v305h674v235h-674v344h704v238h-972v-1493zM260 1550h219q14 18 41 57t31 44q15 19 40.5 53.5t35.5 48.5l149 -203h219l-278 426h-180zM532 1729v-41q50 24 95 24q31 0 48 -8t17 -18q0 -22 -24 -37l-21 -17q-29 -22 -33 -30q-6 -10 -6 -33v-6h58
q0 16 2 22q2 4 20 19l21 14q43 30 43 61q0 32 -31 54q-29 20 -82 20q-51 0 -107 -24z" />
    <glyph glyph-name="ecircumflexhookabove" unicode="&#x1ec3;"
d="M1184 565v107q-18 234 -140 350h3q-120 114 -347 123q-251 0 -396 -160.5t-154 -433.5q0 -264 157 -418q160 -151 420 -160q208 0 426 93l-4 323q-142 -74 -223 -80q-84 -8 -189 -8q-164 13 -250 66q-69 50 -81 198h778zM950 791h-524q12 54 72 114v-2q75 78 202 78
q111 0 177 -78q54 -64 73 -112zM322 1178h219q13 18 38.5 54t32.5 46q15 19 40.5 53.5t35.5 48.5l150 -202h219l-279 426h-180zM594 1356v-41q50 24 94 24q31 0 48.5 -8t17.5 -18q0 -21 -25 -37l-20 -16q-28 -21 -33 -31q-6 -10 -6 -33v-6h57q0 16 2 22q1 3 21 19l20 14
q43 30 43 62q0 31 -31 53q-29 20 -82 20q-50 0 -106 -24z" />
    <glyph glyph-name="Ecircumflextilde" unicode="&#x1ec4;" horiz-adv-x="1288"
d="M150 0h989v371h-721v305h674v235h-674v344h704v238h-972v-1493zM260 1550h219q14 18 41 57t31 44q15 19 40.5 53.5t35.5 48.5l149 -203h219l-278 426h-180zM545 2048l53 -51q38 -36 73.5 -51t82.5 -15q103 0 159.5 87.5t59.5 250.5h-191q-3 -68 -10 -110q-6 -35 -24 -35
q-10 0 -39 26h2l-56 52q-42 36 -76.5 51.5t-76.5 15.5q-103 0 -160.5 -88.5t-60.5 -249.5h192q0 63 8 109q8 35 27 35q10 0 37 -27z" />
    <glyph glyph-name="ecircumflextilde" unicode="&#x1ec5;"
d="M1184 565v107q-18 234 -140 350h3q-120 114 -347 123q-251 0 -396 -160.5t-154 -433.5q0 -264 157 -418q160 -151 420 -160q208 0 426 93l-4 323q-142 -74 -223 -80q-84 -8 -189 -8q-164 13 -250 66q-69 50 -81 198h778zM950 791h-524q12 54 72 114v-2q75 78 202 78
q111 0 177 -78q54 -64 73 -112zM322 1178h219q13 18 38.5 54t32.5 46q15 19 40.5 53.5t35.5 48.5l150 -202h219l-279 426h-180zM606 1675l53 -51q37 -36 73 -50.5t83 -14.5q103 0 159.5 87t59.5 250h-190q-3 -68 -10 -110q-6 -35 -25 -35q-9 0 -39 27h2l-55 51
q-78 67 -154 67q-103 0 -160.5 -88t-60.5 -249h193q0 62 8 108q8 35 26 35q10 0 37 -27z" />
    <glyph glyph-name="Ecircumflexdotbelow" unicode="&#x1ec6;" horiz-adv-x="1288"
d="M150 0h989v371h-721v305h674v235h-674v344h704v238h-972v-1493zM487 -303h267v266h-267v-266zM260 1550h219q14 18 41 57t31 44q15 19 40.5 53.5t35.5 48.5l149 -203h219l-278 426h-180z" />
    <glyph glyph-name="ecircumflexdotbelow" unicode="&#x1ec7;"
d="M1184 565v107q-18 234 -140 350h3q-120 114 -347 123q-251 0 -396 -160.5t-154 -433.5q0 -264 157 -418q160 -151 420 -160q208 0 426 93l-4 323q-142 -74 -223 -80q-84 -8 -189 -8q-164 13 -250 66q-69 50 -81 198h778zM950 791h-524q12 54 72 114v-2q75 78 202 78
q111 0 177 -78q54 -64 73 -112zM606 -330h266v267h-266v-267zM322 1178h219q13 18 38.5 54t32.5 46q15 19 40.5 53.5t35.5 48.5l150 -202h219l-279 426h-180z" />
    <glyph glyph-name="Ihookabove" unicode="&#x1ec8;" horiz-adv-x="606"
d="M150 0h307l-19 1493h-258zM223 1729v-41q49 24 94 24q31 0 48.5 -8t17.5 -18q0 -21 -25 -37l-20 -17q-29 -22 -33 -30q-6 -10 -6 -33v-6h57q0 16 2 22q1 3 21 19l20 14q43 30 43 61q0 33 -30 54q-29 20 -82 20q-52 0 -107 -24z" />
    <glyph glyph-name="ihookabove" unicode="&#x1ec9;" horiz-adv-x="546"
d="M150 0h247v1120h-247v-1120zM176 1356v-41q49 24 94 24q31 0 48.5 -8t17.5 -18q0 -21 -25 -37l-20 -16q-28 -21 -33 -31q-6 -10 -6 -33v-6h57q0 16 2 22q1 3 21 19l20 14q43 30 43 62t-30 53q-29 20 -82 20q-51 0 -107 -24z" />
    <glyph glyph-name="Idotbelow" unicode="&#x1eca;" horiz-adv-x="606"
d="M150 0h307l-19 1493h-258zM184 59h267v267h-267v-267z" />
    <glyph glyph-name="idotbelow" unicode="&#x1ecb;" horiz-adv-x="550"
d="M152 0h245l-8 1120h-227zM150 1235h249l-12 293h-225zM150 -12882h266v266h-266v-266z" />
    <glyph glyph-name="Odotbelow" unicode="&#x1ecc;" horiz-adv-x="1687"
d="M846 1286q191 0 302.5 -143.5t111.5 -397.5q0 -97 -26.5 -162.5t-82 -102t-128.5 -51.5t-177 -15q-201 0 -314 67q-104 69 -104 264q0 253 115 402q117 139 303 139zM846 1520q-316 0 -508 -213q-188 -212 -188 -562q0 -349 188 -561q192 -213 508 -213q312 0 504 213
q188 212 188 561q0 350 -188 562q-192 213 -504 213zM711 59h266v267h-266v-267z" />
    <glyph glyph-name="odotbelow" unicode="&#x1ecd;"
d="M668 944q118 0 189 -94.5t71 -259.5q0 -158 -64 -203q-75 -43 -196 -43q-57 0 -94 4.5t-72 19.5t-54 42t-30.5 71.5t-11.5 108.5q0 166 70.5 260t191.5 94zM668 1145q-244 0 -381 -158q-137 -155 -137 -428t137 -428q137 -158 381 -158q239 0 377.5 158t138.5 428
t-138.5 428t-377.5 158zM532 -313h267v266h-267v-266z" />
    <glyph glyph-name="Ohookabove" unicode="&#x1ece;" horiz-adv-x="1687"
d="M846 1286q191 0 302.5 -143.5t111.5 -397.5q0 -97 -26.5 -162.5t-82 -102t-128.5 -51.5t-177 -15q-201 0 -314 67q-104 69 -104 264q0 253 115 402q117 139 303 139zM846 1520q-316 0 -508 -213q-188 -212 -188 -562q0 -349 188 -561q192 -213 508 -213q312 0 504 213
q188 212 188 561q0 350 -188 562q-192 213 -504 213zM750 1729v-41q49 24 94 24q31 0 48 -8t17 -18q0 -22 -24 -37l-21 -17q-29 -22 -33 -30q-6 -10 -6 -33v-6h58q0 16 2 22q2 4 20 19l21 14q43 30 43 61q0 32 -31 54q-29 20 -82 20q-50 0 -106 -24z" />
    <glyph glyph-name="ohookabove" unicode="&#x1ecf;"
d="M668 944q118 0 189 -94.5t71 -259.5q0 -158 -64 -203q-75 -43 -196 -43q-57 0 -94 4.5t-72 19.5t-54 42t-30.5 71.5t-11.5 108.5q0 166 70.5 260t191.5 94zM668 1145q-244 0 -381 -158q-137 -155 -137 -428t137 -428q137 -158 381 -158q239 0 377.5 158t138.5 428
t-138.5 428t-377.5 158zM571 1356v-41q50 24 95 24q31 0 48 -8t17 -18q0 -22 -24 -37l-21 -16q-28 -21 -33 -31q-6 -10 -6 -33v-6h58q0 16 2 22q2 4 20 19l21 14q43 30 43 62q0 31 -31 53q-29 20 -82 20q-51 0 -107 -24z" />
    <glyph glyph-name="Ocircumflexacute" unicode="&#x1ed0;" horiz-adv-x="1687"
d="M846 1286q191 0 302.5 -143.5t111.5 -397.5q0 -97 -26.5 -162.5t-82 -102t-128.5 -51.5t-177 -15q-201 0 -314 67q-104 69 -104 264q0 253 115 402q117 139 303 139zM846 1520q-316 0 -508 -213q-188 -212 -188 -562q0 -349 188 -561q192 -213 508 -213q312 0 504 213
q188 212 188 561q0 350 -188 562q-192 213 -504 213zM477 1550h219q14 18 41 57t31 44q15 19 40.5 53.5t35.5 48.5l149 -203h219l-278 426h-180zM676 1866h250l403 465h-305z" />
    <glyph glyph-name="ocircumflexacute" unicode="&#x1ed1;"
d="M668 944q118 0 189 -94.5t71 -259.5q0 -158 -64 -203q-75 -43 -196 -43q-57 0 -94 4.5t-72 19.5t-54 42t-30.5 71.5t-11.5 108.5q0 166 70.5 260t191.5 94zM668 1145q-244 0 -381 -158q-137 -155 -137 -428t137 -428q137 -158 381 -158q239 0 377.5 158t138.5 428
t-138.5 428t-377.5 158zM299 1178h219q15 21 72 100q15 19 40.5 53.5t35.5 48.5l149 -202h219l-278 426h-181zM498 1493h250l403 465h-305z" />
    <glyph glyph-name="Ocircumflexgrave" unicode="&#x1ed2;" horiz-adv-x="1687"
d="M846 1286q191 0 302.5 -143.5t111.5 -397.5q0 -97 -26.5 -162.5t-82 -102t-128.5 -51.5t-177 -15q-201 0 -314 67q-104 69 -104 264q0 253 115 402q117 139 303 139zM846 1520q-316 0 -508 -213q-188 -212 -188 -562q0 -349 188 -561q192 -213 508 -213q312 0 504 213
q188 212 188 561q0 350 -188 562q-192 213 -504 213zM477 1550h219q14 18 41 57t31 44q15 19 40.5 53.5t35.5 48.5l149 -203h219l-278 426h-180zM481 2361l236 -424h350l-319 424h-267z" />
    <glyph glyph-name="ocircumflexgrave" unicode="&#x1ed3;"
d="M668 944q118 0 189 -94.5t71 -259.5q0 -158 -64 -203q-75 -43 -196 -43q-57 0 -94 4.5t-72 19.5t-54 42t-30.5 71.5t-11.5 108.5q0 166 70.5 260t191.5 94zM668 1145q-244 0 -381 -158q-137 -155 -137 -428t137 -428q137 -158 381 -158q239 0 377.5 158t138.5 428
t-138.5 428t-377.5 158zM299 1178h219q15 21 72 100q15 19 40.5 53.5t35.5 48.5l149 -202h219l-278 426h-181zM303 1989l236 -424h350l-320 424h-266z" />
    <glyph glyph-name="Ocircumflexhookabove" unicode="&#x1ed4;" horiz-adv-x="1687"
d="M846 1286q191 0 302.5 -143.5t111.5 -397.5q0 -97 -26.5 -162.5t-82 -102t-128.5 -51.5t-177 -15q-201 0 -314 67q-104 69 -104 264q0 253 115 402q117 139 303 139zM846 1520q-316 0 -508 -213q-188 -212 -188 -562q0 -349 188 -561q192 -213 508 -213q312 0 504 213
q188 212 188 561q0 350 -188 562q-192 213 -504 213zM477 1550h219q14 18 41 57t31 44q15 19 40.5 53.5t35.5 48.5l149 -203h219l-278 426h-180zM750 1729v-41q49 24 94 24q31 0 48 -8t17 -18q0 -22 -24 -37l-21 -17q-29 -22 -33 -30q-6 -10 -6 -33v-6h58q0 16 2 22
q2 4 20 19l21 14q43 30 43 61q0 32 -31 54q-29 20 -82 20q-50 0 -106 -24z" />
    <glyph glyph-name="ocircumflexhookabove" unicode="&#x1ed5;"
d="M668 944q118 0 189 -94.5t71 -259.5q0 -158 -64 -203q-75 -43 -196 -43q-57 0 -94 4.5t-72 19.5t-54 42t-30.5 71.5t-11.5 108.5q0 166 70.5 260t191.5 94zM668 1145q-244 0 -381 -158q-137 -155 -137 -428t137 -428q137 -158 381 -158q239 0 377.5 158t138.5 428
t-138.5 428t-377.5 158zM299 1178h219q15 21 72 100q15 19 40.5 53.5t35.5 48.5l149 -202h219l-278 426h-181zM571 1356v-41q50 24 95 24q31 0 48 -8t17 -18q0 -22 -24 -37l-21 -16q-28 -21 -33 -31q-6 -10 -6 -33v-6h58q0 16 2 22q2 4 20 19l21 14q43 30 43 62q0 31 -31 53
q-29 20 -82 20q-51 0 -107 -24z" />
    <glyph glyph-name="Ocircumflextilde" unicode="&#x1ed6;" horiz-adv-x="1687"
d="M846 1286q191 0 302.5 -143.5t111.5 -397.5q0 -97 -26.5 -162.5t-82 -102t-128.5 -51.5t-177 -15q-201 0 -314 67q-104 69 -104 264q0 253 115 402q117 139 303 139zM846 1520q-316 0 -508 -213q-188 -212 -188 -562q0 -349 188 -561q192 -213 508 -213q312 0 504 213
q188 212 188 561q0 350 -188 562q-192 213 -504 213zM477 1550h219q14 18 41 57t31 44q15 19 40.5 53.5t35.5 48.5l149 -203h219l-278 426h-180zM762 2048l53 -51q38 -36 73.5 -51t82.5 -15q103 0 159.5 87.5t59.5 250.5h-191q-3 -68 -10 -110q-6 -35 -24 -35q-10 0 -39 26
h2l-56 52q-42 36 -76.5 51.5t-76.5 15.5q-103 0 -160.5 -88.5t-60.5 -249.5h192q0 63 8 109q8 35 27 35q10 0 37 -27z" />
    <glyph glyph-name="ocircumflextilde" unicode="&#x1ed7;"
d="M668 944q118 0 189 -94.5t71 -259.5q0 -158 -64 -203q-75 -43 -196 -43q-57 0 -94 4.5t-72 19.5t-54 42t-30.5 71.5t-11.5 108.5q0 166 70.5 260t191.5 94zM668 1145q-244 0 -381 -158q-137 -155 -137 -428t137 -428q137 -158 381 -158q239 0 377.5 158t138.5 428
t-138.5 428t-377.5 158zM299 1178h219q15 21 72 100q15 19 40.5 53.5t35.5 48.5l149 -202h219l-278 426h-181zM584 1675l53 -51q37 -36 73 -50.5t83 -14.5q103 0 159.5 87t59.5 250h-191q-3 -68 -10 -110q-6 -35 -25 -35q-8 0 -38 27h2l-56 51q-42 36 -76.5 51.5t-76.5 15.5
q-103 0 -161 -88t-61 -249h193q0 62 8 108q8 35 27 35q10 0 37 -27z" />
    <glyph glyph-name="Ocircumflexdotbelow" unicode="&#x1ed8;" horiz-adv-x="1687"
d="M846 1286q191 0 302.5 -143.5t111.5 -397.5q0 -97 -26.5 -162.5t-82 -102t-128.5 -51.5t-177 -15q-201 0 -314 67q-104 69 -104 264q0 253 115 402q117 139 303 139zM846 1520q-316 0 -508 -213q-188 -212 -188 -562q0 -349 188 -561q192 -213 508 -213q312 0 504 213
q188 212 188 561q0 350 -188 562q-192 213 -504 213zM711 59h266v267h-266v-267zM477 1550h219q14 18 41 57t31 44q15 19 40.5 53.5t35.5 48.5l149 -203h219l-278 426h-180z" />
    <glyph glyph-name="ocircumflexdotbelow" unicode="&#x1ed9;"
d="M668 944q118 0 189 -94.5t71 -259.5q0 -158 -64 -203q-75 -43 -196 -43q-57 0 -94 4.5t-72 19.5t-54 42t-30.5 71.5t-11.5 108.5q0 166 70.5 260t191.5 94zM668 1145q-244 0 -381 -158q-137 -155 -137 -428t137 -428q137 -158 381 -158q239 0 377.5 158t138.5 428
t-138.5 428t-377.5 158zM532 -313h267v266h-267v-266zM299 1178h219q15 21 72 100q15 19 40.5 53.5t35.5 48.5l149 -202h219l-278 426h-181z" />
    <glyph glyph-name="Ohornacute" unicode="&#x1eda;" horiz-adv-x="1687"
d="M846 1286q191 0 302.5 -143.5t111.5 -397.5q0 -97 -26.5 -162.5t-82 -102t-128.5 -51.5t-177 -15q-201 0 -314 67q-104 69 -104 264q0 253 115 402q117 139 303 139zM846 1520q-316 0 -508 -213q-188 -212 -188 -562q0 -349 188 -561q192 -213 508 -213q312 0 504 213
q188 212 188 561q0 350 -188 562q-192 213 -504 213zM1415 1206l45 -94q15 7 25 12.5t20.5 13t14.5 10.5t18.5 15.5t22.5 18.5q43 38 63.5 102t20.5 131q0 20 -11 66l-98 12q14 -35 14 -61v-12v-15.5t-0.5 -17t-1 -19t-2 -19t-3.5 -20.5t-5 -18.5t-7 -18.5t-9.5 -16
t-12.5 -14q-13 -11 -42.5 -26.5t-51.5 -29.5zM676 1866h250l403 465h-305z" />
    <glyph glyph-name="ohornacute" unicode="&#x1edb;"
d="M668 944q118 0 189 -94.5t71 -259.5q0 -158 -64 -203q-75 -43 -196 -43q-57 0 -94 4.5t-72 19.5t-54 42t-30.5 71.5t-11.5 108.5q0 166 70.5 260t191.5 94zM668 1145q-244 0 -381 -158q-137 -155 -137 -428t137 -428q137 -158 381 -158q239 0 377.5 158t138.5 428
t-138.5 428t-377.5 158zM1024 874l45 -94q19 9 32.5 17.5t18.5 12t23.5 19t25.5 21.5q43 38 63.5 102t20.5 131q0 24 -10 66l-98 12q14 -35 14 -61v-12v-15.5t-0.5 -17t-1 -19t-2 -19t-3.5 -20.5t-5 -18.5t-7 -18.5t-9.5 -16t-12.5 -14q-13 -11 -42.5 -26.5t-51.5 -29.5z
M498 1493h250l403 465h-305z" />
    <glyph glyph-name="Ohorngrave" unicode="&#x1edc;" horiz-adv-x="1687"
d="M846 1286q191 0 302.5 -143.5t111.5 -397.5q0 -97 -26.5 -162.5t-82 -102t-128.5 -51.5t-177 -15q-201 0 -314 67q-104 69 -104 264q0 253 115 402q117 139 303 139zM846 1520q-316 0 -508 -213q-188 -212 -188 -562q0 -349 188 -561q192 -213 508 -213q312 0 504 213
q188 212 188 561q0 350 -188 562q-192 213 -504 213zM1415 1206l45 -94q15 7 25 12.5t20.5 13t14.5 10.5t18.5 15.5t22.5 18.5q43 38 63.5 102t20.5 131q0 20 -11 66l-98 12q14 -35 14 -61v-12v-15.5t-0.5 -17t-1 -19t-2 -19t-3.5 -20.5t-5 -18.5t-7 -18.5t-9.5 -16
t-12.5 -14q-13 -11 -42.5 -26.5t-51.5 -29.5zM481 2361l236 -424h350l-319 424h-267z" />
    <glyph glyph-name="ohorngrave" unicode="&#x1edd;"
d="M668 944q118 0 189 -94.5t71 -259.5q0 -158 -64 -203q-75 -43 -196 -43q-57 0 -94 4.5t-72 19.5t-54 42t-30.5 71.5t-11.5 108.5q0 166 70.5 260t191.5 94zM668 1145q-244 0 -381 -158q-137 -155 -137 -428t137 -428q137 -158 381 -158q239 0 377.5 158t138.5 428
t-138.5 428t-377.5 158zM1024 874l45 -94q19 9 32.5 17.5t18.5 12t23.5 19t25.5 21.5q43 38 63.5 102t20.5 131q0 24 -10 66l-98 12q14 -35 14 -61v-12v-15.5t-0.5 -17t-1 -19t-2 -19t-3.5 -20.5t-5 -18.5t-7 -18.5t-9.5 -16t-12.5 -14q-13 -11 -42.5 -26.5t-51.5 -29.5z
M303 1989l236 -424h350l-320 424h-266z" />
    <glyph glyph-name="Ohornhookabove" unicode="&#x1ede;" horiz-adv-x="1687"
d="M846 1286q191 0 302.5 -143.5t111.5 -397.5q0 -97 -26.5 -162.5t-82 -102t-128.5 -51.5t-177 -15q-201 0 -314 67q-104 69 -104 264q0 253 115 402q117 139 303 139zM846 1520q-316 0 -508 -213q-188 -212 -188 -562q0 -349 188 -561q192 -213 508 -213q312 0 504 213
q188 212 188 561q0 350 -188 562q-192 213 -504 213zM1415 1206l45 -94q15 7 25 12.5t20.5 13t14.5 10.5t18.5 15.5t22.5 18.5q43 38 63.5 102t20.5 131q0 20 -11 66l-98 12q14 -35 14 -61v-12v-15.5t-0.5 -17t-1 -19t-2 -19t-3.5 -20.5t-5 -18.5t-7 -18.5t-9.5 -16
t-12.5 -14q-13 -11 -42.5 -26.5t-51.5 -29.5zM750 1729v-41q49 24 94 24q31 0 48 -8t17 -18q0 -22 -24 -37l-21 -17q-29 -22 -33 -30q-6 -10 -6 -33v-6h58q0 16 2 22q2 4 20 19l21 14q43 30 43 61q0 32 -31 54q-29 20 -82 20q-50 0 -106 -24z" />
    <glyph glyph-name="ohornhookabove" unicode="&#x1edf;"
d="M668 944q118 0 189 -94.5t71 -259.5q0 -158 -64 -203q-75 -43 -196 -43q-57 0 -94 4.5t-72 19.5t-54 42t-30.5 71.5t-11.5 108.5q0 166 70.5 260t191.5 94zM668 1145q-244 0 -381 -158q-137 -155 -137 -428t137 -428q137 -158 381 -158q239 0 377.5 158t138.5 428
t-138.5 428t-377.5 158zM1024 874l45 -94q19 9 32.5 17.5t18.5 12t23.5 19t25.5 21.5q43 38 63.5 102t20.5 131q0 24 -10 66l-98 12q14 -35 14 -61v-12v-15.5t-0.5 -17t-1 -19t-2 -19t-3.5 -20.5t-5 -18.5t-7 -18.5t-9.5 -16t-12.5 -14q-13 -11 -42.5 -26.5t-51.5 -29.5z
M571 1356v-41q50 24 95 24q31 0 48 -8t17 -18q0 -22 -24 -37l-21 -16q-28 -21 -33 -31q-6 -10 -6 -33v-6h58q0 16 2 22q2 4 20 19l21 14q43 30 43 62q0 31 -31 53q-29 20 -82 20q-51 0 -107 -24z" />
    <glyph glyph-name="Ohorntilde" unicode="&#x1ee0;" horiz-adv-x="1687"
d="M846 1286q191 0 302.5 -143.5t111.5 -397.5q0 -97 -26.5 -162.5t-82 -102t-128.5 -51.5t-177 -15q-201 0 -314 67q-104 69 -104 264q0 253 115 402q117 139 303 139zM846 1520q-316 0 -508 -213q-188 -212 -188 -562q0 -349 188 -561q192 -213 508 -213q312 0 504 213
q188 212 188 561q0 350 -188 562q-192 213 -504 213zM1415 1206l45 -94q15 7 25 12.5t20.5 13t14.5 10.5t18.5 15.5t22.5 18.5q43 38 63.5 102t20.5 131q0 20 -11 66l-98 12q14 -35 14 -61v-12v-15.5t-0.5 -17t-1 -19t-2 -19t-3.5 -20.5t-5 -18.5t-7 -18.5t-9.5 -16
t-12.5 -14q-13 -11 -42.5 -26.5t-51.5 -29.5zM762 2048l53 -51q38 -36 73.5 -51t82.5 -15q103 0 159.5 87.5t59.5 250.5h-191q-3 -68 -10 -110q-6 -35 -24 -35q-10 0 -39 26h2l-56 52q-42 36 -76.5 51.5t-76.5 15.5q-103 0 -160.5 -88.5t-60.5 -249.5h192q0 63 8 109
q8 35 27 35q10 0 37 -27z" />
    <glyph glyph-name="ohorntilde" unicode="&#x1ee1;"
d="M668 944q118 0 189 -94.5t71 -259.5q0 -158 -64 -203q-75 -43 -196 -43q-57 0 -94 4.5t-72 19.5t-54 42t-30.5 71.5t-11.5 108.5q0 166 70.5 260t191.5 94zM668 1145q-244 0 -381 -158q-137 -155 -137 -428t137 -428q137 -158 381 -158q239 0 377.5 158t138.5 428
t-138.5 428t-377.5 158zM1024 874l45 -94q19 9 32.5 17.5t18.5 12t23.5 19t25.5 21.5q43 38 63.5 102t20.5 131q0 24 -10 66l-98 12q14 -35 14 -61v-12v-15.5t-0.5 -17t-1 -19t-2 -19t-3.5 -20.5t-5 -18.5t-7 -18.5t-9.5 -16t-12.5 -14q-13 -11 -42.5 -26.5t-51.5 -29.5z
M584 1675l53 -51q37 -36 73 -50.5t83 -14.5q103 0 159.5 87t59.5 250h-191q-3 -68 -10 -110q-6 -35 -25 -35q-8 0 -38 27h2l-56 51q-42 36 -76.5 51.5t-76.5 15.5q-103 0 -161 -88t-61 -249h193q0 62 8 108q8 35 27 35q10 0 37 -27z" />
    <glyph glyph-name="Ohorndotbelow" unicode="&#x1ee2;" horiz-adv-x="1687"
d="M846 1286q191 0 302.5 -143.5t111.5 -397.5q0 -97 -26.5 -162.5t-82 -102t-128.5 -51.5t-177 -15q-201 0 -314 67q-104 69 -104 264q0 253 115 402q117 139 303 139zM846 1520q-316 0 -508 -213q-188 -212 -188 -562q0 -349 188 -561q192 -213 508 -213q312 0 504 213
q188 212 188 561q0 350 -188 562q-192 213 -504 213zM1415 1206l45 -94q15 7 25 12.5t20.5 13t14.5 10.5t18.5 15.5t22.5 18.5q43 38 63.5 102t20.5 131q0 20 -11 66l-98 12q14 -35 14 -61v-12v-15.5t-0.5 -17t-1 -19t-2 -19t-3.5 -20.5t-5 -18.5t-7 -18.5t-9.5 -16
t-12.5 -14q-13 -11 -42.5 -26.5t-51.5 -29.5zM711 59h266v267h-266v-267z" />
    <glyph glyph-name="ohorndotbelow" unicode="&#x1ee3;"
d="M668 944q118 0 189 -94.5t71 -259.5q0 -158 -64 -203q-75 -43 -196 -43q-57 0 -94 4.5t-72 19.5t-54 42t-30.5 71.5t-11.5 108.5q0 166 70.5 260t191.5 94zM668 1145q-244 0 -381 -158q-137 -155 -137 -428t137 -428q137 -158 381 -158q239 0 377.5 158t138.5 428
t-138.5 428t-377.5 158zM1024 874l45 -94q19 9 32.5 17.5t18.5 12t23.5 19t25.5 21.5q43 38 63.5 102t20.5 131q0 24 -10 66l-98 12q14 -35 14 -61v-12v-15.5t-0.5 -17t-1 -19t-2 -19t-3.5 -20.5t-5 -18.5t-7 -18.5t-9.5 -16t-12.5 -14q-13 -11 -42.5 -26.5t-51.5 -29.5z
M532 -313h267v266h-267v-266z" />
    <glyph glyph-name="Udotbelow" unicode="&#x1ee4;" horiz-adv-x="1460"
d="M150 1493v-924q0 -295 147 -446.5t434 -151.5t433.5 151t146.5 447v924h-269v-766q0 -214 -73 -305v2q-71 -86 -238 -86q-166 0 -237 86v-2q-74 92 -74 305v766h-270zM596 59h266v267h-266v-267z" />
    <glyph glyph-name="udotbelow" unicode="&#x1ee5;" horiz-adv-x="1259"
d="M150 1120v-669q0 -235 103 -356.5t302 -121.5q175 0 291 113l-4 -86h248l20 1120h-274l-11 -479q-13 -149 -75 -219q-64 -76 -189 -76q-93 0 -138.5 65t-53.5 197v512h-219zM508 -313h266v266h-266v-266z" />
    <glyph glyph-name="Uhookabove" unicode="&#x1ee6;" horiz-adv-x="1460"
d="M150 1493v-924q0 -295 147 -446.5t434 -151.5t433.5 151t146.5 447v924h-269v-766q0 -214 -73 -305v2q-71 -86 -238 -86q-166 0 -237 86v-2q-74 92 -74 305v766h-270zM635 1729v-41q50 24 94 24q31 0 48.5 -8t17.5 -18q0 -21 -25 -37l-20 -17q-29 -22 -33 -30
q-6 -10 -6 -33v-6h57q0 16 2 22q1 3 21 19l20 14q43 30 43 61q0 32 -31 54q-29 20 -82 20q-51 0 -106 -24z" />
    <glyph glyph-name="uhookabove" unicode="&#x1ee7;" horiz-adv-x="1259"
d="M150 1120v-669q0 -235 103 -356.5t302 -121.5q175 0 291 113l-4 -86h248l20 1120h-274l-11 -479q-13 -149 -75 -219q-64 -76 -189 -76q-93 0 -138.5 65t-53.5 197v512h-219zM547 1356v-41q49 24 94 24q31 0 48.5 -8t17.5 -18q0 -21 -25 -37l-20 -16q-28 -21 -33 -31
q-6 -10 -6 -33v-6h57q0 16 2 22q2 4 20 19l21 14q43 30 43 62q0 31 -31 53q-29 20 -82 20q-51 0 -106 -24z" />
    <glyph glyph-name="Uhornacute" unicode="&#x1ee8;" horiz-adv-x="1460"
d="M150 1493v-924q0 -295 147 -446.5t434 -151.5t433.5 151t146.5 447v924h-269v-766q0 -214 -73 -305v2q-71 -86 -238 -86q-166 0 -237 86v-2q-74 92 -74 305v766h-270zM1243 1288l45 -94q15 7 25 12.5t20.5 13t14.5 10.5t18.5 15.5t22.5 18.5q43 38 63.5 102t20.5 131
q0 20 -11 66l-98 12q14 -35 14 -62v-12v-15.5t-0.5 -17t-1 -19t-2 -19t-3.5 -20.5t-5 -18.5t-7 -18.5t-9.5 -16t-12.5 -14q-13 -11 -42 -25.5t-52 -29.5zM561 1866h250l403 465h-305z" />
    <glyph glyph-name="uhornacute" unicode="&#x1ee9;" horiz-adv-x="1259"
d="M150 1120v-669q0 -235 103 -356.5t302 -121.5q175 0 291 113l-4 -86h248l20 1120h-274l-11 -479q-13 -149 -75 -219q-64 -76 -189 -76q-93 0 -138.5 65t-53.5 197v512h-219zM1057 961l45 -95q19 9 32.5 17.5t18.5 12t23.5 19t25.5 21.5q43 38 63.5 102t20.5 131
q0 24 -10 66l-98 12q14 -35 14 -61v-12v-15.5t-0.5 -17t-1 -19t-2 -19t-3.5 -20.5t-5 -18.5t-7 -18.5t-9.5 -16t-12.5 -14q-13 -11 -42 -25.5t-52 -29.5zM473 1493h250l403 465h-305z" />
    <glyph glyph-name="Uhorngrave" unicode="&#x1eea;" horiz-adv-x="1460"
d="M150 1493v-924q0 -295 147 -446.5t434 -151.5t433.5 151t146.5 447v924h-269v-766q0 -214 -73 -305v2q-71 -86 -238 -86q-166 0 -237 86v-2q-74 92 -74 305v766h-270zM1243 1288l45 -94q15 7 25 12.5t20.5 13t14.5 10.5t18.5 15.5t22.5 18.5q43 38 63.5 102t20.5 131
q0 20 -11 66l-98 12q14 -35 14 -62v-12v-15.5t-0.5 -17t-1 -19t-2 -19t-3.5 -20.5t-5 -18.5t-7 -18.5t-9.5 -16t-12.5 -14q-13 -11 -42 -25.5t-52 -29.5zM367 2361l235 -424h350l-319 424h-266z" />
    <glyph glyph-name="uhorngrave" unicode="&#x1eeb;" horiz-adv-x="1259"
d="M150 1120v-669q0 -235 103 -356.5t302 -121.5q175 0 291 113l-4 -86h248l20 1120h-274l-11 -479q-13 -149 -75 -219q-64 -76 -189 -76q-93 0 -138.5 65t-53.5 197v512h-219zM1057 961l45 -95q19 9 32.5 17.5t18.5 12t23.5 19t25.5 21.5q43 38 63.5 102t20.5 131
q0 24 -10 66l-98 12q14 -35 14 -61v-12v-15.5t-0.5 -17t-1 -19t-2 -19t-3.5 -20.5t-5 -18.5t-7 -18.5t-9.5 -16t-12.5 -14q-13 -11 -42 -25.5t-52 -29.5zM279 1989l235 -424h350l-319 424h-266z" />
    <glyph glyph-name="Uhornhookabove" unicode="&#x1eec;" horiz-adv-x="1460"
d="M150 1493v-924q0 -295 147 -446.5t434 -151.5t433.5 151t146.5 447v924h-269v-766q0 -214 -73 -305v2q-71 -86 -238 -86q-166 0 -237 86v-2q-74 92 -74 305v766h-270zM1243 1288l45 -94q15 7 25 12.5t20.5 13t14.5 10.5t18.5 15.5t22.5 18.5q43 38 63.5 102t20.5 131
q0 20 -11 66l-98 12q14 -35 14 -62v-12v-15.5t-0.5 -17t-1 -19t-2 -19t-3.5 -20.5t-5 -18.5t-7 -18.5t-9.5 -16t-12.5 -14q-13 -11 -42 -25.5t-52 -29.5zM635 1729v-41q50 24 94 24q31 0 48.5 -8t17.5 -18q0 -21 -25 -37l-20 -17q-29 -22 -33 -30q-6 -10 -6 -33v-6h57
q0 16 2 22q1 3 21 19l20 14q43 30 43 61q0 32 -31 54q-29 20 -82 20q-51 0 -106 -24z" />
    <glyph glyph-name="uhornhookabove" unicode="&#x1eed;" horiz-adv-x="1259"
d="M150 1120v-669q0 -235 103 -356.5t302 -121.5q175 0 291 113l-4 -86h248l20 1120h-274l-11 -479q-13 -149 -75 -219q-64 -76 -189 -76q-93 0 -138.5 65t-53.5 197v512h-219zM1057 961l45 -95q19 9 32.5 17.5t18.5 12t23.5 19t25.5 21.5q43 38 63.5 102t20.5 131
q0 24 -10 66l-98 12q14 -35 14 -61v-12v-15.5t-0.5 -17t-1 -19t-2 -19t-3.5 -20.5t-5 -18.5t-7 -18.5t-9.5 -16t-12.5 -14q-13 -11 -42 -25.5t-52 -29.5zM547 1356v-41q49 24 94 24q31 0 48.5 -8t17.5 -18q0 -21 -25 -37l-20 -16q-28 -21 -33 -31q-6 -10 -6 -33v-6h57
q0 16 2 22q2 4 20 19l21 14q43 30 43 62q0 31 -31 53q-29 20 -82 20q-51 0 -106 -24z" />
    <glyph glyph-name="Uhorntilde" unicode="&#x1eee;" horiz-adv-x="1460"
d="M150 1493v-924q0 -295 147 -446.5t434 -151.5t433.5 151t146.5 447v924h-269v-766q0 -214 -73 -305v2q-71 -86 -238 -86q-166 0 -237 86v-2q-74 92 -74 305v766h-270zM1243 1288l45 -94q15 7 25 12.5t20.5 13t14.5 10.5t18.5 15.5t22.5 18.5q43 38 63.5 102t20.5 131
q0 20 -11 66l-98 12q14 -35 14 -62v-12v-15.5t-0.5 -17t-1 -19t-2 -19t-3.5 -20.5t-5 -18.5t-7 -18.5t-9.5 -16t-12.5 -14q-13 -11 -42 -25.5t-52 -29.5zM647 2048l53 -51q38 -36 73.5 -51t82.5 -15q103 0 159.5 87.5t59.5 250.5h-190q-2 -60 -11 -110q-6 -35 -24 -35
q-10 0 -39 26h2l-55 52q-78 67 -154 67q-103 0 -160.5 -88.5t-60.5 -249.5h192q0 57 9 109q8 35 26 35q10 0 37 -27z" />
    <glyph glyph-name="uhorntilde" unicode="&#x1eef;" horiz-adv-x="1259"
d="M150 1120v-669q0 -235 103 -356.5t302 -121.5q175 0 291 113l-4 -86h248l20 1120h-274l-11 -479q-13 -149 -75 -219q-64 -76 -189 -76q-93 0 -138.5 65t-53.5 197v512h-219zM1057 961l45 -95q19 9 32.5 17.5t18.5 12t23.5 19t25.5 21.5q43 38 63.5 102t20.5 131
q0 24 -10 66l-98 12q14 -35 14 -61v-12v-15.5t-0.5 -17t-1 -19t-2 -19t-3.5 -20.5t-5 -18.5t-7 -18.5t-9.5 -16t-12.5 -14q-13 -11 -42 -25.5t-52 -29.5zM559 1675l53 -51q37 -36 73 -50.5t83 -14.5q103 0 159.5 87t59.5 250h-190q-2 -60 -11 -110q-6 -35 -24 -35
q-9 0 -39 27h2l-55 51q-78 67 -154 67q-103 0 -160.5 -88t-60.5 -249h192q0 56 9 108q8 35 26 35q10 0 37 -27z" />
    <glyph glyph-name="Uhorndotbelow" unicode="&#x1ef0;" horiz-adv-x="1460"
d="M150 1493v-924q0 -295 147 -446.5t434 -151.5t433.5 151t146.5 447v924h-269v-766q0 -214 -73 -305v2q-71 -86 -238 -86q-166 0 -237 86v-2q-74 92 -74 305v766h-270zM1243 1288l45 -94q15 7 25 12.5t20.5 13t14.5 10.5t18.5 15.5t22.5 18.5q43 38 63.5 102t20.5 131
q0 20 -11 66l-98 12q14 -35 14 -62v-12v-15.5t-0.5 -17t-1 -19t-2 -19t-3.5 -20.5t-5 -18.5t-7 -18.5t-9.5 -16t-12.5 -14q-13 -11 -42 -25.5t-52 -29.5zM596 59h266v267h-266v-267z" />
    <glyph glyph-name="uhorndotbelow" unicode="&#x1ef1;" horiz-adv-x="1259"
d="M150 1120v-669q0 -235 103 -356.5t302 -121.5q175 0 291 113l-4 -86h248l20 1120h-274l-11 -479q-13 -149 -75 -219q-64 -76 -189 -76q-93 0 -138.5 65t-53.5 197v512h-219zM1057 961l45 -95q19 9 32.5 17.5t18.5 12t23.5 19t25.5 21.5q43 38 63.5 102t20.5 131
q0 24 -10 66l-98 12q14 -35 14 -61v-12v-15.5t-0.5 -17t-1 -19t-2 -19t-3.5 -20.5t-5 -18.5t-7 -18.5t-9.5 -16t-12.5 -14q-13 -11 -42 -25.5t-52 -29.5zM508 -313h266v266h-266v-266z" />
    <glyph glyph-name="Ygrave" unicode="&#x1ef2;" horiz-adv-x="1619"
d="M637 512v-512h336v512l495 981h-290l-367 -684l-371 684h-290zM446 2361l236 -424h350l-319 424h-267z" />
    <glyph glyph-name="ygrave" unicode="&#x1ef3;" horiz-adv-x="1429"
d="M1280 1120h-260l-264 -567l-346 567h-260q19 -41 57 -122t57 -121q39 -84 118 -254t118 -254q18 -39 56 -120.5t58 -123.5q-7 -13 -17.5 -36t-14.5 -30q-24 -41 -35 -65q-38 -52 -78 -84q-32 -25 -84 -25h-158v-301h193q69 0 118 13.5t98 50.5t92.5 104.5t90.5 173.5z
M254 1989l235 -424h351l-320 424h-266z" />
    <glyph glyph-name="Ydotbelow" unicode="&#x1ef4;" horiz-adv-x="1619"
d="M637 512v-512h336v512l495 981h-290l-367 -684l-371 684h-290zM676 59h266v267h-266v-267z" />
    <glyph glyph-name="ydotbelow" unicode="&#x1ef5;" horiz-adv-x="1429"
d="M1280 1120h-260l-264 -567l-346 567h-260q19 -41 57 -122t57 -121q39 -84 118 -254t118 -254q18 -39 56 -120.5t58 -123.5q-7 -13 -17.5 -36t-14.5 -30q-24 -41 -35 -65q-38 -52 -78 -84q-32 -25 -84 -25h-158v-301h193q69 0 118 13.5t98 50.5t92.5 104.5t90.5 173.5z
M483 -313h267v266h-267v-266z" />
    <glyph glyph-name="Yhookabove" unicode="&#x1ef6;" horiz-adv-x="1619"
d="M637 512v-512h336v512l495 981h-290l-367 -684l-371 684h-290zM715 1729v-41q50 24 94 24q31 0 48 -8t17 -18q0 -22 -24 -37l-21 -17q-27 -20 -32 -30q-6 -10 -6 -33v-6h57q0 16 2 22q2 4 20 19l21 14q43 30 43 61q0 32 -31 54q-29 20 -82 20q-51 0 -106 -24z" />
    <glyph glyph-name="yhookabove" unicode="&#x1ef7;" horiz-adv-x="1429"
d="M1280 1120h-260l-264 -567l-346 567h-260q19 -41 57 -122t57 -121q39 -84 118 -254t118 -254q18 -39 56 -120.5t58 -123.5q-7 -13 -17.5 -36t-14.5 -30q-24 -41 -35 -65q-38 -52 -78 -84q-32 -25 -84 -25h-158v-301h193q69 0 118 13.5t98 50.5t92.5 104.5t90.5 173.5z
M522 1356v-41q49 24 94 24q31 0 48.5 -8t17.5 -18q0 -21 -25 -37l-20 -16q-28 -21 -33 -31q-6 -10 -6 -33v-6h57q0 16 2 22q1 3 21 19l20 14q43 30 43 62t-30 53q-29 20 -82 20q-51 0 -107 -24z" />
    <glyph glyph-name="Ytilde" unicode="&#x1ef8;" horiz-adv-x="1619"
d="M637 512v-512h336v512l495 981h-290l-367 -684l-371 684h-290zM727 2048l53 -51q38 -36 73.5 -51t82.5 -15q103 0 159.5 87.5t59.5 250.5h-190q-2 -60 -11 -110q-6 -35 -24 -35q-10 0 -39 26h2l-55 52q-78 67 -154 67q-103 0 -160.5 -88.5t-60.5 -249.5h192q0 57 9 109
q8 35 26 35q10 0 37 -27z" />
    <glyph glyph-name="ytilde" unicode="&#x1ef9;" horiz-adv-x="1429"
d="M1280 1120h-260l-264 -567l-346 567h-260q19 -41 57 -122t57 -121q39 -84 118 -254t118 -254q18 -39 56 -120.5t58 -123.5q-7 -13 -17.5 -36t-14.5 -30q-24 -41 -35 -65q-38 -52 -78 -84q-32 -25 -84 -25h-158v-301h193q69 0 118 13.5t98 50.5t92.5 104.5t90.5 173.5z
M535 1675l53 -51q38 -36 73 -50.5t82 -14.5q103 0 160 87t60 250h-191q-3 -68 -10 -110q-6 -35 -25 -35q-9 0 -39 27h2l-55 51q-42 36 -76.5 51.5t-76.5 15.5q-103 0 -161 -88t-61 -249h193q0 62 8 108q8 35 27 35q10 0 37 -27z" />
    <glyph glyph-name="endash" unicode="&#x2013;" horiz-adv-x="1329"
d="M150 457h1030v209h-1030v-209z" />
    <glyph glyph-name="emdash" unicode="&#x2014;" horiz-adv-x="2285"
d="M150 457h1986v209h-1986v-209z" />
    <glyph glyph-name="quoteleft" unicode="&#x2018;" horiz-adv-x="720"
d="M469 1083l102 410h-219l-202 -395v-244h319v229z" />
    <glyph glyph-name="quoteright" unicode="&#x2019;" horiz-adv-x="718"
d="M254 1280l-104 -403h219l198 389v219h-313v-205z" />
    <glyph glyph-name="quotesinglbase" unicode="&#x201a;" horiz-adv-x="659"
d="M238 119l-88 -340h192l168 325v207h-272v-192z" />
    <glyph glyph-name="quotedblleft" unicode="&#x201c;" horiz-adv-x="1200"
d="M469 1055l106 413h-221l-204 -399v-248h319v234zM944 1055l107 413h-222l-202 -399v-248h317v234z" />
    <glyph glyph-name="quotedblright" unicode="&#x201d;" horiz-adv-x="1146"
d="M250 1249l-100 -389h210l193 375v233h-303v-219zM694 1249l-100 -389h211l192 375v233h-303v-219z" />
    <glyph glyph-name="quotedblbase" unicode="&#x201e;" horiz-adv-x="1210"
d="M737 197l-106 -418h223l207 401v248h-324v-231zM256 197l-106 -418h223l207 401v248h-324v-231z" />
    <glyph glyph-name="dagger" unicode="&#x2020;" horiz-adv-x="1224"
d="M494 1075h-344v-217h344v-1042h237v1042h342v217h-342v393h-237v-393z" />
    <glyph glyph-name="daggerdbl" unicode="&#x2021;" horiz-adv-x="1224"
d="M1073 426h-323q-6 121 -9 219q-2 36 -5 107t-5 106h342v217h-342v393h-239v-393h-342v-217h342q0 -26 -5 -113q-4 -70 -4 -104q-4 -75 -8 -215h-325v-283h303l-19 -327h354q0 24 -4 78q-1 27 -4 82.5t-4 84.5q-1 14 -6 82h303v283z" />
    <glyph glyph-name="bullet" unicode="&#x2022;" horiz-adv-x="929"
d="M150 750q0 -132 91.5 -224t223.5 -92q131 0 222 91.5t91 224.5q0 129 -91 220t-220 91q-132 0 -224.5 -91t-92.5 -220z" />
    <glyph glyph-name="ellipsis" unicode="&#x2026;" horiz-adv-x="1947"
d="M786 0h375v414h-375v-414zM1421 0h377v414h-377v-414zM150 0h376v414h-376v-414z" />
    <glyph glyph-name="perthousand" unicode="&#x2030;" horiz-adv-x="2729"
d="M2220 612q63 0 99 -39.5t36 -107.5q0 -70 -36 -110t-99 -40t-99 40t-36 110q0 69 36 108t99 39zM2220 807q-163 0 -260.5 -114.5t-97.5 -303.5q0 -191 96.5 -303.5t261.5 -112.5t262 115q96 107 96 301q0 190 -97 304t-261 114zM508 1493q-163 0 -260.5 -114.5
t-97.5 -301.5q0 -191 97 -304.5t261 -113.5t262 113.5t98 304.5q0 188 -98.5 302t-261.5 114zM344 -27h305l918 1520h-236zM508 1300q63 0 100 -44.5t37 -120.5q0 -79 -36 -122.5t-101 -43.5q-63 0 -99 43.5t-36 122.5q0 77 36 121t99 44zM1473 807q-165 0 -267 -117
q-96 -116 -96 -301q0 -189 98.5 -302.5t264.5 -113.5q164 0 261 113.5t97 302.5q0 185 -96 301q-102 117 -262 117zM1473 612q61 0 97 -39.5t36 -107.5q0 -70 -35.5 -110t-97.5 -40q-65 0 -101.5 40t-36.5 110q0 69 36.5 108t101.5 39z" />
    <glyph glyph-name="guilsinglleft" unicode="&#x2039;" horiz-adv-x="813"
d="M150 651v-108l514 -457v279l-263 233l263 233v279z" />
    <glyph glyph-name="guilsinglright" unicode="&#x203a;" horiz-adv-x="811"
d="M150 831l262 -233l-262 -233v-279l512 457v108l-512 459v-279z" />
    <glyph glyph-name="fraction" unicode="&#x2044;" horiz-adv-x="1081"
d="M150 172l294 -10l488 1630l-215 6z" />
    <glyph glyph-name="Euro" unicode="&#x20ac;" horiz-adv-x="1484"
d="M1335 1071v270q-190 152 -383 152q-237 0 -391 -145q-146 -143 -188 -365h-137l-86 -190h202v-27q-2 -10 -2 -33q0 -21 2 -31v-24v-2h-121l-75 -227h227q14 -83 66 -179q50 -92 112 -151q158 -146 391 -146q191 0 383 154v391q-160 -163 -229 -201q-68 -36 -156 -36
q-131 0 -215 84q-51 51 -71 84h307l78 227h-435q-2 6 -2 14v10q0 7 2 13v20v33q-3 15 0 27h492l86 190h-553q33 145 115.5 239.5t203.5 94.5q89 0 156 -37q78 -45 221 -209z" />
    <glyph glyph-name="trademark" unicode="&#x2122;" horiz-adv-x="1626"
d="M752 1468l-43 -614h241q-1 21 -4 64.5t-4 66.5q-4 94 -8 141l94 -225h139q8 22 24.5 62t18.5 45q40 99 43 108l-16 -262h240l-21 614h-217q-11 -22 -34.5 -66t-33.5 -63q-23 -45 -69 -131l-131 260h-219zM150 1468v-161h186l-29 -453h244l-31 453h189v161h-559z" />
    <glyph glyph-name="Omega" unicode="&#x2126;" horiz-adv-x="1712"
d="M1563 301h-244q105 102 156 191q71 121 71 315q0 311 -192 506q-193 196 -498 196q-202 0 -359 -89t-244 -251.5t-87 -371.5q0 -187 74 -308q54 -89 153 -188h-243v-301h645v291q-181 59 -269 196v-2q-88 140 -88 322q0 264 115 385q115 127 303 127q195 0 306.5 -129.5
t111.5 -382.5q0 -188 -89 -323t-267 -193v-291h645v301z" />
    <glyph glyph-name="partialdiff" unicode="&#x2202;" horiz-adv-x="1175"
d="M545 829q-167 0 -281 -132.5t-114 -327.5q0 -168 105 -280t263 -112q222 0 365 224q141 207 141 538q0 259 -109 415.5t-294 156.5q-51 0 -101 -13q-25 -7 -51 -20t-53.5 -33.5t-44.5 -52t-17 -68.5q0 -50 21 -65q17 -15 76 -15t84 60q10 13 155 22q96 -3 96 -206
q0 -90 -12 -189q-76 98 -229 98zM678 539q0 -144 -68 -244q-63 -88 -153 -88q-66 0 -100.5 39t-34.5 114q0 154 65 246q64 88 156 88q65 0 100 -40t35 -115z" />
    <glyph glyph-name="Delta" unicode="&#x2206;" horiz-adv-x="1699"
d="M1186 352h-674q43 109 86 226q12 30 40 102t44 111q6 15 82 213q47 126 86 221zM150 0h1400l-569 1450h-260z" />
    <glyph glyph-name="product" unicode="&#x220f;" horiz-adv-x="1529"
d="M150 -367h299v1551h632v-1551h297v1817h-1228v-1817z" />
    <glyph glyph-name="summation" unicode="&#x2211;" horiz-adv-x="1601"
d="M178 1450v-182q55 -48 408 -355q65 -56 200 -174.5t205 -179.5l-841 -655v-271h1300v328h-866l782 600q-62 53 -191 165.5t-194 168.5q-223 192 -387 338h833v217h-1249z" />
    <glyph glyph-name="minus" unicode="&#x2212;" horiz-adv-x="1570"
d="M150 520h1271v234h-1271v-234z" />
    <glyph glyph-name="uni2215" unicode="&#x2215;" horiz-adv-x="1452"
d="M150 -27h237l916 1520h-238z" />
    <glyph glyph-name="middot.001" unicode="&#x2219;" horiz-adv-x="628"
d="M150 545h327v381h-327v-381z" />
    <glyph glyph-name="radical" unicode="&#x221a;" horiz-adv-x="1544"
d="M700 395l-217 600l-333 -114l47 -148l116 41l293 -813h117l553 1499h119v164h-240z" />
    <glyph glyph-name="infinity" unicode="&#x221e;" horiz-adv-x="1556"
d="M868 627l9 18q0 1 -1 2t-2 2.5t-2 3.5q-4 4 -4 9v-35zM993 831h-2q55 52 115 52q66 0 111 -52.5t45 -130.5q0 -83 -50.5 -134.5t-126.5 -51.5q-126 0 -208 131q58 125 116 186zM688 655l-8 -16l8 -16v32zM580 504q-68 -21 -127 -21q-67 0 -111.5 52.5t-44.5 130.5
q0 84 48 135t126 51q62 0 113 -70q55 -74 96 -143q-59 -121 -100 -135zM907 272q79 -61 180 -61q147 0 234 115v-2q86 112 86 286q0 169 -99 286.5t-239 117.5q-93 0 -166 -50.5t-137 -160.5q-125 207 -297 207q-143 0 -231 -113.5t-88 -290.5q0 -169 96.5 -284t240.5 -115
q172 0 301 207q64 -98 119 -142z" />
    <glyph glyph-name="integral" unicode="&#x222b;" horiz-adv-x="1280"
d="M430 -94q-38 71 -123 71q-74 0 -115.5 -38.5t-41.5 -108.5q0 -77 61 -129q59 -47 145 -47q208 0 303 215q94 206 109 655l6 219q0 42 2 62q3 204 21 366q12 130 37 166q6 -35 12 -47q31 -92 137 -92q69 0 108 39.5t39 108.5q0 78 -57 127t-147 49q-213 0 -312 -230
q-93 -215 -102 -702l-2 -154q-10 -270 -23 -405q-15 -155 -38 -191q-6 43 -19 66z" />
    <glyph glyph-name="approxequal" unicode="&#x2248;" horiz-adv-x="1570"
d="M1421 432v266q-120 -97 -211 -145q-80 -45 -159 -45q-86 0 -220 51q-8 4 -20 8q0 4 -6 4l-8 4q-146 57 -250 66q-107 0 -193 -37q-94 -37 -204 -119v-266q228 195 370 195q78 0 219 -66q1 0 5 -1t6 -1q8 -4 10 -4q12 -6 14 -6q149 -60 254 -60q93 0 191 37q86 38 202 119
zM1421 797v264q-124 -100 -211 -146q-86 -45 -159 -45q-78 0 -220 54l-20 8l-14 6q-136 55 -250 68q-100 0 -193 -37q-94 -40 -204 -119v-266q225 192 370 192q84 0 219 -63q1 -1 5 -2t6 -2q2 0 10 -4l14 -7q150 -57 254 -57q101 0 191 37q87 35 202 119z" />
    <glyph glyph-name="notequal" unicode="&#x2260;" horiz-adv-x="1570"
d="M150 711h550l-122 -150h-428v-231h235l-133 -166l174 -144q10 12 31 37.5t30 36.5q22 26 65 80t64 80q12 16 34 42.5t28 33.5h743v231h-553q7 9 37 45q4 5 13.5 16.5t13.5 16.5q8 10 27 33t32 39h430v231h-241l137 168l-174 143l-252 -311h-741v-231z" />
    <glyph glyph-name="lessequal" unicode="&#x2264;" horiz-adv-x="1570"
d="M1421 1198l-1271 -362v-215l1271 -365v244l-798 227l798 231v240zM150 0h1271v233h-1271v-233z" />
    <glyph glyph-name="greaterequal" unicode="&#x2265;" horiz-adv-x="1570"
d="M948 727l-798 -227v-244l1271 365v215l-1271 362v-240zM150 233v-233h1271v233h-1271z" />
    <glyph glyph-name="lozenge" unicode="&#x25ca;" horiz-adv-x="1316"
d="M975 594l-318 -465l-315 465l315 672zM150 590l507 -1086l508 1086l-508 1077z" />
    <glyph glyph-name="c6459" horiz-adv-x="929"
d="M514 1208h264v265h-264v-265zM150 1208h266v265h-266v-265z" />
    <glyph glyph-name="c6460" horiz-adv-x="811"
d="M150 1178h235l277 321h-273z" />
    <glyph glyph-name="c6461" horiz-adv-x="991"
d="M420 1282l53 -31q56 -26 84 -34q30 -9 70 -9q96 0 153 76q56 71 62 203h-193v-43q0 -49 -31 -49q-14 0 -49 18l-53 29q-48 26 -82 37q-31 8 -72 8q-96 0 -153 -76q-59 -71 -59 -203h192v43q0 52 33 52q7 0 45 -21z" />
    <glyph glyph-name="c6462" horiz-adv-x="811"
d="M150 1499l278 -321h234l-238 321h-274z" />
    <glyph glyph-name="c6463" horiz-adv-x="1024"
d="M150 1178h223q3 3 67 73q50 54 72 76l139 -149h223l-258 323h-210z" />
    <glyph glyph-name="c6466" horiz-adv-x="1024"
d="M616 1178l258 323h-223q-19 -21 -67 -74q-38 -41 -72 -75l-139 149h-223l256 -323h210z" />
    <glyph glyph-name="c6467" horiz-adv-x="1021"
d="M537 973h-177l177 239v-239zM150 958v-161h387v-174h208v174h127v176h-127v504h-210z" />
    <glyph glyph-name="c6468" horiz-adv-x="964"
d="M330 1501h-180q24 -301 331 -301q153 0 237.5 76t96.5 225h-180q-30 -104 -154 -104q-127 0 -151 104z" />
    <glyph glyph-name="c6469" horiz-adv-x="565"
d="M150 1208h266v267h-266v-267z" />
  </font>
</defs>
</svg>
