<?xml version="1.0" standalone="no"?>
<!DOCTYPE svg PUBLIC "-//W3C//DTD SVG 1.1//EN" "http://www.w3.org/Graphics/SVG/1.1/DTD/svg11.dtd" >
<svg xmlns="http://www.w3.org/2000/svg" xmlns:xlink="http://www.w3.org/1999/xlink" version="1.1">
<metadata>
   Created by FontForge 20170731 at Mon Oct 5 15:13:39 2020
   By Aleksey,,,
   Original Fonts are (c) Bitstream. OpenDyslexic changes and additional glyphs by Abelardo Gonzalez are licensed under
   a Creative Commons Attribution 3.0 Unported License.
   Based on a work at https://dyslexicfonts.com. 2012 by Abelardo Gonzalez. Copying is an act of love. Please copy.
   Bitstream license available here: https://opendyslexic.org/legal/
</metadata>
<defs>
<font id="OpenDyslexic-Italic" horiz-adv-x="1265" >
  <font-face
    font-family="OpenDyslexic"
    font-weight="400"
    font-style="italic"
    font-stretch="normal"
    units-per-em="2048"
    panose-1="0 0 5 0 0 0 0 0 0 0"
    ascent="1638"
    descent="-410"
    x-height="1108"
    cap-height="1475"
    bbox="-152 -1016 2597 2124"
    underline-thickness="102"
    underline-position="-538"
    slope="-12"
    unicode-range="U+0020-FB02"
  />
<missing-glyph horiz-adv-x="1527"
d="M180 -352q259 35 506 35t500 -35q6 859 155 1786q-258 -37 -516 -37q-250 0 -487 37q-18 -917 -158 -1786zM313 -70q89 703 113 1395q184 -20 391 -20q184 0 416 20q-96 -640 -133 -1395q-219 17 -387 17q-174 0 -400 -17z" />
    <glyph glyph-name="fi" unicode="fi" horiz-adv-x="1480"
d="M1251 1108q-240 -12 -477 -12h-88q-57 0 -88 2q4 40 4 63l6 64q11 69 45 116q43 56 146 56q9 2 84 18q15 3 42 10.5t42 10.5q2 10 5 32t5 33l6 66q-16 -2 -54 -6.5t-59 -6.5q-58 -6 -118 -18q-135 -27 -217 -98q-65 -57 -86 -162q-17 -74 -17 -176q-61 2 -164 10
q-4 -40 -4 -57q-1 -9 -2 -28t-2 -28q79 -6 164 -6q-58 -574 -125 -966q39 4 227 14q39 455 64 950q29 -2 88 -2h86q107 0 319 4q-63 -516 -82 -960q96 -8 213 -21q-6 123 -6 246q0 358 43 852zM1149 1526q-9 -75 -14 -105q-2 -17 -7.5 -52t-7.5 -52q54 4 80 4q14 1 40 2
t40 2q5 42 16 109q15 88 17 106q-51 -6 -164 -14z" />
    <glyph glyph-name="fl" unicode="fl" horiz-adv-x="1550"
d="M805 1516q-80 0 -152 -17q-81 -20 -141 -80q-33 -41 -43 -76q-26 -70 -33 -161q-7 -50 -14 -82q-13 1 -39 2t-39 2q-50 4 -76 4l-6 -123q12 0 38 -1t40 -1q25 -2 76 -2q-53 -521 -137 -958q123 11 276 14q26 584 35 940h137h139q0 30 6 57q5 50 5 60h-140q-92 0 -139 2
v61v31v31q4 53 12 77q9 39 37 70q43 39 146 39h53q136 0 280 6q-98 -766 -114 -1378q107 -5 272 -23q0 23 -1 72t-1 74v22v23q-32 4 -51 4q-9 0 -27 1t-26 1q18 669 131 1329q-215 -20 -504 -20z" />
    <glyph glyph-name=".notdef" horiz-adv-x="1527"
d="M180 -352q259 35 506 35t500 -35q6 859 155 1786q-258 -37 -516 -37q-250 0 -487 37q-18 -917 -158 -1786zM313 -70q89 703 113 1395q184 -20 391 -20q184 0 416 20q-96 -640 -133 -1395q-219 17 -387 17q-174 0 -400 -17z" />
    <glyph glyph-name=".null" horiz-adv-x="0"
 />
    <glyph glyph-name="nonmarkingreturn" horiz-adv-x="682"
 />
    <glyph glyph-name="NULL" horiz-adv-x="299"
 />
    <glyph glyph-name="NULL" horiz-adv-x="299"
 />
    <glyph glyph-name="space" unicode=" " horiz-adv-x="800"
 />
    <glyph glyph-name="exclam" unicode="!" horiz-adv-x="686"
d="M344 1466q-72 -674 -117 -974q68 10 123 10q52 0 117 -10v49v147q2 49 2 148q15 235 49 632q-36 -14 -92 -14q-42 0 -82 12zM231 254q-7 -34 -20 -121q-19 -92 -23 -119q58 25 119 25q60 0 115 -25q0 70 -2 103v102v35q-55 10 -92 10q-42 0 -97 -10z" />
    <glyph glyph-name="quotedbl" unicode="&#x22;" horiz-adv-x="942"
d="M504 1475q-24 0 -78 4q-22 0 -80 4v-37q0 -278 -59 -531q73 7 182 11q32 254 35 549zM907 1483q-26 0 -80 -4t-79 -4q-49 -289 -60 -549q32 0 90 -4q39 0 90 -7q-4 47 -4 142q0 217 43 426z" />
    <glyph glyph-name="numbersign" unicode="#" horiz-adv-x="1552"
d="M903 1432h-141q-11 -36 -33 -102.5t-31 -96.5q-10 -34 -31.5 -100.5t-31.5 -100.5q-113 0 -170 2q-56 0 -170 4q0 -10 -1 -31.5t-1 -31.5q-4 -46 -4 -68q204 -4 305 -4l-115 -342q-55 -2 -164 -2q-27 0 -81.5 -1t-81.5 -1q-6 -34 -9 -65q-1 -13 -4 -35t-4 -31q25 0 75 1
t75 1q98 4 149 4q-85 -234 -158 -407q12 1 35 2t35 2q12 0 36 1t36 1q117 310 149 403q25 0 75 1t75 1h147q-11 -36 -32.5 -102t-30.5 -96q0 -1 -68 -201h70h37h32q36 118 64 199l61 198q29 0 85 -1t83 -1q28 -1 83 -2t83 -2q4 46 4 66q4 46 4 65q-99 0 -299 4
q44 143 111 342q110 0 328 4q2 11 5 34t5 34q4 44 8 65q-97 -4 -299 -8q53 156 160 410q-12 0 -35 -1t-35 -1q-46 -4 -69 -4q-78 -186 -154 -406q-51 -2 -150 -2h-147q64 202 135 402zM1020 903l-55 -170q-33 -90 -58 -170h-57h-119q-39 -2 -119 -2q48 143 113 340
q49 2 147 2h148z" />
    <glyph glyph-name="dollar" unicode="$" horiz-adv-x="1261"
d="M641 -250q0 25 1 73.5t1 72.5q4 98 4 147q177 7 297 90q60 48 92 119q33 65 33 141q0 147 -78 217q-54 49 -141 76q-54 19 -160 39l49 467q200 -10 326 -76q1 17 10 66q1 13 4 34.5t4 30.5q-129 38 -331 45l24 226h-39q-12 2 -41 2q-2 -35 -10 -115l-12 -115
q-157 -11 -264 -59q-71 -35 -119 -109q-43 -69 -49 -151q0 -156 73 -234q50 -50 129 -82q77 -30 150 -41q-8 -91 -21 -198q-3 -31 -10 -97.5t-10 -101.5q-217 6 -377 115q-11 -106 -12 -109l-14 -106q164 -67 382 -74q-24 -144 -51 -291q107 0 160 -2zM600 743l-12 -10
q-92 10 -158 64q-76 59 -76 143q0 108 82 172q71 59 211 74q-5 -65 -22 -221zM670 580l12 8q89 -14 149 -60q72 -55 72 -135q0 -43 -14 -84q-20 -46 -64 -57q-65 -26 -178 -41l12 184q1 24 11 185z" />
    <glyph glyph-name="percent" unicode="%" horiz-adv-x="2031"
d="M1526 1487q-185 -238 -533 -744q-339 -496 -532 -743q23 1 68.5 2t68.5 2q186 242 530 746q305 447 535 743q-11 -1 -34 -2t-34 -2q-11 0 -34 -1t-35 -1zM604 1491h-10h-12q-62 0 -119.5 -23.5t-95.5 -68.5q-47 -58 -68 -146q-16 -71 -16 -157q0 -176 67 -275
q37 -54 99 -80q62 -24 131 -24q63 0 123 26.5t104 73.5q56 61 86 154q25 86 25 168q0 147 -74 239q-87 107 -240 113zM594 1384h10q90 -3 137 -79q43 -67 43 -160q0 -57 -16 -129q-20 -78 -61 -125q-50 -57 -123 -57q-92 0 -138 84q-36 63 -36 167v15q0 8 2 12v12
q0 93 43 172q50 88 139 88zM1542 774q-149 0 -237 -104v2q-61 -66 -86 -154q-25 -76 -25 -170q0 -152 74 -237q43 -58 116 -84q64 -27 144 -27q70 0 119 20q60 23 98 72q51 62 70 148q16 71 16 157q0 177 -72 273q-34 52 -91.5 78t-125.5 26zM1534 670q81 0 129 -76
q37 -62 37 -160q0 -113 -35 -184q-49 -107 -145 -107q-92 0 -146 70q-47 65 -47 160q0 112 45 192q55 105 162 105z" />
    <glyph glyph-name="ampersand" unicode="&#x26;" horiz-adv-x="1687"
d="M573 938q-7 8 -22 26t-24 29t-21 26.5t-21 29.5q-43 67 -43 127q0 96 72 155q71 55 168 55q136 0 305 -90l74 119q-162 66 -311 66q-185 0 -291 -86q-57 -45 -86 -115q-29 -72 -29 -139q0 -99 82 -236q-138 -95 -213 -221q-86 -143 -86 -293q0 -166 98 -264
q59 -62 158 -92q89 -27 186 -27q280 0 490 172q14 -16 71 -78l70 -75q46 -2 221 -17l-129 144q-86 94 -129 143q94 125 125 250q29 118 51 244h-77h-76q-17 -115 -43 -197q-32 -105 -90 -182q-36 39 -76 83t-88.5 98t-75.5 83q-160 176 -240 262zM461 852l233 -270
q113 -130 238 -271q-75 -63 -167 -98t-185 -35q-143 0 -230 72q-100 77 -100 217q0 110 59 215q53 91 152 170z" />
    <glyph glyph-name="quotesingle" unicode="'" horiz-adv-x="516"
d="M498 1485q-40 -12 -78 -12q-42 0 -72 12q-12 -259 -47 -537q45 10 80 10q32 0 70 -10q17 299 47 537z" />
    <glyph glyph-name="parenleft" unicode="(" horiz-adv-x="753"
d="M797 1538q-94 -16 -138 -16q-164 -194 -274 -398q-120 -223 -156 -446q-10 -130 -10 -229q0 -369 100 -662q113 -3 187 -18q-89 232 -103 446q-10 133 -10 236t6 208q22 219 142 461q84 170 256 418z" />
    <glyph glyph-name="parenright" unicode=")" horiz-adv-x="774"
d="M373 1561l6 -19q-3 1 -9.5 2t-9.5 2l5 4zM514 1528q129 -287 129 -674q0 -179 -25 -330q-32 -170 -104 -311q-108 -215 -240 -414q-109 0 -206 -20q156 217 256 420q117 237 149 456q12 132 12 263q0 346 -106 624q45 -6 135 -14z" />
    <glyph glyph-name="asterisk" unicode="*" horiz-adv-x="1175"
d="M1124 1249q-23 55 -32 80q-122 -75 -349 -207l37 371h-94q-2 -33 -7 -95t-7 -91q-3 -31 -8.5 -92.5t-8.5 -92.5q-29 19 -83 55l-72 48q-80 49 -156 102q-15 -22 -22 -39q-5 -7 -23 -39q176 -113 330 -196q-240 -127 -367 -199l19 -39q3 -7 16 -39q14 9 77 47t95 58t93 55
t81 47q-5 -75 -16 -184l-19 -187h94q6 97 15 187q2 28 7 90t7 94q156 -102 309 -207q34 51 50 78q-108 69 -330 199q207 108 364 196z" />
    <glyph glyph-name="plus" unicode="+" horiz-adv-x="1499"
d="M897 1247h-147q-3 -44 -10.5 -133t-10.5 -133q-6 -88 -22 -268q-347 0 -523 4l-12 -150h260q86 2 260 2q-5 -82 -22 -268q-14 -124 -27 -266h148q13 184 20 266q3 45 10 134t10 134h263q43 0 129.5 -1t130.5 -1l12 150q-174 -4 -520 -4q20 260 51 534z" />
    <glyph glyph-name="comma" unicode="," horiz-adv-x="577"
d="M113 225l-13 -198q-10 -26 -30.5 -77t-30.5 -77q-24 -60 -66 -152q31 7 56 7q8 1 26 2t27 2q55 63 121 149l114 154q13 109 29 198q-98 -10 -172 -10h-31q-20 0 -30 2z" />
    <glyph glyph-name="hyphen" unicode="-" horiz-adv-x="821"
d="M168 633q2 -12 2 -41q0 -56 -27 -103q261 9 516 9q-6 21 -6 43q0 52 29 102q-375 -10 -446 -10h-33h-35z" />
    <glyph glyph-name="period" unicode="." horiz-adv-x="618"
d="M98 313v-37q0 -139 -26 -266q70 6 141 6q69 0 139 -6q-2 6 -2 21v20q0 123 29 262q-73 -6 -150 -6q-67 0 -131 6z" />
    <glyph glyph-name="slash" unicode="/" horiz-adv-x="796"
d="M709 1444q-107 -229 -359 -811q-275 -640 -356 -813q71 10 209 18q98 237 315 811q178 475 320 809q-43 -6 -129 -14z" />
    <glyph glyph-name="zero" unicode="0" horiz-adv-x="1267"
d="M762 1481q78 1 141.5 -18.5t106.5 -54.5t76.5 -83.5t51 -105.5t29.5 -121t12 -130t-1 -132q-3 -76 -12 -150t-27.5 -158t-45.5 -156.5t-69.5 -140t-95.5 -115.5t-126.5 -77t-160.5 -29q-83 -2 -149.5 18.5t-110.5 58.5t-77 90.5t-49 115t-26.5 130.5t-9.5 137t2 136
q4 75 14.5 147t30.5 151.5t48.5 148.5t71.5 132t95.5 108t124.5 71.5t156 26.5zM1018 856q7 51 11.5 98t4 105.5t-8 107.5t-26 97.5t-47.5 82t-76 54t-108 20.5q-76 3 -136.5 -30t-97.5 -84t-63 -124t-37.5 -136t-17.5 -134q-4 -46 -6 -74.5t-4 -80t0.5 -85.5t8.5 -81
t17.5 -78.5t31.5 -66t46.5 -54.5t65 -33.5t86.5 -13.5q50 -24 119 23.5t112 103.5q91 135 125 383zM727 1071q60 0 76.5 -57.5t5.5 -173.5q-5 -44 -16.5 -80.5t-40 -66t-68.5 -29.5q-30 0 -50 17t-27.5 42.5t-10.5 57t2 59.5q4 49 11.5 86t21.5 72.5t38 54t58 18.5z" />
    <glyph glyph-name="one" unicode="1" horiz-adv-x="1341"
d="M272 272q-31 -227 -36 -258q217 25 413 25q199 0 426 -29v35q0 73 4 225q-88 10 -313 19q46 624 106 1167q-16 -2 -49 -2h-47h-47h-47q-249 -38 -348 -41q-2 -29 -2 -82q0 -13 -1 -40t-1 -42q146 12 348 47q-43 -537 -86 -1007q-119 -2 -320 -17z" />
    <glyph glyph-name="two" unicode="2" horiz-adv-x="1386"
d="M662 299q-5 5 -5 6l-6 6q43 124 185 258q28 27 82 81l81 81h-2q92 105 136 199q53 109 53 223q0 148 -94 227q-65 54 -162 80q-92 21 -187 21q-65 0 -143 -12t-126.5 -23t-141.5 -35q0 -60 -4 -178q222 100 405 100q119 0 191 -55q84 -68 84 -178q0 -83 -56 -180v2
q-46 -81 -143 -181h2q-88 -85 -236 -186q-213 -159 -339 -268l-43 -277q255 29 473 29q209 0 454 -29q0 181 4 271q-176 18 -462 18z" />
    <glyph glyph-name="three" unicode="3" horiz-adv-x="1318"
d="M885 793q0 8 2 10v10q124 23 209 133q78 108 78 236q0 165 -148 239q-112 60 -293 60q-138 0 -393 -39q-2 -25 -2 -70q0 -12 -1 -34t-1 -33q208 49 369 49q111 0 190 -35q102 -55 102 -166q0 -125 -90 -199q-83 -71 -207 -71q-63 0 -94 2h-94q-1 -11 -3 -34.5t-3 -35.5
l-6 -72h51h90q47 0 90 -6q105 -14 164 -65q78 -74 78 -162q0 -44 -37 -90q-16 -22 -74 -68q-53 -46 -147 -67q-66 -15 -162 -15q-207 0 -338 72q-11 -110 -41 -291q168 -43 344 -43q143 0 240 19q137 27 231 94q82 65 119 170q31 89 31 201t-58 200q-64 94 -196 101z" />
    <glyph glyph-name="four" unicode="4" horiz-adv-x="1320"
d="M813 1454q-304 -400 -666 -907l-12 -115q258 12 514 12h105l-25 -202q-5 -55 -22 -205q144 0 249 -10q-4 184 -4 274q0 92 2 139q16 -1 48.5 -2t48.5 -2q28 0 94 -4l6 76q0 12 1 36t1 38q-61 0 -92 2h-96q35 517 88 880q-160 -8 -240 -10zM864 1395q-48 -371 -88 -809
q-329 0 -497 -4q409 581 585 813z" />
    <glyph glyph-name="five" unicode="5" horiz-adv-x="1288"
d="M346 1475q-6 -341 -37 -717q141 63 301 63q152 0 244 -65q84 -67 84 -205q0 -64 -31 -115q-19 -35 -76 -88q-53 -48 -137 -72q-76 -18 -151 -18q-201 0 -336 74q-11 -82 -21 -144q-5 -41 -22 -145q152 -35 356 -35q131 0 228 23q119 23 208 94q90 70 127 186
q33 98 33 217q0 197 -104 312q-61 64 -162 98q-91 27 -195 27q-59 0 -196 -29q15 198 24 395q129 -6 260 -6q190 0 357 14q9 49 10 66q2 27 10 65q-188 -18 -375 -18q-208 0 -399 23z" />
    <glyph glyph-name="six" unicode="6" horiz-adv-x="1306"
d="M1040 842q51 -56 74 -144q21 -77 21 -161q0 -113 -29 -215q-38 -120 -117 -193q-74 -71 -176 -96q-91 -23 -195 -23q-116 0 -202 41q-100 48 -146 135q-73 135 -73 361q0 232 32 379q46 223 166 362q82 99 221 152q111 41 261 41q113 0 268 -37q-19 -127 -23 -162
q-127 53 -264 53q-99 0 -176 -28q-93 -33 -152 -103q-69 -86 -108 -211q-28 -83 -47 -223q66 91 160 143q100 54 200 54q85 0 170 -29q82 -31 135 -96zM1153 1442l-8 2q0 4 2 6zM961 510v22q0 131 -58 207q-60 92 -201 92q-133 0 -219 -92q-50 -56 -75 -133
q-27 -74 -27 -145q0 -102 92 -152q74 -39 189 -39q116 0 196 49q97 60 103 166v25z" />
    <glyph glyph-name="seven" unicode="7" horiz-adv-x="1234"
d="M348 1485v-66q0 -45 -2 -65q193 -27 432 -27q160 0 324 12q-107 -199 -328 -655q-231 -465 -332 -653q107 8 238 8h51q35 0 51 -2q23 67 64 191.5t51 154.5q31 96 115 344q141 414 254 682l6 39q2 12 6 37q-264 -33 -479 -33q-236 0 -451 33z" />
    <glyph glyph-name="eight" unicode="8" horiz-adv-x="1320"
d="M487 801l-2 -19q-145 -30 -229 -127q-57 -55 -88 -145q-27 -80 -27 -164q0 -163 97 -240q71 -55 172 -77q94 -21 196 -21q112 0 199 21q107 23 184 80q76 52 115 155q31 80 31 187q0 128 -78 219q-77 87 -199 114l2 17q125 23 203 139q70 104 70 236q0 127 -80 196
q-59 51 -150 74q-62 14 -170 14q-98 0 -174 -16q-99 -24 -162 -74h-2q-65 -51 -94 -129q-27 -71 -27 -154q0 -99 56 -184q62 -85 157 -102zM432 1159q3 105 96 168q82 55 193 55q110 0 178 -43q82 -52 82 -155q0 -116 -82 -195q-79 -82 -192 -82h-13q-8 0 -10 2
q-4 -2 -10 -2h-12q-91 0 -162 64q-72 62 -72 153q0 11 4 35zM670 737q135 3 211 -75q65 -71 65 -189q0 -98 -92 -174q-41 -36 -109 -53q-61 -15 -120 -15q-61 0 -117 15q-62 16 -102 53q-64 64 -64 129q-2 64 24.5 126.5t75.5 104.5q86 78 228 78z" />
    <glyph glyph-name="nine" unicode="9" horiz-adv-x="1304"
d="M1110 1313q80 -151 80 -379q0 -221 -35 -377q-51 -225 -166 -356q-83 -101 -217 -152q-116 -41 -258 -41q-132 0 -272 39q21 138 39 279q127 -56 264 -56q93 0 164 13q100 22 153 59q75 59 109 176q15 48 24 103q2 18 17 100q-66 -90 -158 -143q-100 -54 -203 -54
q-93 0 -170 29q-84 32 -137 96q-46 54 -70 144q-20 76 -20 165q0 116 31 213q33 116 112 189q72 66 176 96q88 25 195 25q111 0 199 -39q98 -48 143 -129zM1032 948q21 67 21 146q0 125 -70 192q-47 49 -119 72q-60 16 -143 16q-161 0 -260 -88q-62 -55 -86 -127
q-25 -77 -25 -149q0 -60 17 -107q22 -57 65 -72q52 -22 109.5 -29t140.5 -9q154 0 252 38q69 27 98 117zM242 41q0 2 -6 8l6 -2v-6z" />
    <glyph glyph-name="colon" unicode=":" horiz-adv-x="677"
d="M264 1092q-4 -46 -8 -134q-2 -43 -10 -133q55 -12 112 -12q58 0 119 12q5 59 29 267q-67 -23 -125 -23q-56 0 -117 23zM201 297l-31 -287q72 21 125 21q61 0 117 -21q2 53 10 144q4 98 8 143q-49 8 -111 8q-40 0 -118 -8z" />
    <glyph glyph-name="semicolon" unicode=";" horiz-adv-x="641"
d="M258 1063q-1 -23 -4 -67.5t-4 -65.5q-11 -129 -12 -133q12 -2 32 -2h33q82 0 150 16q3 22 8 68t8 69l14 137q-74 -26 -157 -26q-45 0 -68 4zM193 213q-3 -43 -9 -88q-1 -14 -4 -43t-4 -45q-50 -148 -59 -176q-13 -33 -62 -178q47 17 125 24l99 164q38 59 100 162
q1 14 4 43.5t4 44.5l6 88q-43 4 -125 4h-37h-38z" />
    <glyph glyph-name="less" unicode="&#x3c;" horiz-adv-x="1562"
d="M1446 991q6 24 14.5 51.5t19 60t15.5 50.5q-270 -86 -641 -182q-248 -65 -649 -164q-5 -47 -33 -209q218 -115 565 -281q470 -230 566 -278q0 125 10 217q-192 100 -461 229q-169 78 -465 226q721 178 1059 280z" />
    <glyph glyph-name="equal" unicode="=" horiz-adv-x="1632"
d="M227 920q16 -80 19 -150q386 -4 577 -4q207 0 621 4q13 67 47 150q-405 -11 -653 -11q-332 0 -611 11zM229 543q-16 -99 -51 -181q394 11 643 11q241 0 621 -11q-23 85 -23 181q-360 4 -536 4q-216 0 -654 -4z" />
    <glyph glyph-name="greater" unicode="&#x3e;" horiz-adv-x="1560"
d="M293 1110q199 -107 463 -231q77 -37 465 -228q-198 -53 -527 -137q-307 -79 -524 -143q-35 -145 -61 -219q38 12 319 94q394 108 645 170q258 64 326 82q5 59 31 211q-214 110 -564 278q-396 194 -565 281q0 -14 -1 -40t-1 -38q-6 -44 -6 -80z" />
    <glyph glyph-name="question" unicode="?" horiz-adv-x="1071"
d="M668 424q1 19 4 59.5t4 61.5q3 68 22 117q3 8 17 32l22 31v-2l21 31q8 10 20 30l84 86q99 107 133 158q60 98 60 193q0 114 -74 182q-46 41 -125 61q-59 15 -145 15q-193 0 -381 -78q0 -13 -1 -35t-1 -33q-1 -11 -2 -33t-2 -34q190 102 342 102q94 0 153 -53
q66 -60 66 -152q0 -53 -62 -119q-36 -36 -110 -92h2q-36 -28 -51 -43l-54 -43v2q-28 -24 -65 -67q-58 -61 -80 -154q-17 -68 -23 -149l-6 -78q78 4 232 4zM416 279q-2 -22 -7.5 -65t-7.5 -64q-12 -84 -16 -130q105 9 207 9h39q8 88 10 127t10 127h-41q-68 0 -194 -4z" />
    <glyph glyph-name="at" unicode="@" horiz-adv-x="1939"
d="M1233 276l-6 -83q-1 -13 -3 -41t-3 -41q118 0 215 32q117 38 192 111q91 81 141 227q39 124 39 258q0 211 -100 367q-94 143 -258 217q-160 74 -350 74q-175 0 -352 -60q-187 -68 -316 -180q-142 -136 -215 -336q-65 -181 -65 -385q0 -152 38 -276q46 -140 136 -240
q103 -118 264 -176q149 -57 325 -57q317 0 564 178q-24 46 -72 160q-197 -142 -471 -142q-150 0 -268 35q-135 40 -222 137q-5 7 -31.5 42t-35.5 48t-28 40.5t-32 50.5t-24 47q-31 66 -31 170q0 212 88 395q95 199 275 305h-2q201 123 450 123q162 0 303 -66
q152 -71 234 -188q82 -131 82 -299q0 -91 -25 -186q-26 -98 -84 -177q-85 -110 -242 -133q21 311 66 715q-39 -2 -117 -2l-6 -72q-4 -25 -8 -71q-51 73 -121 114q-76 45 -166 45q-168 0 -276 -114q-69 -72 -101 -172q-26 -91 -26 -193q0 -154 74 -248q80 -114 258 -114
q90 0 172 45q84 44 141 116zM700 614q15 131 86 197q77 74 193 74q106 0 172 -60q68 -65 68 -172q0 -150 -89 -239q-72 -72 -190 -72q-108 0 -172 61q-70 63 -70 175q0 6 1 18t1 18z" />
    <glyph glyph-name="A" unicode="A" horiz-adv-x="1640"
d="M920 1454h-177q-80 -165 -170 -362l-170 -367q-211 -444 -368 -715l250 19q68 139 108 239q226 4 332 4q108 0 334 -4q20 -120 51 -239q110 -5 264 -19q-81 193 -133 355q-87 260 -217 725zM817 1315q42 -166 98 -418q83 -343 101 -416h-135h-138q-180 0 -272 -2
q127 299 174 418q75 188 172 418z" />
    <glyph glyph-name="B" unicode="B" horiz-adv-x="1470"
d="M348 1485q0 -751 -129 -1475q258 29 531 29q112 0 200 16q105 19 191 74q85 60 116 152q31 80 31 184q0 132 -98 227q-93 90 -232 103v16q126 11 203 127q68 103 68 231q0 81 -41 146q-46 69 -127 98q-90 37 -258 41q-276 4 -455 31zM524 1352q183 -11 303 -11
q115 0 185 -45q86 -59 86 -172q0 -54 -21 -110q-28 -67 -82 -103q-72 -51 -209 -51h-145q-23 0 -71.5 1t-73.5 1q18 207 28 490zM483 723h316q63 0 121 -12q63 -16 104 -54q21 -19 33.5 -33.5t23.5 -37.5t11 -47q0 -53 -21 -109q-26 -56 -72 -84q-84 -43 -237 -43
q-160 0 -324 -6q2 21 12 96t13 117q3 36 10 106.5t10 106.5z" />
    <glyph glyph-name="C" unicode="C" horiz-adv-x="1521"
d="M555 1196q-93 -98 -139 -256q-35 -117 -35 -270q0 -95 18 -158q27 -79 80 -127q73 -59 185 -82q85 -18 204 -18q113 0 222 41q114 43 198 118q-8 -131 -8 -290v-33q-186 -113 -438 -113q-158 0 -285 41q-148 49 -235 148q-69 86 -97 202q-26 94 -26 230q0 191 43 346
q51 192 174 315q102 102 266 154q132 37 297 37q107 0 219 -25q108 -25 193 -86q-26 -156 -29 -182q-74 74 -177 112.5t-216 38.5q-118 0 -219 -28q-121 -39 -195 -115zM1393 1376q0 -2 1 -4.5t1 -3.5l-4 2q0 4 2 6z" />
    <glyph glyph-name="D" unicode="D" horiz-adv-x="1601"
d="M348 1485v-66v-63q0 -688 -129 -1346q179 18 408 25q209 8 325 33q185 39 305 133q131 113 189 331q39 157 39 359q0 123 -27 217q-29 109 -102 182q-107 99 -283 133q-113 25 -323 33q-214 6 -402 29zM535 1323q168 -8 247 -8q145 -8 236 -31q125 -30 205 -115
q49 -55 73 -141q19 -69 19 -164q0 -32 -4 -98q-46 -128 -70 -168q-50 -90 -119 -139q-55 -30 -98 -43q-97 -28 -213 -31q-74 -4 -106 -4l-244 -6q55 443 74 948z" />
    <glyph glyph-name="E" unicode="E" horiz-adv-x="1427"
d="M348 1485q-9 -771 -129 -1475q258 29 477 29q217 0 465 -29q0 195 4 291q-196 16 -444 16q-142 0 -283 -6q30 253 41 410q223 0 334 2h334q1 6 3 32t3 42q4 46 8 73q-211 -6 -420 -6q-42 0 -124.5 1t-124.5 1q19 238 30 451q128 -8 289 -8q229 0 436 20q2 29 13 78l12 76
q-245 -31 -467 -31q-239 0 -457 33z" />
    <glyph glyph-name="F" unicode="F" horiz-adv-x="1118"
d="M346 1479q-40 -782 -168 -1469q107 16 234 23q7 79 49 651h178h178h90h88q2 15 5.5 46.5t5.5 47.5q4 60 8 92q-246 -4 -367 -4q-59 0 -90 2h-90q32 254 49 435q76 -5 182 -5q226 0 422 25l25 162q-239 -33 -432 -33q-185 0 -367 27z" />
    <glyph glyph-name="G" unicode="G" horiz-adv-x="1615"
d="M1190 467l-6 -84q0 -2 -2 -4q0 -2 -2 -4q-28 -28 -64 -39q-68 -28 -164 -31q-55 0 -80 -2q-120 4 -202 21q-116 21 -185 71q-58 50 -82 140q-18 60 -18 167q0 150 35 267q46 155 137 252q80 77 201 110q100 27 223 27q128 0 240 -37q116 -41 202 -121l13 84q5 26 14 84
q-102 65 -225 90q-118 23 -250 23q-167 0 -293 -39q-163 -48 -262 -150q-89 -84 -139 -205q-47 -111 -66 -241q-16 -107 -16 -232q0 -131 26 -225q29 -115 99 -194q84 -102 241 -150q119 -35 291 -35q149 0 270 31q131 27 252 104q0 272 29 596h-250q-82 -2 -248 -2
l-14 -188h149q101 0 150 -2q0 -28 -4 -82z" />
    <glyph glyph-name="H" unicode="H" horiz-adv-x="1601"
d="M346 1483q-6 -781 -147 -1473l211 19q41 268 63 487q226 4 336 4q108 0 338 -4q-21 -287 -21 -487q163 -14 209 -19q-4 144 -4 215q0 605 115 1258q-32 -4 -96 -8q-16 -2 -49 -5.5t-50 -5.5q-50 -294 -84 -694q-80 0 -237.5 -1t-237.5 -1q-65 0 -98 2h-98q28 331 41 694
q-115 7 -191 19z" />
    <glyph glyph-name="I" unicode="I" horiz-adv-x="673"
d="M344 1468q-88 -912 -158 -1458q60 29 115 29q57 0 107 -29q39 710 108 1465q-41 -21 -94 -21q-43 0 -78 14z" />
    <glyph glyph-name="J" unicode="J" horiz-adv-x="815"
d="M549 1452q-64 -433 -176 -1360q-13 -87 -105 -141q-65 -41 -172 -60q-35 5 -43 5q-7 1 -21.5 2t-21.5 2q-14 -144 -33 -310q19 2 55.5 5.5t53.5 5.5h-2q13 2 42.5 7t45.5 7q59 11 90 20q105 29 164 80q68 68 94 168q22 74 33 187q86 795 188 1403q-67 -17 -192 -21z" />
    <glyph glyph-name="K" unicode="K" horiz-adv-x="1617"
d="M346 1479q-12 -735 -168 -1469q82 8 123 10q63 6 121 9q35 424 45 723q275 -465 440 -715q224 -3 445 -27q-183 196 -355 391q-346 387 -352 394l389 342q51 45 184.5 161.5t206.5 180.5q-149 -15 -231 -17q-60 -50 -180.5 -154.5t-182.5 -156.5q-63 -54 -356 -315
q36 332 53 628q-95 6 -182 15z" />
    <glyph glyph-name="L" unicode="L" horiz-adv-x="1363"
d="M346 1481q-18 -751 -147 -1471q251 29 465 29q219 0 436 -27q5 130 22 289q-188 16 -426 16q-135 0 -270 -6q75 608 100 1151q-47 2 -180 19z" />
    <glyph glyph-name="M" unicode="M" horiz-adv-x="1839"
d="M346 1481q0 -771 -158 -1471q204 15 238 17q84 623 84 1212v61h8q3 3 8 3q33 -103 74 -256q63 -240 129 -521q37 -159 64 -260h55h53h55h56q15 36 82 200t93.5 227t80 190t98.5 226t92 196q4 -2 8 -2q6 0 9 -3q-125 -699 -136 -1273q28 -1 236 -17q-12 169 -12 334
q0 558 110 1137l-266 -19q-126 -202 -246 -434q-43 -80 -121 -229.5t-110 -210.5q-156 504 -301 872q-145 9 -283 21z" />
    <glyph glyph-name="N" unicode="N" horiz-adv-x="1568"
d="M340 1450q-18 -737 -168 -1440q142 14 236 19q59 617 59 1210l16 4q71 -150 138 -303l131 -303q154 -359 276 -604q158 -10 275 -23q-3 27 -3 60v57q0 643 132 1358q-74 -10 -168 -17q-106 -562 -152 -1210q-53 111 -266 588q-163 364 -273 586q-76 4 -116 8
q-78 4 -117 10z" />
    <glyph glyph-name="O" unicode="O" horiz-adv-x="1597"
d="M907 1481q-147 0 -266 -43q-138 -47 -233 -150q-118 -124 -170 -323q-39 -150 -39 -351q0 -122 22 -221q28 -111 92 -194q71 -95 199 -146q119 -43 252 -43q148 0 272 41q140 46 238 150q117 134 166 323q45 160 45 350q0 111 -25 220q-23 104 -90 196q-70 98 -203 150
q-116 41 -260 41zM895 1339q101 0 188 -39.5t140 -115.5q80 -136 80 -338q0 -120 -23 -217q-42 -142 -131 -195v2q-132 -76 -340 -76q-89 0 -172 15q-92 16 -160 59q-51 33 -78 105q-18 53 -18 135q0 138 35 264q38 143 121 244q67 82 163 121q81 36 195 36z" />
    <glyph glyph-name="P" unicode="P"
d="M346 1477q-39 -777 -186 -1467q114 12 221 21q49 275 84 563q41 2 121 2h121q104 0 188 22q105 31 170 93q81 78 121 196q37 110 37 219q0 80 -27 148q-34 76 -94 115q-64 39 -154 53q-80 12 -168 12q-251 0 -434 23zM535 1395q86 -4 260 -4q113 0 188 -41
q98 -59 98 -185q0 -33 -2 -47q-3 -117 -98 -205q-94 -84 -211 -84q-49 0 -146.5 1t-146.5 1q19 158 58 564z" />
    <glyph glyph-name="Q" unicode="Q" horiz-adv-x="1816"
d="M1204 94v15q78 80 172 235q65 118 90 264q23 132 23 266q0 123 -25 220q-25 108 -92 190q-72 103 -213 152q-113 39 -270 39q-137 0 -256 -45q-139 -51 -225 -144q-111 -117 -164 -305q-43 -147 -43 -334q0 -278 123 -450q72 -98 202 -148q108 -43 254 -43q51 0 74 4
q52 -65 98 -119q18 -23 97 -116q235 -6 444 -29q-13 17 -143 174q-62 72 -146 174zM895 1333q108 0 186 -37q94 -45 144 -120q82 -129 82 -328q0 -146 -43 -254q-54 -128 -177 -188q-125 19 -219 65l-43 -63q-25 -41 -45 -66q-95 12 -164.5 32t-134.5 60q-57 35 -80 109
q-18 48 -18 139q0 147 35 258q38 141 119 238q131 155 358 155z" />
    <glyph glyph-name="R" unicode="R" horiz-adv-x="1622"
d="M967 698l2 13q120 37 186 166q55 107 55 239q0 84 -26 152q-38 78 -103 121q-106 61 -288 65q-270 7 -445 31v-66q0 -719 -129 -1409q138 15 223 19q50 331 74 612q51 2 152 2q113 0 180 -47q41 -35 72 -90q32 -63 49 -107q83 -252 127 -368q129 -6 262 -21
q-98 198 -184 404q-16 35 -35 82q-1 3 -43 77q-59 91 -129 119v6zM545 1380q58 -5 260 -10q121 0 213 -65h-2q76 -54 76 -189v-33q-2 -12 -2 -32q-8 -93 -117 -166q-100 -62 -207 -62h-125h-127q23 309 31 557z" />
    <glyph glyph-name="S" unicode="S" horiz-adv-x="1376"
d="M555 1286q-113 -69 -113 -205q0 -90 50 -137q64 -51 210 -82l91 -18q106 -21 176 -49q36 -15 80 -43q141 -102 141 -299q0 -101 -29 -187q-33 -98 -112 -155q-95 -63 -211 -82q-98 -19 -217 -19q-235 0 -451 64q28 175 43 293q188 -111 430 -111q165 0 264 63
q46 29 72 62q33 42 33 82q0 79 -76 135q-60 43 -158 68q-45 12 -80 18q-70 11 -143 33q-86 24 -147 63q-94 65 -121 160q-17 70 -17 127q0 89 31 174q39 93 111 143q83 56 184 78q90 19 197 19q209 0 417 -54q-2 -13 -4 -26.5t-4.5 -29.5t-3.5 -25l-12 -91q-199 84 -383 84
q-152 0 -248 -53zM1214 1432q3 -3 3 -7l-7 2q0 1 1 4.5t1 4.5z" />
    <glyph glyph-name="T" unicode="T" horiz-adv-x="1548"
d="M348 1485q0 -25 1 -76t1 -76q94 -8 285 -8q153 0 231 2q-66 -630 -153 -1290q50 0 75 2h76h58q35 0 55 -2q11 467 70 1292q68 -4 204 -4q156 0 312 6q9 56 28 154q-355 -33 -639 -33q-316 0 -604 33z" />
    <glyph glyph-name="U" unicode="U" horiz-adv-x="1515"
d="M346 1483v-70q0 -407 -45 -852q-6 -65 -6 -129q0 -92 18 -158q22 -82 74 -143q69 -72 180 -98q97 -25 213 -25q124 0 224 27q127 35 204 112q73 79 111 197q27 97 37 217q40 537 114 922q-29 -2 -92 -10q-8 -1 -40.5 -4t-51.5 -3q-40 -243 -90 -741q-7 -97 -29 -176
q-21 -93 -80 -164q-54 -60 -131 -82q-70 -20 -151 -20q-91 0 -150 20q-78 22 -118 82q-56 85 -56 231q0 35 4 109q34 366 43 739q-74 5 -182 19z" />
    <glyph glyph-name="V" unicode="V" horiz-adv-x="1640"
d="M647 401l86 -364q61 0 92 2h90h68q43 0 68 -2l147 366q96 238 152 365q174 416 338 717q-29 -4 -95 -8q-53 -6 -96 -9q-73 -121 -154 -270q-105 -191 -284 -553q-23 -46 -69 -139t-70 -139l-93 276q-43 141 -90 279q-94 282 -202 546q-106 7 -187 17q68 -198 115 -357
q81 -285 184 -727z" />
    <glyph glyph-name="W" unicode="W" horiz-adv-x="2166"
d="M518 1473l-170 12q94 -327 144 -719q45 -354 57 -739q200 8 301 8q172 342 373 794q12 -46 48.5 -191.5t54.5 -215.5t50.5 -182t63.5 -203q23 -1 69.5 -2t69.5 -2q45 0 139 -4q92 401 203 739q136 404 293 717l-86 -6q-58 -4 -88 -4q-228 -427 -467 -1090
q-71 186 -129 350q-70 201 -125 352h-158l-200 -342q-117 -204 -205 -342q-51 319 -97 541q-67 306 -141 529z" />
    <glyph glyph-name="X" unicode="X" horiz-adv-x="1658"
d="M346 1477q124 -232 379 -779q-310 -384 -571 -688q148 15 303 21q147 203 364 532q168 -343 273 -530q172 -10 299 -23q-29 41 -59 86t-53.5 80.5t-57.5 90t-51.5 82t-56 90.5t-50.5 82.5t-55.5 91t-51.5 85.5q330 507 533 783q-60 -4 -96 -8q-8 -1 -44 -4t-55 -3
q-206 -284 -438 -632q-170 355 -319 628l-97 6q-16 1 -48 4.5t-48 4.5z" />
    <glyph glyph-name="Y" unicode="Y" horiz-adv-x="1525"
d="M348 1485q70 -147 150 -336t118.5 -285t135.5 -342q-26 -265 -50 -485q49 0 74 2h74h53q35 0 53 -2q17 272 35 485q197 339 285 488q131 227 299 475q-121 -15 -197 -17q-179 -261 -483 -759q-234 520 -354 757q-51 3 -97 9q-27 2 -96 10z" />
    <glyph glyph-name="Z" unicode="Z" horiz-adv-x="1660"
d="M346 1481v-152q257 -20 543 -20q201 0 368 8q-530 -530 -1013 -1036q-42 -234 -49 -271q327 29 604 29q275 0 596 -29q-2 59 -2 180v52v49q-245 16 -553 16q-192 0 -385 -6q230 230 510 520q336 344 510 518q7 31 14 72l12 72q-289 -29 -596 -29q-277 0 -559 27z" />
    <glyph glyph-name="bracketleft" unicode="[" horiz-adv-x="929"
d="M360 1546q-55 -948 -157 -1806q103 35 207 35q103 0 196 -35l6 102q2 33 6 103q-81 24 -192 24h-39q30 316 125 1422q4 -2 16 -2h17q110 0 205 32q4 42 8 64q5 47 8 61q-109 -39 -213 -39q-105 0 -193 39z" />
    <glyph glyph-name="backslash" unicode="\" horiz-adv-x="1116"
d="M492 1450q-77 9 -146 33q37 -199 139 -826q81 -518 136 -825q54 -3 186 -37q-74 344 -160 828q-99 559 -155 827z" />
    <glyph glyph-name="bracketright" unicode="]" horiz-adv-x="929"
d="M766 1546q-109 -39 -213 -39q-105 0 -193 39q0 -25 -4 -61q0 -24 -4 -64q78 -32 193 -32h18q15 0 23 2q-56 -594 -127 -1432h-33q-107 0 -201 -25l-12 -98q-2 -29 -10 -96q103 35 207 35q103 0 196 -35q52 897 160 1806z" />
    <glyph glyph-name="asciicircum" unicode="^" horiz-adv-x="1533"
d="M971 1473h-150q-57 -50 -143 -136l-143 -135q-167 -157 -302 -256q48 0 142 4q23 0 69 1t70 1q26 26 100 109q74 84 183 225q80 101 92 115q33 -49 72 -115q60 -101 69 -115q80 -130 156 -217q24 -1 71 -2t70 -2q45 0 139 -4q-71 56 -133 121q-111 111 -243 270
q-96 110 -119 136z" />
    <glyph glyph-name="underscore" unicode="_" horiz-adv-x="1363"
d="M1012 -313q-372 -4 -553 -4q-162 0 -494 4q27 -27 27 -72q0 -52 -39 -88q348 4 520 4q174 0 522 -4q-26 23 -26 67q0 59 43 93z" />
    <glyph glyph-name="grave" unicode="`" horiz-adv-x="786"
d="M610 1534l-57 88q-119 0 -174 6q45 -74 86 -172q46 -107 78 -176h32q105 0 213 -6q-5 6 -28 36.5t-35 47.5q-55 81 -115 176z" />
    <glyph glyph-name="a" unicode="a" horiz-adv-x="1263"
d="M1026 639q6 53 6 109q0 174 -84 270q-54 54 -147 78q-71 18 -174 18q-172 0 -371 -61q0 -10 -1 -31t-1 -31q0 -41 -2 -61q152 71 346 71q65 -3 119 -20q58 -18 110 -61q58 -55 58 -154q0 -17 -4 -45l-2 -29q-41 -2 -125 -2h-125q-186 0 -316 -63q-93 -45 -145 -156
q-43 -92 -43 -205q0 -120 61 -184q80 -80 236 -80q132 0 233 45q120 52 187 154q0 -16 -1 -45t-1 -43q-1 -15 -2 -45t-2 -45q129 -9 161 -13v45v45q0 246 29 539zM770 582l-2 -52q-4 -17 -8 -59q-2 -22 -10 -61q-17 -66 -60 -109q-34 -26 -102 -41q-37 -6 -111 -6
q-79 0 -145 14q-33 8 -53 41q-19 32 -19 68q11 108 84 158q39 20 64 24q64 18 133 21q45 0 65 2h164z" />
    <glyph glyph-name="b" unicode="b" horiz-adv-x="1366"
d="M481 938h-12q25 201 53 588q-15 1 -42 4t-40 4q-53 4 -80 10q-10 -426 -23.5 -614t-66.5 -549l127 -162q41 -96 129 -153q86 -58 195 -58q4 0 8 2h8h17q88 -2 169.5 35.5t141.5 106.5q82 98 115 239q28 123 28 256q0 198 -86 326q-95 147 -274 147h-33q-101 0 -186 -49
q-96 -52 -144 -135q-2 0 -4 2zM1116 604v-2q-12 -60 -37 -125t-75 -106q-89 -60 -201 -66q-61 0 -119 17q-60 19 -104 65q-50 64 -58 209q18 194 109 307q84 111 241 111q135 0 197 -117q49 -93 49 -246v-22q-2 -8 -2 -25z" />
    <glyph glyph-name="c" unicode="c" horiz-adv-x="1204"
d="M768 1116q138 0 268 -47q-1 -12 -5 -34t-5 -34l-12 -71q-123 63 -273 63q-85 0 -159 -26q-84 -33 -136 -93q-55 -63 -84 -149q-24 -81 -30 -168q0 -64 14 -113q20 -59 62 -90q79 -54 247 -65l152 -4h12q69 0 131 30q-4 -55 -4 -161q0 -68 2 -105q-134 -49 -291 -49
q-119 0 -223 29q-118 33 -184 116q-94 112 -94 322q0 149 32 262q43 152 136 242q84 79 211 116q96 29 233 29zM1038 1075l4 -8l-6 2q0 4 2 6z" />
    <glyph glyph-name="d" unicode="d" horiz-adv-x="1325"
d="M961 944l-9 -2q-2 0 -5 -1t-5 -1q-32 82 -119 133q-75 47 -178 47h-29q-91 0 -165 -39q-90 -42 -140 -106q-86 -107 -127 -258q-32 -131 -32 -275q0 -176 75 -292q45 -68 120 -105t163 -37q6 0 10 2h10h15q106 0 207 56q96 57 153 153q-1 -16 -2 -47t-2 -47q0 -17 -1 -49
t-1 -47q42 -6 82 -9q52 -4 80 -8q11 736 158 1534q-31 -2 -84 -10l-82 -6q-62 -347 -92 -586zM262 580v2q11 107 45 194q42 107 105 164q79 72 182 72h24q83 0 140 -51q59 -50 78 -140q16 -71 16 -164q0 -87 -14 -149q-25 -101 -82 -143q-74 -48 -219 -52q-60 0 -111 11
q-60 13 -96 49q-64 69 -68 207z" />
    <glyph glyph-name="e" unicode="e" horiz-adv-x="1302"
d="M1096 874q14 -57 14 -153v-25v-20q0 -21 -2 -31q0 -9 -4 -29q-332 -4 -498 -4q-94 0 -141 2h-146q0 -12 -1 -37.5t-1 -39.5q0 -74 15 -123q21 -65 65 -99q65 -39 150 -55q71 -14 158 -14q117 0 176 6q95 7 166 43v-57v-58v-55q0 -39 2 -57q-192 -66 -402 -66
q-124 10 -215 37q-116 33 -180 108q-54 59 -80 150q-20 79 -20 172q0 134 38 258q46 150 129 240q75 75 185 112q85 31 209 35q117 -8 170 -24q92 -27 145 -80q47 -49 68 -136zM459 748h110q279 0 420 4q-6 120 -82 202q-81 84 -200 84q-161 0 -254 -90q-99 -83 -105 -198
q37 -2 111 -2z" />
    <glyph glyph-name="f" unicode="f" horiz-adv-x="927"
d="M827 1501q60 0 91 4q-1 -7 -11 -67q-1 -11 -4 -34t-4 -34q-8 -2 -29 -2h-28q-16 0 -46 1t-46 1q-74 -4 -109 -37q-15 -18 -24.5 -45.5t-11.5 -40.5t-7 -51v-49q0 -37 2 -53q157 3 279 14q-5 -37 -19 -162q-123 -8 -274 -8q-33 -560 -47 -899h-31h-33q-101 0 -182 -8
q58 373 119 909q-80 0 -156 6l6 82q5 68 6 82q51 -8 154 -12q7 31 14 82q15 111 47 174q45 85 166 125q59 19 117 22h31h30z" />
    <glyph glyph-name="g" unicode="g" horiz-adv-x="1292"
d="M1042 141q59 554 144 969q-15 -1 -43 -4t-41 -4l-82 -8q0 -2 -25 -97l-24 -96q-38 94 -127 150q-90 55 -197 55h-31q-91 0 -170 -33q-89 -37 -143 -102q-79 -89 -113 -230q-26 -109 -26 -243q0 -212 84 -332q43 -69 117 -106t161 -37q235 0 367 180q0 -7 -1 -22.5
t-1 -22.5q-4 -32 -4 -47q-27 -100 -117 -197q-45 -50 -127 -78q-67 -20 -143 -20q-169 0 -291 65q-23 -191 -41 -301q127 -35 305 -35q133 0 217 21q119 22 199 100q78 87 112 228q9 37 15.5 74.5t15 99t10.5 73.5zM860 575q-8 -87 -26 -135q-26 -73 -86 -108
q-94 -43 -232 -43q-140 0 -203 43q-21 21 -34 53q-22 53 -25 127q0 26 -4 66q7 95 24 159q29 94 74 148q40 49 102.5 74.5t129.5 25.5q132 0 206 -80q78 -84 78 -252q0 -51 -4 -78z" />
    <glyph glyph-name="h" unicode="h" horiz-adv-x="1411"
d="M1153 676q2 27 2 82q0 139 -47 233q-35 63 -109 101q-70 28 -147 28h-27q-107 0 -202 -61q-93 -56 -156 -152q31 275 57 617q-52 4 -164 16q-27 -782 -174 -1530q105 12 207 21q24 243 29 303q13 217 20 301q13 158 107 266q43 51 105.5 78t127.5 27q131 0 189 -103
q30 -67 30 -166q0 -45 -2 -65q-39 -365 -57 -641q49 -3 203 -21q-4 160 -4 238q0 214 12 428z" />
    <glyph glyph-name="i" unicode="i" horiz-adv-x="645"
d="M358 1538l-12 -102l-12 -105q30 -24 74 -24q42 0 84 22q6 55 6 107l6 102q-39 -22 -78 -22q-40 0 -68 22zM326 1104q-46 -515 -111 -1094q40 29 86 29t78 -29q43 634 82 1096q-38 -12 -72 -12q-30 0 -63 10z" />
    <glyph glyph-name="j" unicode="j" horiz-adv-x="698"
d="M492 1511q-16 -92 -17 -102q-3 -17 -8 -52t-8 -54q112 12 164 26l6 109q1 17 4 51.5t4 52.5q-54 -16 -145 -31zM408 1079q-49 -346 -66 -481q-12 -81 -33 -242.5t-33 -242.5q-6 -53 -18 -101q-9 -52 -43 -94h2q-17 -17 -49 -33q-51 -22 -115 -32q-16 -2 -53 -11l-18 -129
q-3 -22 -9.5 -65t-9.5 -64q53 18 90 23l92 18q113 30 172 82q53 50 76 131q19 60 27 148q61 551 135 1106q-86 -11 -147 -13z" />
    <glyph glyph-name="k" unicode="k" horiz-adv-x="1443"
d="M360 1540q-27 -782 -174 -1530l113 13q20 1 57.5 4t55.5 4l18 266q12 176 14 266q109 -155 385 -526q148 -3 349 -27q-142 157 -551 590q22 25 99 114t120 136q45 52 219 250q-5 0 -199 -6q-41 -42 -117 -123.5t-90 -96.5q-16 -18 -89.5 -99t-114.5 -124q49 462 69 873
q-52 4 -164 16z" />
    <glyph glyph-name="l" unicode="l" horiz-adv-x="770"
d="M358 1536q-60 -784 -151 -1526q79 29 153 29q119 0 207 -39q2 35 7.5 104.5t7.5 104.5q-121 31 -183 31q29 350 113 1276h-16h-17q-75 0 -121 20z" />
    <glyph glyph-name="m" unicode="m" horiz-adv-x="2050"
d="M1118 887q-4 0 -8.5 1t-7.5 1q-22 109 -127 176q-95 53 -223 53q-97 0 -185 -51q-90 -50 -135 -137l-8 4l-8 2q7 60 14 166q-24 0 -82 4q-14 0 -40 1t-40 1q2 -51 2 -152q0 -489 -141 -946q38 2 111.5 5t111.5 5q55 259 72 613q7 143 88 260q85 127 227 127q62 0 109 -19
q53 -19 88 -71q33 -60 33 -162q0 -43 -2 -66q-63 -344 -131 -671h235q17 283 53 600q14 163 103 268q45 58 112.5 86.5t141.5 28.5q75 0 111 -43.5t36 -136.5q0 -22 -4 -68l-6 -70q-66 -384 -66 -645v-31q39 0 117 -4l115 -6q-29 173 -29 361q0 161 17 305q8 90 8 135
q0 82 -23 164q-19 67 -86 110q-61 37 -141 37q-152 0 -244 -61q-97 -61 -168 -174z" />
    <glyph glyph-name="n" unicode="n" horiz-adv-x="1394"
d="M1128 676q2 25 2 74q0 142 -45 239q-34 66 -106 98q-65 29 -150 29q-195 0 -401 -151q0 46 2 69q0 47 2 72q-106 4 -162 12q-9 -583 -129 -1108q104 10 236 17q33 337 41 614q14 163 96 256q56 56 127 74q68 18 139 18q50 0 94 -18q51 -23 72 -68q25 -60 25 -135
q0 -30 -4 -92q-59 -387 -78 -649q135 -7 239 -17q-12 150 -12 303q0 181 12 363z" />
    <glyph glyph-name="o" unicode="o"
d="M684 1114q-114 0 -199 -31q-101 -32 -174 -108q-86 -98 -125 -254q-28 -114 -28 -270q0 -201 82 -310q53 -75 149 -108q80 -31 193 -31q111 0 200 31q105 29 172 110q88 96 127 256q29 107 29 271q0 196 -82 305q-59 77 -151 108q-82 31 -193 31zM674 1001
q70 0 129.5 -27.5t91.5 -82.5q53 -95 53 -234q0 -92 -14 -161q-25 -109 -94 -156q-90 -51 -230 -51q-141 0 -223 51q-38 25 -51 76q-12 46 -12 96q0 101 20 195q26 107 86 184q88 110 244 110z" />
    <glyph glyph-name="p" unicode="p" horiz-adv-x="1304"
d="M346 172l8 2q2 0 5.5 1t5.5 1q33 -84 116 -133q75 -47 181 -47h26q87 0 167.5 39t137.5 108q88 103 129 258q33 121 33 275q0 179 -76 291q-43 69 -119 105t-165 36h-29q-102 0 -197 -45q-96 -49 -151 -139l-6 4q-1 0 -4.5 1t-4.5 1l13 80q2 14 6 40.5t6 39.5
q-104 8 -162 16q-30 -777 -174 -1522q136 15 166 17q53 306 88 571zM1061 588q-2 -12 -7 -43.5t-9.5 -55t-10.5 -43.5q-23 -78 -78 -122q-85 -58 -221 -58q-130 0 -219 58q-40 29 -53 84q-14 46 -14 104q0 112 20 197q22 105 86 184q90 117 254 117q126 0 197 -101
q59 -85 59 -227q0 -32 -4 -94z" />
    <glyph glyph-name="q" unicode="q" horiz-adv-x="1366"
d="M897 178q-34 -283 -49 -573q89 -6 164 -17q0 24 15 42.5t34.5 27t37.5 17t23.5 13t-6.5 15.5q-56 40 -70 196t10 383t54.5 422.5t71.5 405.5q-27 -3 -82.5 -8t-83.5 -8l-25 -95q-18 -75 -22 -96q-45 99 -129 150q-86 55 -193 55h-35q-88 0 -170 -36.5t-141 -104.5
q-82 -105 -113 -234q-28 -120 -28 -252q0 -213 84 -340q42 -68 116.5 -106.5t161.5 -38.5h29q100 0 188 49q94 53 144 137q8 -4 14 -4zM258 580q7 87 29 161q23 88 71 152q39 51 100 79.5t126 28.5q164 3 235 -112q55 -94 55 -225q0 -101 -18 -175q-25 -113 -96 -165
q-95 -54 -228 -54q-142 0 -213 52q-63 56 -63 186q0 13 1 37t1 35z" />
    <glyph glyph-name="r" unicode="r" horiz-adv-x="882"
d="M815 944l25 166h-29q-71 0 -137 -14q-76 -20 -133 -54q-43 -24 -72 -38q-15 -8 -40.5 -24t-29.5 -19q0 21 4 61q0 9 5 59q-129 11 -144 13q-44 -591 -145 -1084q117 16 217 19q12 149 33 530q15 177 90 281q44 63 133 94q73 20 160 20q41 0 63 -10z" />
    <glyph glyph-name="s" unicode="s" horiz-adv-x="1155"
d="M635 1114q210 0 340 -41l-10 -61q-11 -67 -11 -70q-132 62 -325 62q-111 0 -185 -39q-96 -49 -96 -154q0 -67 58 -111q45 -37 120 -57q68 -19 115 -25q106 -28 131 -38q73 -31 115 -70q63 -60 63 -176q0 -74 -28 -141q-33 -75 -97 -113q-72 -48 -172 -64
q-69 -14 -178 -14q-168 0 -354 47q19 111 35 246q156 -84 338 -84h20q6 -2 14 -2h15q90 0 149 33q77 39 82 120q-26 59 -49 89q-46 35 -121 55q-14 4 -63 14q-7 1 -115 29q-60 12 -115 43q-73 42 -90 113q-10 39 -10 92q0 91 35 157q39 77 121 113q118 47 268 47zM981 1071
l-6 2q0 4 2 6z" />
    <glyph glyph-name="t" unicode="t" horiz-adv-x="1103"
d="M596 1360q-88 0 -176 6q-11 -119 -27 -270q-74 7 -125 14q-4 -46 -4 -61l-4 -64q46 -4 64 -4q23 0 63 -4q-13 -162 -63 -600q-5 -73 -5 -92q0 -121 58 -179q27 -24 61 -36q70 -27 148 -33l73 -6q16 -1 46.5 -4t44.5 -4l88 -13q0 86 8 254q-39 5 -170 15q-46 0 -82 8
q-45 10 -70 35q-24 37 -24 104q0 13 1 36t1 34q10 84 26 239l25 238h43q101 0 203 6q4 17 8 59l6 60q-108 -6 -211 -6h-39q16 139 33 268z" />
    <glyph glyph-name="u" unicode="u" horiz-adv-x="1341"
d="M238 442q-7 -61 -7 -104q0 -116 41 -211q35 -66 111 -98q68 -29 154 -29h26q105 0 209 61q98 61 160 156q-14 -120 -19 -194q33 -1 162 -11q3 557 121 1098q-68 -6 -197 -14q-43 -240 -65 -455q-25 -162 -111 -256t-243 -94q-115 0 -168 92q-35 69 -35 188v19v16
q19 262 22 492q-30 6 -65 6l-66 6v-43v-45q0 -288 -30 -580z" />
    <glyph glyph-name="v" unicode="v" horiz-adv-x="1361"
d="M268 1110q45 -117 90 -264q72 -236 148 -543q4 -15 29 -117t40 -155h74h74h55h53l117 272q51 128 117 275q139 312 264 532l-176 -12q-120 -205 -219 -404q-71 -138 -209 -407l-135 407q-65 194 -152 402l-84 6q-30 4 -86 8z" />
    <glyph glyph-name="w" unicode="w" horiz-adv-x="1777"
d="M268 1110q78 -235 129 -535q36 -223 64 -550q19 0 58 1t59 1q37 2 114 2q102 183 262 506q70 -242 166 -504q20 -1 60.5 -2t60.5 -2q21 0 61.5 -1t61.5 -1q74 315 156 553q97 288 227 532q-58 -4 -166 -8q-148 -282 -321 -787q-90 204 -173 418q-16 -2 -43 -2h-43h-145
q-93 -159 -121 -209q-115 -190 -125 -207q-78 484 -182 785q-26 2 -79.5 5t-80.5 5z" />
    <glyph glyph-name="x" unicode="x" horiz-adv-x="1468"
d="M1260 1108q-2 0 -164 -12q-191 -216 -383 -455q-124 218 -275 453q-19 1 -53.5 3t-63.5 4t-55 5q178 -276 338 -571q-218 -248 -485 -525q241 16 270 17q138 161 316 385q112 -204 229 -385q153 -7 268 -17q-175 214 -391 514q267 366 449 584z" />
    <glyph glyph-name="y" unicode="y" horiz-adv-x="1361"
d="M754 -84q83 177 139 301t139 301q164 348 297 592l-176 -18q-127 -209 -371 -650q-152 300 -344 650q-89 6 -170 18q137 -324 389 -1010q-29 -48 -47 -77l-45 -80q-8 -8 -24.5 -26t-24.5 -26q-63 -63 -108 -77q-55 -17 -121 -17q-11 -1 -32.5 -2t-31.5 -2
q-12 -76 -16 -110l-19 -113q29 4 95 8q102 3 186 29q84 25 149 100q46 51 97 137q7 14 21 39t18 33z" />
    <glyph glyph-name="z" unicode="z" horiz-adv-x="1271"
d="M266 1106v-119q148 -12 371 -12q146 0 293 6q-489 -455 -760 -717q-21 -153 -43 -254q225 21 448 21q243 0 431 -21q0 24 -1 71t-1 71v45q0 27 2 43q-193 12 -392 12q-71 0 -215 -4q118 118 344 352q58 63 340 354q4 19 13.5 73t15.5 83q-250 -23 -453 -23
q-186 0 -393 19z" />
    <glyph glyph-name="braceleft" unicode="{" horiz-adv-x="1155"
d="M821 -240l6 93q-8 0 -28 4q-5 1 -15 2t-14 2q-35 5 -47 8q-33 4 -47 10q-57 14 -82 45v-2q-35 46 -35 148l12 118q2 20 6.5 60t6.5 59v35q0 98 -25 162q-14 35 -53 59q-29 18 -78 33l2 16q106 22 154 86q35 57 45 105q12 64 33 227l12 121q4 13 8 47q4 33 10 47
q13 53 43 86q25 22 62 35q69 22 133 31q37 3 63 12q5 24 13 68t10 57q-51 -12 -98 -18l-103 -19q-113 -23 -192 -70q-55 -46 -78 -124q-17 -51 -29 -148q-2 -20 -5 -58t-5 -57q-9 -56 -12 -114q-6 -56 -21 -107q-15 -53 -53 -94q-42 -33 -98 -43q-52 -12 -105 -12l-20 2
q-8 2 -23 2q0 -22 -4 -62q-6 -30 -6 -61h8h16q6 -2 17 -2h6q49 0 98 -12q57 -17 80 -52q37 -57 37 -172q0 -68 -14 -168q-15 -103 -15 -165q0 -137 58 -205q39 -34 80 -47q73 -30 192 -45l90 -15q1 16 2 46t2 46z" />
    <glyph glyph-name="bar" unicode="|" horiz-adv-x="624"
d="M242 637h34h35h35q25 0 37 2q31 242 125 915q-56 -41 -125 -41h-14q-3 0 -8 1.5t-7 1.5q-5 -43 -25.5 -199t-29.5 -240q-9 -69 -28.5 -216t-28.5 -224zM262 -440l109 954h-72h-70q-68 -524 -139 -987q61 39 127 39q21 0 45 -6z" />
    <glyph glyph-name="braceright" unicode="}" horiz-adv-x="1171"
d="M215 -188q-3 -41 -8 -68q-2 -21 -10 -68q1 0 26 5q16 4 27 4q60 12 86 16q55 8 86 14q103 22 164 66q53 47 76 129q16 55 24 145l19 230q8 73 20 108q18 66 51 99q40 37 103 51q37 8 108 8h35l8 123h-22q-10 -2 -27 -2q-59 0 -98 10q-54 10 -86 45q-37 49 -37 143
q0 42 2 62l20 229q4 62 4 88q0 127 -57 189q-46 33 -84 47q-91 31 -192 43q-81 15 -93 18q0 -10 -1 -31t-1 -30q0 -12 -1 -33t-1 -31q9 -2 28.5 -5t27.5 -5q18 -2 65 -10q75 -17 119 -55q33 -43 33 -123q0 -67 -15 -191q-12 -126 -12 -190q0 -93 27 -135q35 -67 137 -89
l-2 -18q-111 -27 -154 -90q-29 -45 -41 -98q-12 -43 -16 -105q-21 -209 -23 -237q-8 -70 -16 -99q-13 -53 -47 -90q-31 -23 -59 -33q-57 -21 -134 -28q-16 -3 -59 -8z" />
    <glyph glyph-name="asciitilde" unicode="~" horiz-adv-x="1529"
d="M1423 817q7 -3 11 -6l-21 -12q2 3 5 9t5 9zM1341 756l72 43q-34 -64 -43 -133q-53 -39 -82 -64q-85 -70 -174 -106q-80 -34 -170 -7q-58 15 -135 56l-68 30h2q-136 78 -231 82q-81 -3 -176 -65q-111 -77 -207 -133q49 76 55 182q73 61 158 98q86 39 174 39q134 0 260 -55
q6 -6 15 -6q5 -1 11.5 -4t8.5 -4q53 -22 78.5 -31.5t70.5 -20t84 -10.5q91 0 203 55q6 3 94 54z" />
    <glyph glyph-name="uni00A0" unicode="&#xa0;" horiz-adv-x="1603"
 />
    <glyph glyph-name="exclamdown" unicode="&#xa1;" horiz-adv-x="716"
d="M543 1225l26 256q-50 -27 -116 -27q-55 0 -107 25q-4 -41 -8 -127q-2 -22 -5 -63.5t-5 -63.5q52 -19 102 -19q43 0 113 19zM451 8q20 364 41 647l6 170q0 87 6 172q-66 -8 -94 -8q-40 0 -80 6l-25 -170q-4 -28 -12 -85.5t-12 -86.5q-39 -363 -74 -643q63 29 125 29
q65 0 119 -31z" />
    <glyph glyph-name="cent" unicode="&#xa2;" horiz-adv-x="1185"
d="M774 1104q151 -7 256 -51q-1 -9 -3 -28t-3 -28q-1 -10 -4 -30.5t-4 -30.5q-118 62 -256 68q-28 -228 -86 -805q143 6 268 63q-4 -72 -8 -112q-4 -35 -8 -113q-106 -40 -271 -47l-12 -137q-8 -89 -10 -138q-7 1 -21 2t-20 2q-29 0 -41 2l12 140q2 22 6 68l6 69
q-110 10 -190 47q-102 46 -152 115q-79 109 -79 299q0 143 32 256q43 147 129 233q69 72 177 113q83 29 200 43q15 111 17 137q13 98 16 139h43h41q-30 -230 -35 -276zM1034 1055q2 0 2 -4l-6 2q0 4 2 6q2 -2 2 -4zM639 606q6 65 41 393q-119 -6 -205 -88q-74 -69 -119 -188
q-37 -107 -37 -215q0 -132 74 -209q70 -76 195 -92q2 0 6 4l4 4q8 85 41 391z" />
    <glyph glyph-name="sterling" unicode="&#xa3;" horiz-adv-x="1286"
d="M901 1475q117 0 256 -39q-7 -46 -14 -76l-17 -84q-125 61 -231 61q-58 0 -123 -20q-59 -17 -108 -66q-47 -56 -66 -133q-18 -85 -23 -143q-5 -32 -14 -109q-2 -17 -5 -52.5t-5 -53.5q184 -6 364 -6q-4 -36 -4 -52l-6 -49q-64 0 -182 4q-31 0 -92 1t-92 1l-25 -219
q-4 -34 -13.5 -107.5t-13.5 -111.5q306 0 537 -26q-1 -17 -2 -50.5t-2 -50.5q0 -16 -1 -49t-1 -49q-277 35 -549 35q-177 0 -424 -21q15 66 39 203q77 4 227 8q34 225 58 441q-31 0 -93 1t-94 1l13 102q15 0 46 -1t48 -1q61 0 92 -2l12 121q15 150 27 213q16 101 63 182
q19 37 60 78q65 60 172 92q91 27 186 27zM1159 1442l4 -8l-6 2q0 4 2 6z" />
    <glyph glyph-name="currency" unicode="&#xa4;" horiz-adv-x="1470"
d="M1018 973h-4h-6q-100 65 -220 65q-129 0 -233 -73q-34 38 -98 106l-99 105q-40 -40 -47 -48q-8 -9 -26 -25.5t-23 -21.5l96 -104q31 -37 97 -107q-93 -124 -93 -258q0 -95 50 -204q-172 -159 -230 -209q26 -30 39 -47q7 -10 21 -27.5l18 -22.5q115 103 119 107
q16 15 115 104q114 -71 225 -71q119 0 231 75q141 -149 201 -211q40 40 47 48l47 47q-75 75 -194 211q94 124 94 266q0 104 -47 196q20 20 112 107l115 104q-28 38 -39 50l-39 45q-80 -69 -229 -207zM1016 641q-9 -112 -90 -186q-83 -80 -193 -80q-103 0 -174 65
q-70 70 -70 172q0 123 84 207q83 86 199 86q105 0 174 -63q70 -67 70 -170v-17v-14z" />
    <glyph glyph-name="yen" unicode="&#xa5;" horiz-adv-x="1480"
d="M1305 428q0 22 4 72q0 23 4 69q-129 4 -389 4l4 64q38 59 49 78q35 54 47 78l307 2q0 19 4 51l6 51q-43 -2 -127 -2q-21 -1 -64 -2t-65 -2q212 341 388 594q-112 -14 -191 -19q-214 -322 -434 -696q-186 429 -316 696q-46 1 -184 19q171 -363 268 -594q-125 0 -251 6
q-5 -45 -5 -51q-1 -9 -2 -26t-2 -25q51 -2 154 -2h152q21 -41 45 -78q24 -41 45 -78q-1 -6 -2 -17t-2 -16q0 -5 -1.5 -15.5t-1.5 -15.5q-127 0 -393 -4q-8 -94 -14 -141q262 8 395 8l-67 -399q46 0 69 2h70h49q35 0 51 -2q0 133 8 399q217 0 392 -8z" />
    <glyph glyph-name="brokenbar" unicode="&#xa6;" horiz-adv-x="671"
d="M485 1421q-30 -35 -79 -35t-70 35q-46 -566 -62 -737q27 -8 66 -8q15 0 43 3t33 3q57 624 69 739zM389 397q-18 4 -59 4q-53 0 -80 -4q-56 -603 -70 -737q38 33 78 33q48 0 74 -33q22 302 57 737z" />
    <glyph glyph-name="section" unicode="&#xa7;" horiz-adv-x="1107"
d="M770 915q110 -66 162 -155q26 -48 26 -111q0 -97 -57 -176q-54 -75 -145 -121q104 -100 104 -211q0 -69 -22 -123q-25 -63 -82 -100q-52 -39 -135 -57q-61 -15 -146 -15q-104 0 -291 35l13 94q2 16 6 47.5t6 47.5q155 -56 268 -56q74 0 135 17q44 11 68.5 44t24.5 72
q-10 68 -87 134q-41 35 -135 88h2q-139 82 -190 127q-96 89 -96 198q0 96 57 178q53 77 145 119q-49 39 -77.5 95t-28.5 118t24 117q28 54 80 88q54 38 136 55q61 13 141 13q139 0 276 -35q-4 -44 -8 -68q-2 -23 -10 -74q-159 56 -275 56q-75 0 -137 -35q-69 -48 -69 -117
q10 -70 86 -139q52 -48 135 -90q70 -45 96 -60zM958 1440l-6 2q0 4 2 6zM778 514q47 53 47 113q0 96 -120 190q-47 36 -111 74q-17 9 -55 31t-56 32h-10q-55 -36 -94 -84q-43 -53 -43 -112q0 -69 61 -133q34 -40 138 -107l75 -45q9 -5 72 -43q57 40 96 84z" />
    <glyph glyph-name="dieresis" unicode="&#xa8;" horiz-adv-x="942"
d="M362 1559q13 -41 13 -76q0 -63 -31 -123q17 1 50 2t50 2h101q14 71 14 152v20v18q-65 0 -96 2q-51 0 -101 3zM782 1554q-18 -74 -18 -145v-23q0 -4 1 -11.5t1 -10.5q16 0 49 -1t49 -1q66 0 99 -2q-13 37 -13 76q0 63 31 123q-49 -3 -98 -3q-17 0 -51 -1t-50 -1z" />
    <glyph glyph-name="copyright" unicode="&#xa9;" horiz-adv-x="1683"
d="M1427 1247q144 -163 144 -422q0 -172 -55 -313q-59 -163 -179 -274q-108 -105 -245 -152q-128 -47 -281 -47q-146 0 -260 47q-132 56 -213 150q-143 164 -143 423q0 168 53 314q60 165 178 272q102 102 244 154q133 47 276 47q146 0 266 -47q131 -53 215 -152zM1448 549
q45 117 45 266q0 226 -129 373q-69 83 -190 135q-107 43 -236 43q-123 0 -244 -45q-118 -44 -213 -133q-103 -94 -159 -236q-54 -136 -54 -272q0 -104 35.5 -197t104.5 -159q177 -129 428 -129q250 0 448 129q110 80 164 225zM774 1139q86 24 176 24q121 0 244 -47
q-9 -58 -10 -74q-114 54 -240 54q-143 0 -231 -101q-50 -56 -76.5 -128.5t-26.5 -145.5q0 -117 92 -189q85 -63 205 -63q108 0 228 55q0 -12 -5 -80q-6 -40 -6 -79q-115 -48 -262 -48q-84 0 -164 25q-82 25 -137 86q-88 95 -88 254q0 104 33 199q32 100 108 170
q71 62 160 88zM1196 1114l-2 2v6z" />
    <glyph glyph-name="ordfeminine" unicode="&#xaa;" horiz-adv-x="1050"
d="M922 1165q6 37 6 76q0 122 -70 189q-46 35 -113 51q-51 10 -124 10q-152 0 -279 -41q-2 -16 -2 -51t-2 -51q140 48 254 51q91 -5 137 -25q80 -37 80 -131v-12q0 -10 -2 -14v-13q-61 -4 -184 -4q-163 0 -267 -61q-54 -35 -80 -101q-22 -54 -22 -120q0 -103 68 -154
q56 -45 157 -45q94 0 164 37q79 36 131 108l-8 -129q10 -1 30.5 -2t30.5 -2q20 0 60 -4q9 168 35 438zM664 1171q22 0 65 1.5t64 1.5q0 -3 -1 -9.5t-1 -9.5q0 -9 -3 -18q-10 -114 -79 -189q-71 -74 -187 -74q-60 0 -104 35q-47 41 -47 95q0 76 49 116q41 33 117 43
q17 2 127 8zM233 584q-8 -66 -16 -103q160 17 330 17q159 0 338 -19v13v30v31v14v15q-170 16 -324 16q-137 0 -328 -14z" />
    <glyph glyph-name="guillemotleft" unicode="&#xab;" horiz-adv-x="1196"
d="M1094 1004q-67 -54 -248 -193q-30 -24 -250 -197q-3 -8 -23 -53q-14 -22 -24 -53q279 -295 399 -414q6 38 39 205q-86 90 -129 137q-107 116 -131 142q65 49 166 131q27 21 164 129q12 66 37 166zM641 842l23 157q-292 -218 -476 -366q-9 -31 -20 -55q-16 -28 -25 -56
q167 -192 373 -401l31 100q20 66 28 101q-146 152 -253 270q191 151 319 250z" />
    <glyph glyph-name="logicalnot" unicode="&#xac;" horiz-adv-x="1662"
d="M213 854q17 -80 20 -172q526 0 1057 18q-59 -204 -59 -368q0 -11 2 -15v-14q38 -1 223 -6q-33 109 -33 233q0 156 56 322q-355 -10 -633 -10q-314 0 -633 12z" />
    <glyph glyph-name="softhyphen" unicode="&#xad;" horiz-adv-x="821"
d="M168 633q2 -12 2 -41q0 -56 -27 -103q261 9 516 9q-6 21 -6 43q0 52 29 102q-375 -10 -446 -10h-33h-35z" />
    <glyph glyph-name="registered" unicode="&#xae;" horiz-adv-x="1683"
d="M946 1446q-143 0 -276 -47q-142 -52 -244 -154q-118 -107 -178 -272q-53 -146 -53 -314q0 -259 143 -423q81 -94 213 -150q114 -47 260 -47q153 0 281 47q137 47 245 152q120 111 179 274q55 141 55 313q0 259 -144 422q-84 99 -215 152q-120 47 -266 47zM938 1366
q129 0 233 -39q119 -43 195 -125q131 -131 131 -348q0 -132 -54.5 -257t-154.5 -220q-91 -83 -207.5 -124.5t-240.5 -41.5q-237 0 -398 139q-168 148 -168 383q0 132 52 254q57 130 155 213q183 166 457 166zM899 1145q-86 0 -262 4q-24 -399 -70 -789q51 0 76 2h78h24
q2 34 17 173q9 120 14 170h31h31q24 -3 43 -19q36 -29 65 -82q5 -10 25 -45l51 -98q8 -16 25.5 -49t25.5 -50h72q25 -2 72 -2l-56 101q-8 17 -25.5 50.5t-25.5 49.5q-18 32 -23 43q-20 35 -24 41q-28 45 -70 68l2 14q91 13 148 76q59 62 59 151q0 99 -80 148q-79 43 -223 43
zM874 1114h64q88 -6 117 -16q67 -25 67 -103q0 -37 -12 -71q-13 -39 -45 -62q-50 -33 -154 -33h-125q6 73 15 144q8 94 10 139q43 0 63 2z" />
    <glyph glyph-name="macron" unicode="&#xaf;" horiz-adv-x="894"
d="M354 1516q13 -23 13 -54q0 -37 -25 -73q48 0 145.5 1t145.5 1q47 0 143 -1t146 -1q-15 17 -15 51q0 40 25 76q-144 -3 -289 -3t-289 3z" />
    <glyph glyph-name="degree" unicode="&#xb0;" horiz-adv-x="882"
d="M606 1499q-137 0 -221 -84q-47 -44 -74 -117q-22 -71 -22 -133q0 -115 57 -180q67 -78 207 -78q134 0 217 80q50 50 74 115q24 64 24 131q0 121 -73 194q-72 72 -189 72zM600 1442q71 0 121 -41q51 -45 51 -115q0 -81 -61 -139q-55 -55 -142 -55q-70 0 -123 43
q-51 44 -51 116q0 81 64 138q63 53 141 53z" />
    <glyph glyph-name="plusminus" unicode="&#xb1;" horiz-adv-x="1638"
d="M924 1247h-148q-5 -50 -14 -184q-3 -32 -8.5 -95t-8.5 -94q-320 4 -524 13q-1 -24 -4 -74t-4 -76q261 -6 520 -6q-13 -164 -33 -371h142q2 33 7 95.5t7 91.5q12 120 16 184q175 0 523 4q1 14 4 39t4 37q4 26 8 74q-221 -8 -526 -11q17 174 39 373zM143 180
q-8 -58 -32 -170q333 25 637 25q301 0 624 -25q-6 86 -6 170q-318 19 -602 19q-290 0 -621 -19z" />
    <glyph glyph-name="twosuperior" unicode="&#xb2;" horiz-adv-x="964"
d="M438 782q-4 14 -6 19q57 43 94 73l103 89q61 51 100 92q110 115 141 225q4 20 4 33q0 95 -94 145q-71 35 -182 35q-121 0 -256 -37v-49q0 -9 -1 -26t-1 -25q132 51 244 51q64 0 110 -35q51 -38 51 -96v-8v-11q-28 -63 -67 -114q-76 -94 -195 -191q-53 -44 -102 -90
q-32 -24 -51 -43l-51 -45q-1 -4 -3.5 -21t-3.5 -26q-2 -8 -5 -24.5t-5 -24.5q160 16 295 16q131 0 285 -16q-2 14 -2 47v47q-108 12 -271 12h-65q-43 0 -66 -2z" />
    <glyph glyph-name="threesuperior" unicode="&#xb3;" horiz-adv-x="925"
d="M688 1110l2 18q72 12 125 68q49 58 49 131q0 96 -94 135q-66 31 -180 31q-106 0 -246 -20v-13v-39q-2 -12 -2 -41q128 27 219 27q68 0 117 -21q59 -27 59 -86q0 -71 -59 -110q-52 -35 -127 -35h-16h-19h-61q0 -6 -1 -20t-1 -21l-7 -43h74h10h13q77 0 123 -33
q59 -39 59 -100q0 -88 -78 -135q-57 -37 -155 -37q-149 0 -228 33l-6 -47q-4 -32 -8 -50q117 -24 235 -24q91 4 140 12q66 11 139 53q45 31 65 86q19 49 19 103q0 71 -45 119q-47 50 -115 59z" />
    <glyph glyph-name="acute" unicode="&#xb4;" horiz-adv-x="741"
d="M625 1620q-107 -124 -164 -197q-82 -102 -166 -192l143 6q84 77 191 197q116 125 190 194q-31 -3 -194 -8z" />
    <glyph glyph-name="mu" unicode="&#xb5;" horiz-adv-x="1505"
d="M154 -414q92 10 163 15q29 207 58 536l16 4q23 -70 94 -108q56 -37 144 -37h22q90 0 164 47q75 44 125 119q0 -61 37 -117q33 -55 98 -55q22 0 45 10q37 12 88 47q8 4 22.5 13.5t22.5 13.5q0 21 4 61q0 14 5 64q-8 -2 -27 -11q-15 -6 -29 -6q-35 0 -71 19q-39 17 -39 55
v4q45 471 106 834l-82 -7q-14 -1 -41 -2t-41 -2q-31 -190 -57 -419q-9 -76 -29.5 -135.5t-66.5 -114.5q-82 -82 -215 -82q-70 0 -113 14q-58 19 -96 68q-47 66 -47 172q0 6 1 20t1 21q8 162 12 475q-54 4 -80 4q-13 1 -39.5 2t-40.5 2v-92q0 -749 -114 -1432z" />
    <glyph glyph-name="paragraph" unicode="&#xb6;" horiz-adv-x="1550"
d="M737 1450q-216 0 -340 -94q-72 -55 -102 -146q-29 -80 -29 -172q0 -157 88 -258q94 -104 203 -125q-90 -525 -156 -819q136 8 304 8q49 597 133 1506q136 0 204 4q-99 -796 -137 -1514q177 -6 336 -26q-76 589 -76 1382q0 44 1 132t1 132q-141 -10 -336 -10h-47h-47z" />
    <glyph glyph-name="periodcentered" unicode="&#xb7;" horiz-adv-x="520"
d="M209 827q0 -118 -23 -233q33 4 99 4q61 0 94 -4q0 122 20 233q-33 -4 -96 -4t-94 4z" />
    <glyph glyph-name="cedilla" unicode="&#xb8;" horiz-adv-x="667"
d="M279 -14q-31 -2 -95 -2q21 -35 30 -51.5t19.5 -48t10.5 -58.5q0 -45 -37 -78q-42 -29 -82 -29q-10 0 -12 2h-15q-74 0 -121 23l-6 -53q-2 -8 -5 -26.5t-5 -26.5q80 -17 148 -17q106 0 167 31q37 14 58 61q18 41 18 82q0 84 -73 191z" />
    <glyph glyph-name="onesuperior" unicode="&#xb9;" horiz-adv-x="946"
d="M303 768l-12 -88q129 12 256 12q147 0 276 -14q-2 6 -2 18v21v26q0 17 2 25q-85 10 -198 10q26 386 63 701h-31h-32h-62q-130 -21 -221 -23v-47q-2 -16 -2 -49q84 7 217 29q-16 -232 -53 -609q-22 -1 -63 -2.5t-74.5 -3.5t-63.5 -6z" />
    <glyph glyph-name="ordmasculine" unicode="&#xba;" horiz-adv-x="1075"
d="M664 1491q-80 0 -150 -23q-77 -23 -129 -75q-65 -62 -88 -156q-23 -82 -23 -174q0 -159 68 -246q80 -98 248 -98q78 0 145 20q82 28 127 78q69 69 99 178q24 79 24 193q0 133 -61 207q-44 52 -117 75q-68 21 -143 21zM657 1434h9q86 0 145 -56q55 -55 55 -147
q0 -120 -65 -203q-72 -92 -187 -92q-98 0 -153 61t-55 160q0 64 16 113q21 60 59 96q65 68 176 68zM258 586q-1 -10 -4 -27t-4 -24q-1 -10 -4 -27.5t-4 -24.5q166 15 336 15q164 0 331 -15v19v16v35v33q-159 12 -319 12q-166 0 -332 -12z" />
    <glyph glyph-name="guillemotright" unicode="&#xbb;" horiz-adv-x="1232"
d="M256 1059v-82q0 -28 -4 -82q43 -49 129 -143q52 -62 129 -146q-169 -126 -328 -254q-3 -102 -12 -207l250 191q27 20 113.5 85.5t134.5 100.5l-11 58q-1 8 -4 26t-4 29q-31 34 -173 188t-220 236zM688 1020q0 -2 -12 -80l-12 -80q22 -22 124 -135q44 -51 125 -139
q-212 -164 -321 -246q4 -70 4 -100q1 -17 2 -51t2 -50q216 158 471 359q-7 33 -10 57q-1 11 -4 30t-4 27l-181 205q-64 74 -184 203z" />
    <glyph glyph-name="onequarter" unicode="&#xbc;" horiz-adv-x="1753"
d="M1493 1511q-176 -238 -528 -757q-333 -496 -527 -760q-46 -4 -67 -4q-12 -1 -34 -4t-34 -4q199 274 485 700q-133 10 -241 10q-127 0 -256 -12l12 88q30 4 63.5 6t74.5 3.5t63 2.5q37 377 53 609q-133 -22 -217 -29q0 33 2 49v47q91 2 221 23h62h32h31q-37 -315 -63 -701
q113 0 198 -10q-2 -8 -2 -25v-12q1 1 3 4t3 4q350 516 527 758q113 10 139 14zM1470 289q41 0 64 -2q-2 -14 -2 -43q-1 -8 -2 -23t-2 -22q-2 0 -127 6q-6 -92 -6 -182q-82 4 -123 4q0 43 6 90q1 15 2 45t2 45h-80q-107 0 -315 -8l14 106q209 271 412 506q25 2 76 2
q13 1 38 2t37 2q-36 -219 -57 -526q20 -2 63 -2zM1202 291h86q14 177 43 442q-114 -130 -182 -221q-21 -27 -84 -103.5t-96 -119.5q78 2 233 2z" />
    <glyph glyph-name="onehalf" unicode="&#xbd;" horiz-adv-x="2070"
d="M1354 1497q113 10 139 14q-176 -238 -528 -757q-333 -496 -527 -760q-46 -4 -67 -4q-12 -1 -34 -4t-34 -4q199 274 485 700q-133 10 -241 10q-127 0 -256 -12l12 88q30 4 63.5 6t74.5 3.5t63 2.5q37 377 53 609q-133 -22 -217 -29q0 33 2 49v47q91 2 221 23h62h32h31
q-37 -315 -63 -701q113 0 198 -10q-2 -8 -2 -25v-12q1 1 3 4t3 4q350 516 527 758zM1593 297l-102 -88q-52 -39 -94 -76q3 -5 6 -16q20 2 65 2h66q150 0 270 -13v-47v-47q-160 17 -282 17q-128 0 -295 -17q2 9 5 25t5 24q0 24 6 48q3 3 51 45q12 12 52 43q45 42 102 90
q119 97 192 190q47 61 68 115q2 2 2 8v10q0 59 -51 97q-49 34 -113 34q-111 0 -243 -53q2 18 2 51q0 34 2 52q131 36 254 36q115 0 184 -34q92 -50 92 -148q0 -21 -2 -33q-31 -108 -141 -223q-35 -38 -101 -92z" />
    <glyph glyph-name="threequarters" unicode="&#xbe;" horiz-adv-x="1718"
d="M1321 1497q-146 -196 -526 -758q-309 -460 -527 -757q13 1 35.5 4t34.5 4q22 0 68 4q180 248 524 760q329 486 528 757q-22 -4 -137 -14zM688 1110l2 18q72 12 125 68q49 58 49 131q0 96 -94 135q-66 31 -180 31q-106 0 -246 -20v-13v-39q-2 -12 -2 -41q128 27 219 27
q68 0 117 -21q59 -27 59 -86q0 -71 -59 -110q-52 -35 -127 -35h-16h-19h-61q0 -6 -1 -20t-1 -21l-7 -43h74h10h13q77 0 123 -33q59 -39 59 -100q0 -88 -78 -135q-57 -37 -155 -37q-149 0 -228 33l-6 -47q-4 -32 -8 -50q117 -24 235 -24q91 4 140 12q66 11 139 53
q45 31 65 86q19 49 19 103q0 71 -45 119q-47 50 -115 59zM1278 811q-203 -235 -412 -506q-12 -104 -12 -106q208 8 313 8h82l-6 -90q-6 -47 -6 -90q43 0 125 -4q0 60 4 182q125 -6 127 -6q1 7 2 22t2 23q0 29 2 43q-20 2 -63 2q-44 0 -64 2q18 266 58 526q-13 -1 -38 -2
t-38 -2q-51 0 -76 -2zM1296 733q-21 -196 -41 -442h-86q-155 0 -235 -2l180 223q57 74 182 221z" />
    <glyph glyph-name="questiondown" unicode="&#xbf;" horiz-adv-x="1081"
d="M692 1229q11 109 27 227q-61 -4 -184 -4q-1 -22 -11 -113q-1 -19 -4 -56t-4 -56q117 0 176 2zM498 956l-6 -65q-7 -76 -62 -131q-62 -65 -156 -152q-51 -48 -88 -96q-88 -113 -88 -238q0 -142 117 -211q91 -55 242 -55q197 0 377 82q4 78 4 113q6 109 6 110
q-187 -106 -338 -106q-97 0 -152 39q-71 48 -71 135q0 65 39 123q29 44 88 96q51 45 71.5 64t56 58.5t58.5 74.5q25 43 33 131l12 139h-66h-67z" />
    <glyph glyph-name="Agrave" unicode="&#xc0;" horiz-adv-x="1640"
d="M674 1784q-80 0 -160 6q39 -46 96 -121q31 -41 97 -119q20 -2 63 -2q12 -1 33 -2t33 -2q-42 50 -84 119q-55 89 -78 121zM920 1454h-177q-80 -165 -170 -362l-170 -367q-211 -444 -368 -715l250 19q68 139 108 239q226 4 332 4q108 0 334 -4q20 -120 51 -239
q110 -5 264 -19q-81 193 -133 355q-87 260 -217 725zM817 1315q42 -166 98 -418q83 -343 101 -416h-135h-138q-180 0 -272 -2q127 299 174 418q75 188 172 418z" />
    <glyph glyph-name="Aacute" unicode="&#xc1;" horiz-adv-x="1640"
d="M948 1784q-41 -46 -98 -121q-44 -55 -105 -119q12 1 33 2t33 2q43 0 63 2q60 60 115 121q37 41 119 119q-79 -6 -160 -6zM920 1454h-177q-80 -165 -170 -362l-170 -367q-211 -444 -368 -715l250 19q68 139 108 239q226 4 332 4q108 0 334 -4q20 -120 51 -239
q110 -5 264 -19q-81 193 -133 355q-87 260 -217 725zM817 1315q42 -166 98 -418q83 -343 101 -416h-135h-138q-180 0 -272 -2q127 299 174 418q75 188 172 418z" />
    <glyph glyph-name="Acircumflex" unicode="&#xc2;" horiz-adv-x="1640"
d="M940 1806h-178q-16 -19 -50.5 -61t-52.5 -64q-55 -65 -112 -116q18 2 55 2q18 2 57 2q54 45 187 178l74 -92q40 -50 79 -86q40 0 58 -2q39 0 57 -2q-50 47 -94 114zM920 1454h-177q-80 -165 -170 -362l-170 -367q-211 -444 -368 -715l250 19q68 139 108 239q226 4 332 4
q108 0 334 -4q20 -120 51 -239q110 -5 264 -19q-81 193 -133 355q-87 260 -217 725zM817 1315q42 -166 98 -418q83 -343 101 -416h-135h-138q-180 0 -272 -2q127 299 174 418q75 188 172 418z" />
    <glyph glyph-name="Atilde" unicode="&#xc3;" horiz-adv-x="1640"
d="M707 1575q0 4 -29 4q-9 0 -32.5 -1t-39.5 -1q5 10 14.5 31.5t14.5 31.5q30 91 88 117q39 17 68 17h16q11 0 21.5 -1t22 -4t20 -5.5t21 -8t18.5 -8.5t20 -10.5t18 -10t19 -11.5t18 -11l14 -7t15 -7t13 -5.5t15 -4.5t15 -1q16 -14 47 17q12 12 39 55q6 12 6 21v2q16 2 49 2
q39 0 57 2q-5 -10 -14.5 -32t-15.5 -34q-34 -77 -86 -113q-30 -20 -68 -20q-68 0 -145 43q-16 7 -29 16q-32 25 -59 33q-15 6 -33 6q-39 0 -64 -35q-14 -18 -34 -67zM1149 1774h-6q3 3 6 0zM1241 365q52 -162 133 -355q-154 14 -264 19q-31 119 -51 239q-226 4 -334 4
q-106 0 -332 -4q-40 -100 -108 -239l-250 -19q157 271 368 715l170 367q90 197 170 362h177l104 -364q130 -465 217 -725zM881 481h135q-18 73 -101 416q-56 252 -98 418q-97 -230 -172 -418q-47 -119 -174 -418q92 2 272 2h138z" />
    <glyph glyph-name="Adieresis" unicode="&#xc4;" horiz-adv-x="1640"
d="M684 1761q10 -42 10 -71q0 -62 -26 -113q31 2 92 2h90q16 78 16 145v17q-2 6 -2 16q-59 0 -90 2q-59 0 -90 2zM1073 1757q-16 -72 -16 -133q0 -7 1 -22t1 -23h92q59 0 90 -2q-10 38 -10 70q0 61 26 114q-31 -2 -92 -2q-31 -2 -92 -2zM920 1454h-177q-80 -165 -170 -362
l-170 -367q-211 -444 -368 -715l250 19q68 139 108 239q226 4 332 4q108 0 334 -4q20 -120 51 -239q110 -5 264 -19q-81 193 -133 355q-87 260 -217 725zM817 1315q42 -166 98 -418q83 -343 101 -416h-135h-138q-180 0 -272 -2q127 299 174 418q75 188 172 418z" />
    <glyph glyph-name="Aring" unicode="&#xc5;" horiz-adv-x="1640"
d="M690 1380q-74 -161 -158 -346q-118 -255 -157 -344q-205 -428 -340 -680q16 2 48 5t48 5q44 3 96 9q61 122 183 381q246 4 366 4q195 0 291 -4q44 -155 121 -381q15 -1 45.5 -4.5t46.5 -4.5q69 -8 94 -10q-58 150 -119 336q-102 323 -202 688q-35 132 -97 346
q69 47 105 111q39 67 39 141q0 89 -66 158q-63 63 -162 63q-117 0 -202 -75q-84 -81 -84 -199q0 -60 28 -113.5t76 -85.5zM999 1597q-6 -63 -57 -108q-47 -47 -111 -47q-63 0 -104 41q-43 43 -43 102q0 70 51 121q53 47 121 47q60 0 102 -39q41 -41 41 -98v-8v-11zM817 1305
q90 -328 103 -375q74 -281 102 -375h-252q-195 0 -291 -2q143 313 170 375q60 137 168 377z" />
    <glyph glyph-name="AE" unicode="&#xc6;" horiz-adv-x="2131"
d="M1976 1483q-442 -29 -911 -29h-145q-97 0 -144 2l-172 -366q-55 -122 -174 -367q-205 -418 -395 -713q208 14 350 19l18 129q2 19 7.5 62t7.5 65q360 8 528 8q-1 -22 -4 -64.5t-4 -62.5l-12 -127q486 0 940 -29q-10 101 -17 242q-387 16 -729 16l13 146q2 49 10 143
q444 0 667 -4l7 76q4 46 4 73h-666q51 518 62 607q414 7 722 22q28 120 37 152zM895 1321h72h69q-70 -837 -75 -887q-153 0 -461 -4q109 222 202 444q77 184 193 447z" />
    <glyph glyph-name="Ccedilla" unicode="&#xc7;" horiz-adv-x="1521"
d="M555 1196q-93 -98 -139 -256q-35 -117 -35 -270q0 -95 18 -158q27 -79 80 -127q73 -59 185 -82q85 -18 204 -18q113 0 222 41q114 43 198 118q-8 -131 -8 -290v-33q-186 -113 -438 -113q-56 0 -111 6q33 -61 33 -120q0 -39 -19 -82q-20 -46 -57 -62q-61 -29 -170 -29
q-74 0 -145 15q2 8 5 26.5t5 26.5q6 52 6 53q45 -22 121 -22h12h13q50 0 81 28q37 29 37 76q0 49 -28 107q-12 3 -34 9t-34 9q-148 49 -235 148q-69 86 -97 202q-26 94 -26 230q0 191 43 346q51 192 174 315q102 102 266 154q132 37 297 37q107 0 219 -25q108 -25 193 -86
q-26 -156 -29 -182q-74 74 -177 112.5t-216 38.5q-118 0 -219 -28q-121 -39 -195 -115zM1393 1376q0 -2 1 -4.5t1 -3.5l-4 2q0 4 2 6z" />
    <glyph glyph-name="Egrave" unicode="&#xc8;" horiz-adv-x="1492"
d="M573 1784q-79 0 -159 6q74 -93 96 -121q39 -52 96 -119q20 -2 64 -2q10 -1 31.5 -2t31.5 -2q-35 41 -82 119q-43 70 -78 121zM416 1485q-9 -771 -129 -1475q258 29 477 29q217 0 465 -29q0 195 4 291q-200 16 -447 16q-139 0 -280 -6q36 348 41 410q223 0 334 2h333
q1 11 3.5 35.5t3.5 38.5q4 46 8 73q-211 -6 -420 -6q-42 0 -125 1t-125 1q22 276 31 451q125 -8 289 -8q229 0 436 20q2 21 10 78q7 30 14 76q-245 -31 -467 -31q-241 0 -456 33z" />
    <glyph glyph-name="Eacute" unicode="&#xc9;" horiz-adv-x="1427"
d="M680 1784q-41 -46 -98 -121q-44 -55 -105 -119q12 1 33 2t33 2q43 0 63 2q39 39 117 121q49 54 117 119q-79 -6 -160 -6zM348 1485q-9 -771 -129 -1475q258 29 477 29q217 0 465 -29q0 195 4 291q-196 16 -444 16q-142 0 -283 -6q30 253 41 410q223 0 334 2h334q1 6 3 32
t3 42q4 46 8 73q-211 -6 -420 -6q-42 0 -124.5 1t-124.5 1q19 238 30 451q128 -8 289 -8q229 0 436 20q2 29 13 78l12 76q-245 -31 -467 -31q-239 0 -457 33z" />
    <glyph glyph-name="Ecircumflex" unicode="&#xca;" horiz-adv-x="1427"
d="M817 1786h-176q-21 -23 -56 -66.5t-48 -58.5q-44 -55 -113 -117q18 2 57 2q18 2 56 2q24 19 50.5 44t43.5 41.5t48 48t44 44.5q52 -64 76 -92q28 -37 80 -86q37 0 57 -2q37 0 55 -2q-46 46 -94 117q-9 14 -36 58t-44 67zM348 1485q-9 -771 -129 -1475q258 29 477 29
q217 0 465 -29q0 195 4 291q-196 16 -444 16q-142 0 -283 -6q30 253 41 410q223 0 334 2h334q1 6 3 32t3 42q4 46 8 73q-211 -6 -420 -6q-42 0 -124.5 1t-124.5 1q19 238 30 451q128 -8 289 -8q229 0 436 20q2 29 13 78l12 76q-245 -31 -467 -31q-239 0 -457 33z" />
    <glyph glyph-name="Edieresis" unicode="&#xcb;" horiz-adv-x="1427"
d="M516 1761q12 -37 12 -71q0 -62 -26 -113q31 2 90 2h90q16 65 16 145v17v16q-61 0 -90 2q-59 0 -92 2zM907 1757q-16 -72 -16 -133q0 -29 2 -45h90q61 0 92 -2q-12 35 -12 70q0 60 29 114q-31 -2 -93 -2q-31 -2 -92 -2zM348 1485q-9 -771 -129 -1475q258 29 477 29
q217 0 465 -29q0 195 4 291q-196 16 -444 16q-142 0 -283 -6q30 253 41 410q223 0 334 2h334q1 6 3 32t3 42q4 46 8 73q-211 -6 -420 -6q-42 0 -124.5 1t-124.5 1q19 238 30 451q128 -8 289 -8q229 0 436 20q2 29 13 78l12 76q-245 -31 -467 -31q-239 0 -457 33z" />
    <glyph glyph-name="Igrave" unicode="&#xcc;" horiz-adv-x="1052"
d="M573 1784q-79 0 -159 6q74 -93 96 -121q39 -52 96 -119q20 -2 64 -2q10 -1 31.5 -2t31.5 -2q-35 41 -82 119q-43 70 -78 121zM723 1468q-82 -851 -160 -1458q60 29 117 29q53 0 106 -29q37 683 109 1465q-43 -21 -94 -21q-43 0 -78 14z" />
    <glyph glyph-name="Iacute" unicode="&#xcd;" horiz-adv-x="888"
d="M584 1884q-10 -13 -45.5 -55t-53.5 -66q-56 -69 -102 -118q10 1 31.5 2t31.5 2q44 0 64 2q55 52 117 121q55 61 116 116q-53 -4 -159 -4zM559 1468q-88 -912 -158 -1458q60 29 115 29q57 0 107 -29q39 711 108 1465q-41 -21 -94 -21q-43 0 -78 14z" />
    <glyph glyph-name="Icircumflex" unicode="&#xce;" horiz-adv-x="1021"
d="M870 1786h-178q-18 -21 -51.5 -62.5t-50.5 -62.5q-56 -65 -113 -117q18 2 58 2q18 2 55 2q24 19 50.5 44t43.5 41.5t48 48t44 44.5q52 -64 76 -92q34 -46 80 -86q37 0 55 -2q39 0 57 -2q-46 46 -94 117zM692 1468q-91 -943 -157 -1458q60 29 114 29q57 0 107 -29
q39 711 108 1465q-41 -21 -94 -21q-43 0 -78 14z" />
    <glyph glyph-name="Idieresis" unicode="&#xcf;" horiz-adv-x="897"
d="M408 1761q10 -42 10 -71q0 -60 -27 -113q31 2 90 2h92q17 83 17 145v17q-2 6 -2 16q-61 0 -90 2q-59 0 -90 2zM797 1757q-17 -77 -17 -133q0 -29 2 -45h92q60 0 91 -2q-13 37 -13 70q0 54 29 114q-31 -2 -92 -2q-31 -2 -92 -2zM545 1468q-88 -912 -158 -1458
q60 29 115 29q56 0 106 -29q39 669 109 1465q-41 -21 -94 -21q-43 0 -78 14z" />
    <glyph glyph-name="Eth" unicode="&#xd0;" horiz-adv-x="1671"
d="M422 1468q0 -347 -27 -637h-92q-47 3 -92 3q-1 -10 -2 -31t-2 -31l-6 -61h186q-31 -364 -92 -686q274 12 410 12q215 8 323 31q176 33 301 131q92 79 146 211q45 109 65 249q14 118 14 234q0 124 -24 217q-33 112 -103 182q-104 99 -278 133q-19 4 -40 7.5t-38 6
t-42.5 4.5t-39 3.5t-42.5 3t-39 1.5t-42 1.5t-39 1.5q-269 4 -405 14zM600 1317q41 -2 123 -2q41 -2 123 -2q144 -4 233 -27q124 -30 197 -106q96 -109 96 -320q0 -158 -31 -282q-44 -171 -143 -265q-84 -79 -215 -108q-90 -23 -235 -27q-84 0 -248 -4q36 279 59 537h158
h157l11 118h-316q17 197 31 488z" />
    <glyph glyph-name="Ntilde" unicode="&#xd1;" horiz-adv-x="1568"
d="M627 1575q0 4 -31 4q-9 0 -32.5 -1t-37.5 -1l27 63q35 93 88 117q39 17 68 17h16q11 0 22 -1t23 -4t20 -5.5t21 -8.5t19 -8t20 -10.5t17.5 -10.5t19.5 -11.5t18 -10.5q48 -25 72 -25q14 -14 45 17q23 23 39 55q6 12 6 21v2q16 2 51 2q38 0 58 2q-23 -46 -31 -66
q-41 -80 -86 -113q-33 -20 -70 -20q-66 0 -143 43q-13 5 -31 16q-32 24 -57 33q-18 6 -35 6q-36 0 -64 -35q-19 -24 -32 -67zM1067 1774h-6q6 3 6 0zM1300 127v-57q0 -33 3 -60q-117 13 -275 23q-122 245 -276 604l-131 303q-67 153 -138 303l-16 -4q0 -593 -59 -1210
q-94 -5 -236 -19q150 703 168 1440q39 -6 117 -10q40 -4 116 -8q110 -222 273 -586q213 -477 266 -588q46 648 152 1210q94 7 168 17q-132 -715 -132 -1358z" />
    <glyph glyph-name="Ograve" unicode="&#xd2;" horiz-adv-x="1597"
d="M729 1884q-107 0 -160 4q57 -64 99 -119q53 -70 96 -118q20 -2 63 -2q10 -1 32 -2t32 -2q-37 44 -82 118q-77 117 -80 121zM907 1481q-147 0 -266 -43q-138 -47 -233 -150q-118 -124 -170 -323q-39 -150 -39 -351q0 -122 22 -221q28 -111 92 -194q71 -95 199 -146
q119 -43 252 -43q148 0 272 41q140 46 238 150q117 134 166 323q45 160 45 350q0 111 -25 220q-23 104 -90 196q-70 98 -203 150q-116 41 -260 41zM895 1339q101 0 188 -39.5t140 -115.5q80 -136 80 -338q0 -120 -23 -217q-42 -142 -131 -195v2q-132 -76 -340 -76
q-89 0 -172 15q-92 16 -160 59q-51 33 -78 105q-18 53 -18 135q0 138 35 264q38 143 121 244q67 82 163 121q81 36 195 36z" />
    <glyph glyph-name="Oacute" unicode="&#xd3;" horiz-adv-x="1597"
d="M805 1884q-46 -53 -100 -121q-35 -46 -103 -118q10 1 32 2t32 2q43 0 63 2q55 52 117 121q51 56 117 116q-53 -4 -158 -4zM907 1481q-147 0 -266 -43q-138 -47 -233 -150q-118 -124 -170 -323q-39 -150 -39 -351q0 -122 22 -221q28 -111 92 -194q71 -95 199 -146
q119 -43 252 -43q148 0 272 41q140 46 238 150q117 134 166 323q45 160 45 350q0 111 -25 220q-23 104 -90 196q-70 98 -203 150q-116 41 -260 41zM895 1339q101 0 188 -39.5t140 -115.5q80 -136 80 -338q0 -120 -23 -217q-42 -142 -131 -195v2q-132 -76 -340 -76
q-89 0 -172 15q-92 16 -160 59q-51 33 -78 105q-18 53 -18 135q0 138 35 264q38 143 121 244q67 82 163 121q81 36 195 36z" />
    <glyph glyph-name="Ocircumflex" unicode="&#xd4;" horiz-adv-x="1597"
d="M942 1786h-178q-24 -29 -102 -125q-56 -65 -113 -117q18 2 55 2q18 2 58 2q48 40 186 178l74 -92q40 -50 79 -86q40 0 58 -2q39 0 57 -2q-51 48 -94 117zM907 1481q-147 0 -266 -43q-138 -47 -233 -150q-118 -124 -170 -323q-39 -150 -39 -351q0 -122 22 -221
q28 -111 92 -194q71 -95 199 -146q119 -43 252 -43q148 0 272 41q140 46 238 150q117 134 166 323q45 160 45 350q0 111 -25 220q-23 104 -90 196q-70 98 -203 150q-116 41 -260 41zM895 1339q101 0 188 -39.5t140 -115.5q80 -136 80 -338q0 -120 -23 -217
q-42 -142 -131 -195v2q-132 -76 -340 -76q-89 0 -172 15q-92 16 -160 59q-51 33 -78 105q-18 53 -18 135q0 138 35 264q38 143 121 244q67 82 163 121q81 36 195 36z" />
    <glyph glyph-name="Otilde" unicode="&#xd5;" horiz-adv-x="1597"
d="M764 1575q0 4 -31 4q-9 0 -32 -1t-37 -1l26 63q35 93 88 117q39 17 68 17h16q17 0 35 -3.5t29.5 -6.5t31.5 -13t26.5 -13.5t30.5 -17.5t27 -16q48 -25 70 -25q16 -14 47 17q23 23 39 55q6 12 6 21v2q16 2 51 2q38 0 58 2l-33 -66q-34 -77 -86 -113q-30 -20 -68 -20
q-68 0 -145 43l-29 16q-32 24 -57 33q-18 6 -35 6q-38 0 -63 -35q-21 -26 -33 -67zM1204 1774h-6q3 3 6 0zM1460 1094q25 -109 25 -220q0 -190 -45 -350q-49 -189 -166 -323q-98 -104 -238 -150q-124 -41 -272 -41q-133 0 -252 43q-128 51 -199 146q-64 83 -92 194
q-22 99 -22 221q0 201 39 351q52 199 170 323q95 103 233 150q119 43 266 43q144 0 260 -41q133 -52 203 -150q67 -92 90 -196zM1280 629q23 97 23 217q0 202 -80 338q-53 76 -140 115.5t-188 39.5q-114 0 -195 -36q-96 -39 -163 -121q-83 -101 -121 -244q-35 -126 -35 -264
q0 -82 18 -135q27 -72 78 -105q68 -43 160 -59q83 -15 172 -15q208 0 340 76v-2q89 53 131 195z" />
    <glyph glyph-name="Odieresis" unicode="&#xd6;" horiz-adv-x="1597"
d="M641 1761q10 -42 10 -71q0 -62 -26 -113q31 2 90 2h92q14 69 14 145v17v16q-61 0 -90 2q-59 0 -90 2zM1030 1757q-16 -72 -16 -133q0 -29 2 -45h92q59 0 90 -2q-12 35 -12 70q0 62 28 114q-31 -2 -92 -2q-31 -2 -92 -2zM907 1481q-147 0 -266 -43q-138 -47 -233 -150
q-118 -124 -170 -323q-39 -150 -39 -351q0 -122 22 -221q28 -111 92 -194q71 -95 199 -146q119 -43 252 -43q148 0 272 41q140 46 238 150q117 134 166 323q45 160 45 350q0 111 -25 220q-23 104 -90 196q-70 98 -203 150q-116 41 -260 41zM895 1339q101 0 188 -39.5
t140 -115.5q80 -136 80 -338q0 -120 -23 -217q-42 -142 -131 -195v2q-132 -76 -340 -76q-89 0 -172 15q-92 16 -160 59q-51 33 -78 105q-18 53 -18 135q0 138 35 264q38 143 121 244q67 82 163 121q81 36 195 36z" />
    <glyph glyph-name="multiply" unicode="&#xd7;" horiz-adv-x="1400"
d="M1272 1049q-17 21 -62 73l-61 74q-274 -243 -426 -385q-104 116 -162 178l-164 176l-73 -73q-8 -8 -23.5 -23t-28 -27.5t-22.5 -23.5q85 -101 156 -178q82 -91 157 -181q-34 -31 -100.5 -93t-100.5 -93q-33 -31 -198 -188q57 -72 59 -74l62 -74q110 96 411 375
q230 -254 351 -375q12 13 36.5 38t36.5 38l74 74q-126 135 -336 375q27 25 207 194q51 46 207 193z" />
    <glyph glyph-name="Oslash" unicode="&#xd8;" horiz-adv-x="1599"
d="M293 227q-11 -12 -30.5 -33t-35 -37.5t-30.5 -31.5q-11 -12 -31.5 -33t-37 -38.5t-30.5 -33.5q34 -34 72 -69q32 32 94 98q83 88 96 101q156 -140 408 -140q146 0 270 41q143 52 236 150q112 126 166 315q47 164 47 342q0 242 -98 404q66 70 100 104q32 32 98 102
q-19 16 -35 35q-32 32 -36 35q-149 -154 -193 -201q-71 69 -190 111q-97 31 -226 31q-144 0 -266 -41q-141 -50 -233 -150q-117 -125 -168 -319q-41 -155 -41 -346q0 -243 94 -396zM1198 1206q-154 -161 -362 -387q-357 -381 -365 -389q-117 149 -117 299q0 129 37 256
q40 137 119 238q62 73 158 116q85 39 188 39q120 0 213 -41q70 -30 129 -131zM1245 1108q4 -2 8 -2h9q49 -118 49 -215q0 -41 -6 -88q-31 -133 -60 -203q-46 -115 -108 -180q-62 -57 -154 -90q-64 -24 -170 -39q-100 0 -151 2q-64 5 -123 51q179 190 354 381
q208 229 352 383z" />
    <glyph glyph-name="Ugrave" unicode="&#xd9;" horiz-adv-x="1515"
d="M690 1884q-107 0 -160 4q57 -64 99 -119q53 -70 96 -118q20 -2 63 -2q10 -1 32 -2t32 -2q-29 35 -84 118q-55 89 -78 121zM346 1483v-70q0 -407 -45 -852q-6 -65 -6 -129q0 -92 18 -158q22 -82 74 -143q69 -72 180 -98q97 -25 213 -25q124 0 224 27q127 35 204 112
q73 79 111 197q27 97 37 217q40 537 114 922q-29 -2 -92 -10q-8 -1 -40.5 -4t-51.5 -3q-40 -243 -90 -741q-7 -97 -29 -176q-21 -93 -80 -164q-54 -60 -131 -82q-70 -20 -151 -20q-91 0 -150 20q-78 22 -118 82q-56 85 -56 231q0 35 4 109q34 366 43 739q-74 5 -182 19z" />
    <glyph glyph-name="Uacute" unicode="&#xda;" horiz-adv-x="1515"
d="M766 1884q-46 -53 -100 -121q-35 -46 -103 -118q10 1 32 2t32 2q43 0 63 2q55 52 117 121q51 56 117 116q-53 -4 -158 -4zM346 1483v-70q0 -407 -45 -852q-6 -65 -6 -129q0 -92 18 -158q22 -82 74 -143q69 -72 180 -98q97 -25 213 -25q124 0 224 27q127 35 204 112
q73 79 111 197q27 97 37 217q40 537 114 922q-29 -2 -92 -10q-8 -1 -40.5 -4t-51.5 -3q-40 -243 -90 -741q-7 -97 -29 -176q-21 -93 -80 -164q-54 -60 -131 -82q-70 -20 -151 -20q-91 0 -150 20q-78 22 -118 82q-56 85 -56 231q0 35 4 109q34 366 43 739q-74 5 -182 19z" />
    <glyph glyph-name="Ucircumflex" unicode="&#xdb;" horiz-adv-x="1515"
d="M903 1786h-178q-24 -29 -102 -125q-56 -65 -113 -117q18 2 55 2q18 2 58 2q48 40 186 178l74 -92q37 -46 80 -86q39 0 57 -2q39 0 57 -2q-51 48 -94 117zM346 1483v-70q0 -407 -45 -852q-6 -65 -6 -129q0 -92 18 -158q22 -82 74 -143q69 -72 180 -98q97 -25 213 -25
q124 0 224 27q127 35 204 112q73 79 111 197q27 97 37 217q40 537 114 922q-29 -2 -92 -10q-8 -1 -40.5 -4t-51.5 -3q-40 -243 -90 -741q-7 -97 -29 -176q-21 -93 -80 -164q-54 -60 -131 -82q-70 -20 -151 -20q-91 0 -150 20q-78 22 -118 82q-56 85 -56 231q0 35 4 109
q34 366 43 739q-74 5 -182 19z" />
    <glyph glyph-name="Udieresis" unicode="&#xdc;" horiz-adv-x="1515"
d="M600 1761q12 -37 12 -71q0 -62 -26 -113q31 2 90 2h92q14 69 14 145v17v16q-61 0 -90 2q-59 0 -92 2zM991 1757q-16 -72 -16 -133q0 -29 2 -45h90q61 0 92 -2q-12 35 -12 70q0 60 29 114q-31 -2 -93 -2q-31 -2 -92 -2zM346 1483v-70q0 -407 -45 -852q-6 -65 -6 -129
q0 -92 18 -158q22 -82 74 -143q69 -72 180 -98q97 -25 213 -25q124 0 224 27q127 35 204 112q73 79 111 197q27 97 37 217q40 537 114 922q-29 -2 -92 -10q-8 -1 -40.5 -4t-51.5 -3q-40 -243 -90 -741q-7 -97 -29 -176q-21 -93 -80 -164q-54 -60 -131 -82q-70 -20 -151 -20
q-91 0 -150 20q-78 22 -118 82q-56 85 -56 231q0 35 4 109q34 366 43 739q-74 5 -182 19z" />
    <glyph glyph-name="Yacute" unicode="&#xdd;" horiz-adv-x="1525"
d="M977 1784q-41 -46 -98 -121q-44 -55 -105 -119q12 1 33 2t33 2q43 0 63 2q39 39 117 121q49 54 117 119q-80 -6 -160 -6zM348 1485q70 -147 150 -336t118.5 -285t135.5 -342q-26 -265 -50 -485q49 0 74 2h74h53q35 0 53 -2q17 272 35 485q197 339 285 488
q131 227 299 475q-121 -15 -197 -17q-179 -261 -483 -759q-234 520 -354 757q-51 3 -97 9q-27 2 -96 10z" />
    <glyph glyph-name="Thorn" unicode="&#xde;" horiz-adv-x="1306"
d="M348 1485q-9 -771 -129 -1475q63 8 92 10q41 3 90 9q11 73 43 329q43 0 125 4q21 0 63 1.5t64 1.5q110 0 189 20q103 23 180 86q73 64 111 178q28 95 28 201q0 76 -24 147q-27 70 -93 127q-64 44 -149 60q-54 10 -168 14q-128 0 -254 6l6 131l6 129q-70 2 -180 21z
M508 1063q84 -4 250 -4q108 0 176 -49q88 -60 88 -189q0 -63 -21 -131q-25 -71 -86 -123q-76 -63 -206 -63q-166 0 -250 -2q6 56 49 561z" />
    <glyph glyph-name="germandbls" unicode="&#xdf;" horiz-adv-x="1357"
d="M281 1130q-63 -613 -177 -1120q125 15 256 21q49 577 60 1091q27 160 100 236q72 67 207 67q116 0 176 -34q42 -32 78 -103q26 -57 45 -121q-10 -2 -34 -7t-38 -7q-44 -10 -71 -20q-77 -30 -125 -80q-76 -91 -76 -230q0 -65 31 -125q11 -23 67 -108q29 -19 72 -53
q66 -46 96 -78q45 -55 45 -115q0 -77 -80 -104q-62 -25 -145 -25q-134 0 -279 51l-12 -106q-8 -74 -10 -111q128 -35 258 -41q82 0 143 10q83 14 152 50q75 43 104 122q29 74 29 158q0 62 -18 109q-37 83 -121 151q-100 78 -129 97q-33 22 -51 40q-56 52 -56 113
q0 112 115 180q92 57 209 64q4 25 4 72q0 147 -78 247q-100 95 -283 95q-99 0 -176 -19q-96 -20 -163 -76q-62 -48 -95 -133q-27 -76 -30 -158z" />
    <glyph glyph-name="agrave" unicode="&#xe0;" horiz-adv-x="1429"
d="M610 1534l-57 88q-119 0 -174 6q45 -74 86 -172q46 -107 78 -176h32q105 0 213 -6q-5 6 -28 36.5t-35 47.5q-55 81 -115 176zM1026 639q6 53 6 109q0 174 -84 270q-54 54 -147 78q-71 18 -174 18q-172 0 -371 -61q0 -10 -1 -31t-1 -31q0 -41 -2 -61q152 71 346 71
q65 -3 119 -20q58 -18 110 -61q58 -55 58 -154q0 -17 -4 -45l-2 -29q-41 -2 -125 -2h-125q-186 0 -316 -63q-93 -45 -145 -156q-43 -92 -43 -205q0 -120 61 -184q80 -80 236 -80q132 0 233 45q120 52 187 154q0 -16 -1 -45t-1 -43q-1 -15 -2 -45t-2 -45q129 -9 161 -13v45
v45q0 246 29 539zM770 582l-2 -52q-4 -17 -8 -59q-2 -22 -10 -61q-17 -66 -60 -109q-34 -26 -102 -41q-37 -6 -111 -6q-79 0 -145 14q-33 8 -53 41q-19 32 -19 68q11 108 84 158q39 20 64 24q64 18 133 21q45 0 65 2h164z" />
    <glyph glyph-name="aacute" unicode="&#xe1;" horiz-adv-x="1263"
d="M834 1722q-115 -133 -164 -196q-88 -109 -166 -193l143 6q84 77 191 197q122 132 190 195q-48 -4 -194 -9zM1026 639q6 53 6 109q0 174 -84 270q-54 54 -147 78q-71 18 -174 18q-172 0 -371 -61q0 -10 -1 -31t-1 -31q0 -41 -2 -61q152 71 346 71q65 -3 119 -20
q58 -18 110 -61q58 -55 58 -154q0 -17 -4 -45l-2 -29q-41 -2 -125 -2h-125q-186 0 -316 -63q-93 -45 -145 -156q-43 -92 -43 -205q0 -120 61 -184q80 -80 236 -80q132 0 233 45q120 52 187 154q0 -16 -1 -45t-1 -43q-1 -15 -2 -45t-2 -45q129 -9 161 -13v45v45q0 246 29 539
zM770 582l-2 -52q-4 -17 -8 -59q-2 -22 -10 -61q-17 -66 -60 -109q-34 -26 -102 -41q-37 -6 -111 -6q-79 0 -145 14q-33 8 -53 41q-19 32 -19 68q11 108 84 158q39 20 64 24q64 18 133 21q45 0 65 2h164z" />
    <glyph glyph-name="acircumflex" unicode="&#xe2;" horiz-adv-x="1347"
d="M705 1622h-140q-10 -16 -31.5 -45t-31.5 -45q-11 -18 -33.5 -48.5t-28.5 -39.5q-78 -111 -137 -172q9 1 28.5 2t28.5 2q40 0 60 2q67 71 106 119l101 125q54 -88 78 -125q37 -60 86 -119q18 -2 59 -2q9 -1 28.5 -2t28.5 -2q-45 61 -57 84q-49 73 -98 176q-8 15 -47 90z
M1026 639q6 53 6 109q0 174 -84 270q-54 54 -147 78q-71 18 -174 18q-172 0 -371 -61q0 -10 -1 -31t-1 -31q0 -41 -2 -61q152 71 346 71q65 -3 119 -20q58 -18 110 -61q58 -55 58 -154q0 -17 -4 -45l-2 -29q-41 -2 -125 -2h-125q-186 0 -316 -63q-93 -45 -145 -156
q-43 -92 -43 -205q0 -120 61 -184q80 -80 236 -80q132 0 233 45q120 52 187 154q0 -16 -1 -45t-1 -43q-1 -15 -2 -45t-2 -45q129 -9 161 -13v45v45q0 246 29 539zM770 582l-2 -52q-4 -17 -8 -59q-2 -22 -10 -61q-17 -66 -60 -109q-34 -26 -102 -41q-37 -6 -111 -6
q-79 0 -145 14q-33 8 -53 41q-19 32 -19 68q11 108 84 158q39 20 64 24q64 18 133 21q45 0 65 2h164z" />
    <glyph glyph-name="atilde" unicode="&#xe3;" horiz-adv-x="1263"
d="M627 1554l49 -53q51 -57 135 -57q49 0 76 24q53 45 86 146q14 36 39 88q-37 -2 -107 -2q-11 -27 -16 -45q-4 -12 -19 -47q-25 -55 -73 -60q-34 2 -66 39l-49 53q-61 58 -137 58q-33 0 -74 -23q-23 -15 -41.5 -44.5t-26 -47.5t-22.5 -59q-7 -26 -33 -84q16 2 51 2
q36 0 54 2q3 5 5.5 12t5.5 16l5 15q3 15 18 49q23 52 70 57q33 -2 70 -39zM1026 639q6 53 6 109q0 174 -84 270q-54 54 -147 78q-71 18 -174 18q-172 0 -371 -61q0 -10 -1 -31t-1 -31q0 -41 -2 -61q152 71 346 71q65 -3 119 -20q58 -18 110 -61q58 -55 58 -154q0 -17 -4 -45
l-2 -29q-41 -2 -125 -2h-125q-186 0 -316 -63q-93 -45 -145 -156q-43 -92 -43 -205q0 -120 61 -184q80 -80 236 -80q132 0 233 45q120 52 187 154q0 -16 -1 -45t-1 -43q-1 -15 -2 -45t-2 -45q129 -9 161 -13v45v45q0 246 29 539zM770 582l-2 -52q-4 -17 -8 -59
q-2 -22 -10 -61q-17 -66 -60 -109q-34 -26 -102 -41q-37 -6 -111 -6q-79 0 -145 14q-33 8 -53 41q-19 32 -19 68q11 108 84 158q39 20 64 24q64 18 133 21q45 0 65 2h164z" />
    <glyph glyph-name="adieresis" unicode="&#xe4;" horiz-adv-x="1263"
d="M326 1346q12 -38 12 -76q0 -63 -31 -123q17 1 50.5 2t50.5 2h100q14 71 14 152v20v18q-65 0 -96 2q-50 0 -100 3zM745 1341q-18 -74 -18 -145v-22q0 -4 1 -12t1 -11q17 0 49 -1t49 -1q66 0 99 -2q-13 37 -13 76q0 63 31 123q-49 -3 -98 -3q-16 0 -50 -1t-51 -1zM1026 639
q6 53 6 109q0 174 -84 270q-54 54 -147 78q-71 18 -174 18q-172 0 -371 -61q0 -10 -1 -31t-1 -31q0 -41 -2 -61q152 71 346 71q65 -3 119 -20q58 -18 110 -61q58 -55 58 -154q0 -17 -4 -45l-2 -29q-41 -2 -125 -2h-125q-186 0 -316 -63q-93 -45 -145 -156q-43 -92 -43 -205
q0 -120 61 -184q80 -80 236 -80q132 0 233 45q120 52 187 154q0 -16 -1 -45t-1 -43q-1 -15 -2 -45t-2 -45q129 -9 161 -13v45v45q0 246 29 539zM770 582l-2 -52q-4 -17 -8 -59q-2 -22 -10 -61q-17 -66 -60 -109q-34 -26 -102 -41q-37 -6 -111 -6q-79 0 -145 14q-33 8 -53 41
q-19 32 -19 68q11 108 84 158q39 20 64 24q64 18 133 21q45 0 65 2h164z" />
    <glyph glyph-name="aring" unicode="&#xe5;" horiz-adv-x="1318"
d="M854 1526q0 5 1 14.5t1 15.5q0 97 -63 160q-65 62 -160 62q-122 0 -203 -84q-74 -83 -74 -201q0 -100 64 -164q59 -59 160 -59q114 0 188 71q77 71 86 185zM758 1524q-6 -64 -53 -111q-45 -45 -113 -45q-61 0 -98 37q-39 39 -39 98q0 75 47 125q46 49 119 49
q61 -2 100 -39t39 -98v-8q-2 -2 -2 -8zM1026 639q6 53 6 109q0 174 -84 270q-54 54 -147 78q-71 18 -174 18q-172 0 -371 -61q0 -10 -1 -31t-1 -31q0 -41 -2 -61q152 71 346 71q65 -3 119 -20q58 -18 110 -61q58 -55 58 -154q0 -17 -4 -45l-2 -29q-41 -2 -125 -2h-125
q-186 0 -316 -63q-93 -45 -145 -156q-43 -92 -43 -205q0 -120 61 -184q80 -80 236 -80q132 0 233 45q120 52 187 154q0 -16 -1 -45t-1 -43q-1 -15 -2 -45t-2 -45q129 -9 161 -13v45v45q0 246 29 539zM770 582l-2 -52q-4 -17 -8 -59q-2 -22 -10 -61q-17 -66 -60 -109
q-34 -26 -102 -41q-37 -6 -111 -6q-79 0 -145 14q-33 8 -53 41q-19 32 -19 68q11 108 84 158q39 20 64 24q64 18 133 21q45 0 65 2h164z" />
    <glyph glyph-name="ae" unicode="&#xe6;" horiz-adv-x="2021"
d="M1022 940h-4q-2 -2 -6 -2q-2 0 -2 2h-4q-53 95 -175 141q-101 37 -233 37q-165 0 -342 -61q1 -8 2 -26t2 -27q0 -36 2 -54q140 74 326 74q163 0 243 -92q41 -52 52 -72q22 -39 22 -84q0 -8 -2 -14v-14h-127h-127q-108 0 -182 -15q-102 -20 -172 -71q-63 -51 -105 -154
q-25 -64 -45 -182q-6 -40 -6 -82q0 -109 54 -168q44 -50 114 -66q63 -14 137 -14q140 0 263 63q127 63 206 183q64 -125 205 -189q121 -55 285 -55q53 0 94 8q81 15 186 55q12 4 43 15.5t48 17.5q-9 88 -9 178q0 21 2 31v33q-170 -92 -356 -92q-91 0 -158 22q-81 26 -133 80
q-90 96 -90 238q133 0 397.5 1t397.5 1q4 52 8 76q4 50 4 75q0 148 -72 250q-44 66 -125 103q-71 28 -165 28q-137 0 -242 -39q-128 -47 -211 -139zM1683 707q-465 -5 -550 -5h-86q24 125 127 228q105 108 278 108q104 0 174 -90q60 -78 60 -196q0 -21 -3 -45zM895 629
l-4 -41q-11 -91 -33 -148q-26 -76 -86 -127q-53 -48 -131 -71q-64 -19 -145 -19q-74 0 -129 37q-62 42 -62 109q0 29 6 59q13 67 54 121q35 45 122 63q67 14 150 17h76h182z" />
    <glyph glyph-name="ccedilla" unicode="&#xe7;" horiz-adv-x="1204"
d="M768 1116q138 0 268 -47q-1 -12 -5 -34t-5 -34l-12 -71q-123 63 -273 63q-85 0 -159 -26q-84 -33 -136 -93q-55 -63 -84 -149q-24 -81 -30 -168q0 -64 14 -113q20 -59 62 -90q79 -54 247 -65l152 -4h12q69 0 131 30q-4 -55 -4 -161q0 -68 2 -105q-134 -49 -291 -49h-12
q25 -59 25 -104q0 -39 -19 -82q-21 -48 -57 -64q-61 -29 -168 -29q-67 0 -147 17q2 8 5 25.5t5 25.5l6 55q45 -22 121 -22h12q4 -2 12 -2q51 0 82 28q37 29 37 76q0 37 -18 82q-61 10 -107 23q-118 33 -184 116q-94 112 -94 322q0 149 32 262q43 152 136 242q84 79 211 116
q96 29 233 29zM1038 1075l4 -8l-6 2q0 4 2 6z" />
    <glyph glyph-name="egrave" unicode="&#xe8;" horiz-adv-x="1302"
d="M598 1280h-31q-32 69 -78 176q-37 86 -88 172q57 -6 174 -6q33 -44 60 -88q60 -95 115 -176q36 -53 63 -84q-108 6 -215 6zM1096 874q14 -57 14 -153v-25v-20q0 -21 -2 -31q0 -9 -4 -29q-332 -4 -498 -4q-94 0 -141 2h-146q0 -12 -1 -37.5t-1 -39.5q0 -74 15 -123
q21 -65 65 -99q65 -39 150 -55q71 -14 158 -14q117 0 176 6q95 7 166 43v-57v-58v-55q0 -39 2 -57q-192 -66 -402 -66q-124 10 -215 37q-116 33 -180 108q-54 59 -80 150q-20 79 -20 172q0 134 38 258q46 150 129 240q75 75 185 112q85 31 209 35q117 -8 170 -24
q92 -27 145 -80q47 -49 68 -136zM459 748h110q279 0 420 4q-6 120 -82 202q-81 84 -200 84q-161 0 -254 -90q-99 -83 -105 -198q37 -2 111 -2z" />
    <glyph glyph-name="eacute" unicode="&#xe9;" horiz-adv-x="1302"
d="M795 1434q-132 -142 -191 -197l-145 -6q81 84 168 192q57 73 164 197q162 5 192 8q-74 -70 -188 -194zM1096 874q14 -57 14 -153v-25v-20q0 -21 -2 -31q0 -9 -4 -29q-332 -4 -498 -4q-94 0 -141 2h-146q0 -12 -1 -37.5t-1 -39.5q0 -74 15 -123q21 -65 65 -99
q65 -39 150 -55q71 -14 158 -14q117 0 176 6q95 7 166 43v-57v-58v-55q0 -39 2 -57q-192 -66 -402 -66q-124 10 -215 37q-116 33 -180 108q-54 59 -80 150q-20 79 -20 172q0 134 38 258q46 150 129 240q75 75 185 112q85 31 209 35q117 -8 170 -24q92 -27 145 -80
q47 -49 68 -136zM459 748h110q279 0 420 4q-6 120 -82 202q-81 84 -200 84q-161 0 -254 -90q-99 -83 -105 -198q37 -2 111 -2z" />
    <glyph glyph-name="ecircumflex" unicode="&#xea;" horiz-adv-x="1302"
d="M424 1178q-9 0 -28.5 -1t-28.5 -1q-10 0 -30 -1t-30 -1q70 73 137 169q13 16 33.5 47t30.5 44q45 66 63 88h138q35 -63 47 -90q61 -120 98 -177q9 -16 57 -81q-9 0 -28.5 1t-28.5 1q-10 0 -30 1t-29 1q-51 64 -86 120l-78 123q-17 -21 -51 -62t-50 -61q-58 -72 -106 -120
zM1096 874q14 -57 14 -153v-25v-20q0 -21 -2 -31q0 -9 -4 -29q-332 -4 -498 -4q-94 0 -141 2h-146q0 -12 -1 -37.5t-1 -39.5q0 -74 15 -123q21 -65 65 -99q65 -39 150 -55q71 -14 158 -14q117 0 176 6q95 7 166 43v-57v-58v-55q0 -39 2 -57q-192 -66 -402 -66
q-124 10 -215 37q-116 33 -180 108q-54 59 -80 150q-20 79 -20 172q0 134 38 258q46 150 129 240q75 75 185 112q85 31 209 35q117 -8 170 -24q92 -27 145 -80q47 -49 68 -136zM459 748h110q279 0 420 4q-6 120 -82 202q-81 84 -200 84q-161 0 -254 -90q-99 -83 -105 -198
q37 -2 111 -2z" />
    <glyph glyph-name="edieresis" unicode="&#xeb;" horiz-adv-x="1302"
d="M500 1264q-16 0 -49.5 -1t-51.5 -1q29 57 29 120q0 47 -10 76q16 0 49 -1t49 -1q65 0 98 -2v-18v-21q0 -81 -16 -149q-33 -2 -98 -2zM920 1264q-66 0 -99 2q-2 6 -2 22v23q0 69 19 143q33 2 100 2q16 0 49 1t49 1q-30 -58 -30 -123q0 -39 12 -73q-16 0 -49 1t-49 1z
M1096 874q14 -57 14 -153v-25v-20q0 -21 -2 -31q0 -9 -4 -29q-332 -4 -498 -4q-94 0 -141 2h-146q0 -12 -1 -37.5t-1 -39.5q0 -74 15 -123q21 -65 65 -99q65 -39 150 -55q71 -14 158 -14q117 0 176 6q95 7 166 43v-57v-58v-55q0 -39 2 -57q-192 -66 -402 -66
q-124 10 -215 37q-116 33 -180 108q-54 59 -80 150q-20 79 -20 172q0 134 38 258q46 150 129 240q75 75 185 112q85 31 209 35q117 -8 170 -24q92 -27 145 -80q47 -49 68 -136zM459 748h110q279 0 420 4q-6 120 -82 202q-81 84 -200 84q-161 0 -254 -90q-99 -83 -105 -198
q37 -2 111 -2z" />
    <glyph glyph-name="igrave" unicode="&#xec;" horiz-adv-x="1132"
d="M610 1534l-57 88q-119 0 -174 6q45 -74 86 -172q46 -107 78 -176h32q105 0 213 -6q-5 6 -28 36.5t-35 47.5q-55 81 -115 176zM799 1110q-34 -508 -97 -1100q40 21 86 21q44 0 78 -21q34 508 97 1100q-44 -23 -86 -23q-40 0 -78 23z" />
    <glyph glyph-name="iacute" unicode="&#xed;" horiz-adv-x="991"
d="M725 1620q-107 -124 -164 -197q-87 -108 -168 -192l146 6q78 72 190 197q110 119 191 194q-31 -3 -195 -8zM459 1110q-39 -531 -99 -1100q40 21 86 21q44 0 78 -21q39 531 99 1100q-44 -23 -86 -23q-40 0 -78 23z" />
    <glyph glyph-name="icircumflex" unicode="&#xee;" horiz-adv-x="1050"
d="M705 1622h-140q-10 -16 -31.5 -45t-31.5 -45q-11 -18 -33.5 -48.5t-28.5 -39.5q-78 -111 -137 -172q9 1 28.5 2t28.5 2q40 0 60 2q67 71 106 119l101 125q54 -88 78 -125q37 -60 86 -119q18 -2 59 -2q9 -1 28.5 -2t28.5 -2q-45 61 -57 84q-49 73 -98 176q-8 15 -47 90z
M719 1110q-41 -562 -98 -1100q41 21 86 21q43 0 77 -21q39 531 99 1100q-48 -23 -86 -23q-40 0 -78 23z" />
    <glyph glyph-name="idieresis" unicode="&#xef;" horiz-adv-x="942"
d="M356 1530q13 -41 13 -78q0 -58 -29 -121q16 0 49 1t49 1q68 0 101 2q16 82 16 152v18q0 13 -2 21q-65 0 -96 2q-68 0 -101 2zM776 1526q-18 -88 -18 -146v-22q0 -4 1 -12t1 -11q33 -2 98 -2q18 0 50 -1t48 -1q-12 35 -12 76q0 63 31 123q-33 -2 -98 -2q-16 0 -49.5 -1
t-51.5 -1zM561 1110q-36 -534 -96 -1100q41 21 86 21q43 0 78 -21q36 534 96 1100q-44 -23 -84 -23q-39 0 -80 23z" />
    <glyph glyph-name="eth" unicode="&#xf0;" horiz-adv-x="1261"
d="M932 1120q-8 9 -34 42.5t-42 51.5q-1 1 -72 95q209 71 306 112l-7 37q-4 11 -8 37q-130 -52 -340 -123q-11 16 -57 74q-50 58 -60 70q-128 4 -198 8q15 -20 162 -201q-46 -12 -140 -41q-75 -22 -143 -39l12 -41q2 -12 11 -39q76 21 309 92q71 -87 78 -96q44 -58 77 -96
q-22 2 -65 5t-64 5q-103 0 -186 -35q-93 -38 -158 -108q-83 -90 -129 -232q-37 -118 -37 -256q0 -190 89 -297q58 -69 155 -102q85 -33 191 -33q104 0 194 33q94 30 172 102q82 92 123 226q33 106 33 245q0 286 -172 504zM860 918l6 -3q72 -106 72 -288q0 -119 -18 -195
l-68 -92q-41 -49 -108.5 -71.5t-141.5 -22.5q-72 0 -133 24q-64 26 -100 82q-33 48 -40.5 62t-17.5 49q-4 14 -5 30.5t-0.5 29.5t5 34.5t7 32t9.5 36t9 33.5q29 106 94 183q48 52 115.5 79t138.5 27q90 0 176 -30z" />
    <glyph glyph-name="ntilde" unicode="&#xf1;" horiz-adv-x="1394"
d="M627 1554l49 -53q51 -57 135 -57q49 0 76 24q53 45 86 146q14 36 39 88q-37 -2 -107 -2q-11 -27 -16 -45q-4 -12 -19 -47q-25 -55 -73 -60q-34 2 -66 39l-49 53q-61 58 -137 58q-33 0 -74 -23q-23 -15 -41.5 -44.5t-26 -47.5t-22.5 -59q-7 -26 -33 -84q16 2 51 2
q36 0 54 2q3 5 5.5 12t5.5 16l5 15q3 15 18 49q23 52 70 57q33 -2 70 -39zM1128 676q2 25 2 74q0 142 -45 239q-34 66 -106 98q-65 29 -150 29q-195 0 -401 -151q0 46 2 69q0 47 2 72q-106 4 -162 12q-9 -583 -129 -1108q104 10 236 17q33 337 41 614q14 163 96 256
q56 56 127 74q68 18 139 18q50 0 94 -18q51 -23 72 -68q25 -60 25 -135q0 -30 -4 -92q-59 -387 -78 -649q135 -7 239 -17q-12 150 -12 303q0 181 12 363z" />
    <glyph glyph-name="ograve" unicode="&#xf2;"
d="M616 1632l-57 88q-119 0 -174 6q45 -74 86 -172q46 -107 78 -176h33q105 0 213 -6q-7 9 -30 38t-34 46q-55 81 -115 176zM684 1114q-114 0 -199 -31q-101 -32 -174 -108q-86 -98 -125 -254q-28 -114 -28 -270q0 -201 82 -310q53 -75 149 -108q80 -31 193 -31
q111 0 200 31q105 29 172 110q88 96 127 256q29 107 29 271q0 196 -82 305q-59 77 -151 108q-82 31 -193 31zM674 1001q70 0 129.5 -27.5t91.5 -82.5q53 -95 53 -234q0 -92 -14 -161q-25 -109 -94 -156q-90 -51 -230 -51q-141 0 -223 51q-38 25 -51 76q-12 46 -12 96
q0 101 20 195q26 107 86 184q88 110 244 110z" />
    <glyph glyph-name="oacute" unicode="&#xf3;"
d="M877 1722q-115 -133 -164 -196q-88 -109 -166 -193l143 6q84 77 191 197q122 132 190 195q-48 -4 -194 -9zM684 1114q-114 0 -199 -31q-101 -32 -174 -108q-86 -98 -125 -254q-28 -114 -28 -270q0 -201 82 -310q53 -75 149 -108q80 -31 193 -31q111 0 200 31
q105 29 172 110q88 96 127 256q29 107 29 271q0 196 -82 305q-59 77 -151 108q-82 31 -193 31zM674 1001q70 0 129.5 -27.5t91.5 -82.5q53 -95 53 -234q0 -92 -14 -161q-25 -109 -94 -156q-90 -51 -230 -51q-141 0 -223 51q-38 25 -51 76q-12 46 -12 96q0 101 20 195
q26 107 86 184q88 110 244 110z" />
    <glyph glyph-name="ocircumflex" unicode="&#xf4;"
d="M770 1485h-139q-10 -15 -32 -45t-32 -45q-12 -18 -35 -51t-26 -37q-78 -111 -137 -172q9 1 28.5 2t28.5 2q39 0 59 2q74 78 107 119l100 124q46 -75 78 -124q37 -60 86 -119q18 -2 59 -2q9 -1 29 -2t29 -2q-48 65 -58 84q-49 73 -98 176q-9 15 -47 90zM684 1114
q-114 0 -199 -31q-101 -32 -174 -108q-86 -98 -125 -254q-28 -114 -28 -270q0 -201 82 -310q53 -75 149 -108q80 -31 193 -31q111 0 200 31q105 29 172 110q88 96 127 256q29 107 29 271q0 196 -82 305q-59 77 -151 108q-82 31 -193 31zM674 1001q70 0 129.5 -27.5
t91.5 -82.5q53 -95 53 -234q0 -92 -14 -161q-25 -109 -94 -156q-90 -51 -230 -51q-141 0 -223 51q-38 25 -51 76q-12 46 -12 96q0 101 20 195q26 107 86 184q88 110 244 110z" />
    <glyph glyph-name="otilde" unicode="&#xf5;"
d="M670 1554l49 -53q51 -57 135 -57q49 0 76 24q53 45 86 146q14 36 39 88q-37 -2 -107 -2q-11 -27 -16 -45q-4 -12 -19 -47q-25 -55 -73 -60q-34 2 -66 39l-49 53q-61 58 -137 58q-33 0 -74 -23q-23 -15 -41.5 -44.5t-26 -47.5t-22.5 -59q-7 -26 -33 -84q16 2 51 2
q36 0 54 2q3 5 5.5 12t5.5 16l5 15q3 15 18 49q23 52 70 57q33 -2 70 -39zM684 1114q-114 0 -199 -31q-101 -32 -174 -108q-86 -98 -125 -254q-28 -114 -28 -270q0 -201 82 -310q53 -75 149 -108q80 -31 193 -31q111 0 200 31q105 29 172 110q88 96 127 256q29 107 29 271
q0 196 -82 305q-59 77 -151 108q-82 31 -193 31zM674 1001q70 0 129.5 -27.5t91.5 -82.5q53 -95 53 -234q0 -92 -14 -161q-25 -109 -94 -156q-90 -51 -230 -51q-141 0 -223 51q-38 25 -51 76q-12 46 -12 96q0 101 20 195q26 107 86 184q88 110 244 110z" />
    <glyph glyph-name="odieresis" unicode="&#xf6;"
d="M369 1346q12 -38 12 -76q0 -63 -31 -123q17 1 50.5 2t50.5 2h100q14 71 14 152v20v18q-65 0 -96 2q-51 0 -100 3zM788 1341q-18 -74 -18 -145v-22q0 -4 1 -12t1 -11q16 0 49 -1t49 -1q66 0 99 -2q-13 37 -13 76q0 63 31 123q-50 -3 -98 -3q-17 0 -51 -1t-50 -1zM684 1114
q-114 0 -199 -31q-101 -32 -174 -108q-86 -98 -125 -254q-28 -114 -28 -270q0 -201 82 -310q53 -75 149 -108q80 -31 193 -31q111 0 200 31q105 29 172 110q88 96 127 256q29 107 29 271q0 196 -82 305q-59 77 -151 108q-82 31 -193 31zM674 1001q70 0 129.5 -27.5
t91.5 -82.5q53 -95 53 -234q0 -92 -14 -161q-25 -109 -94 -156q-90 -51 -230 -51q-141 0 -223 51q-38 25 -51 76q-12 46 -12 96q0 101 20 195q26 107 86 184q88 110 244 110z" />
    <glyph glyph-name="divide" unicode="&#xf7;" horiz-adv-x="1556"
d="M700 1153q-2 -30 -5 -83.5t-6 -98t-7 -84.5h68h63h68h65q2 23 7.5 68t7.5 67q11 82 16 131h-80h-80h-57h-60zM184 717q-3 -46 -16 -201q240 4 713 4q346 0 518 -2q3 53 16 199q-442 -4 -657 -4q-381 0 -574 4zM637 344q-3 -22 -8 -66t-8 -65q-2 -22 -7.5 -66t-7.5 -67
q53 0 80 2h82h57q40 0 58 -2q4 88 16 264q-45 0 -65 2h-66h-66q-23 -2 -65 -2z" />
    <glyph glyph-name="oslash" unicode="&#xf8;" horiz-adv-x="1263"
d="M223 172l-86 -92q-43 -49 -88 -94q18 -12 35 -29l33 -31q58 62 84 88l82 86q109 -98 303 -98q106 0 196 33q103 33 170 108q85 94 127 250q31 121 31 266q0 169 -63 287l83 94q12 14 26.5 29.5t32.5 34.5t28 29l-68 59q-12 -14 -26 -28.5t-30.5 -32t-25.5 -27.5l-82 -86
q-111 94 -297 94q-105 0 -201 -29q-99 -30 -174 -108q-86 -96 -125 -248q-30 -108 -30 -264q0 -179 65 -291zM872 897q-115 -125 -264 -295q-18 -20 -115.5 -129.5t-150.5 -167.5q-23 68 -23 166q0 116 23 205q22 107 84 190q46 58 109 86q57 29 129 29q135 0 208 -84z
M915 799l11 -2q20 -67 20 -144q0 -104 -20 -207q-26 -118 -92 -198q-40 -55 -102.5 -85t-129.5 -30q-136 0 -211 86q49 53 260 289q126 144 258 291h6z" />
    <glyph glyph-name="ugrave" unicode="&#xf9;" horiz-adv-x="1341"
d="M549 1522q-145 5 -174 8q31 -52 88 -172q58 -136 78 -176h30q107 0 215 -6q-27 31 -63 84q-53 73 -115 176q-3 5 -59 86zM238 442q-7 -61 -7 -104q0 -116 41 -211q35 -66 111 -98q68 -29 154 -29h26q105 0 209 61q98 61 160 156q-14 -120 -19 -194q33 -1 162 -11
q3 557 121 1098q-68 -6 -197 -14q-43 -240 -65 -455q-25 -162 -111 -256t-243 -94q-115 0 -168 92q-35 69 -35 188v19v16q19 262 22 492q-30 6 -65 6l-66 6v-43v-45q0 -288 -30 -580z" />
    <glyph glyph-name="uacute" unicode="&#xfa;" horiz-adv-x="1341"
d="M848 1620q-128 -148 -166 -197q-78 -101 -166 -192l146 6q73 70 190 197q114 124 188 194q-30 -3 -192 -8zM238 442q-7 -61 -7 -104q0 -116 41 -211q35 -66 111 -98q68 -29 154 -29h26q105 0 209 61q98 61 160 156q-14 -120 -19 -194q33 -1 162 -11q3 557 121 1098
q-68 -6 -197 -14q-43 -240 -65 -455q-25 -162 -111 -256t-243 -94q-115 0 -168 92q-35 69 -35 188v19v16q19 262 22 492q-30 6 -65 6l-66 6v-43v-45q0 -288 -30 -580z" />
    <glyph glyph-name="ucircumflex" unicode="&#xfb;" horiz-adv-x="1363"
d="M705 1622h-140q-10 -16 -31.5 -45t-31.5 -45q-11 -18 -33.5 -48.5t-28.5 -39.5q-78 -111 -137 -172q9 1 28.5 2t28.5 2q40 0 60 2q67 71 106 119l101 125q54 -88 78 -125q37 -60 86 -119q18 -2 59 -2q9 -1 28.5 -2t28.5 -2q-45 61 -57 84q-49 73 -98 176q-8 15 -47 90z
M258 442q-4 -70 -4 -104q0 -122 41 -211q31 -64 111 -98q68 -29 151 -29h29q100 0 209 61q98 61 157 156q-13 -140 -16 -194q22 -1 162 -11q3 557 121 1098q-68 -6 -197 -14q-45 -254 -66 -455q-28 -163 -110 -256q-86 -94 -244 -94q-117 0 -170 92q-35 74 -35 188
q0 13 2 19v16q20 279 23 492q-35 6 -66 6l-65 6v-43v-45q0 -300 -33 -580z" />
    <glyph glyph-name="udieresis" unicode="&#xfc;" horiz-adv-x="1341"
d="M492 1458q12 -34 12 -76q0 -60 -31 -120q18 0 51 1t49 1q68 0 101 2q14 71 14 149v21v18q-33 2 -96 2q-18 0 -51 1t-49 1zM911 1454q-18 -70 -18 -143v-23q0 -4 1 -11.5t1 -10.5q33 -2 98 -2q17 0 50 -1t49 -1q-13 37 -13 73q0 63 31 123q-16 0 -49 -1t-49 -1
q-68 0 -101 -2zM238 442q-7 -61 -7 -104q0 -116 41 -211q35 -66 111 -98q68 -29 154 -29h26q105 0 209 61q98 61 160 156q-14 -120 -19 -194q33 -1 162 -11q3 557 121 1098q-68 -6 -197 -14q-43 -240 -65 -455q-25 -162 -111 -256t-243 -94q-115 0 -168 92q-35 69 -35 188
v19v16q19 262 22 492q-30 6 -65 6l-66 6v-43v-45q0 -288 -30 -580z" />
    <glyph glyph-name="yacute" unicode="&#xfd;" horiz-adv-x="1361"
d="M713 1620q-107 -124 -164 -197q-82 -102 -166 -192l143 6q84 77 191 197q116 125 190 194q-31 -3 -194 -8zM754 -84q83 177 139 301t139 301q164 348 297 592l-176 -18q-127 -209 -371 -650q-152 300 -344 650q-89 6 -170 18q137 -324 389 -1010q-29 -48 -47 -77l-45 -80
q-8 -8 -24.5 -26t-24.5 -26q-63 -63 -108 -77q-55 -17 -121 -17q-11 -1 -32.5 -2t-31.5 -2q-12 -76 -16 -110l-19 -113q29 4 95 8q102 3 186 29q84 25 149 100q46 51 97 137q7 14 21 39t18 33z" />
    <glyph glyph-name="thorn" unicode="&#xfe;" horiz-adv-x="1382"
d="M424 176l16 6q35 -83 121 -133q80 -47 180 -47h27q85 0 168 39q87 43 137 106q86 101 123 244q33 116 33 262q0 188 -82 316q-45 68 -119 104.5t-162 36.5h-26q-110 0 -201 -57q-99 -60 -154 -154q19 251 37 623q-82 9 -162 24q-24 -999 -172 -1962l84 13q26 4 82 8
q13 85 24.5 179t25 213.5t20.5 178.5zM1065 557q-10 -106 -43 -195q-40 -100 -109 -161q-80 -70 -184 -70q-69 0 -127 27q-65 30 -92 86q-55 87 -55 231q0 107 22 203q27 114 86 190q41 53 101 83t124 30q142 0 216 -100q63 -88 63 -242q0 -53 -2 -82z" />
    <glyph glyph-name="ydieresis" unicode="&#xff;" horiz-adv-x="1361"
d="M543 1458q10 -29 10 -76q0 -63 -29 -120q16 0 50 1t51 1q65 0 98 2q16 82 16 149v21q0 12 -2 18q-33 2 -96 2q-17 0 -49 1t-49 1zM961 1454q-19 -89 -19 -143v-23q0 -4 1 -11.5t1 -10.5q35 -2 100 -2q16 0 49 -1t50 -1q-15 34 -15 73q0 63 31 123q-17 0 -49 -1t-49 -1
q-65 0 -100 -2zM754 -84q83 177 139 301t139 301q164 348 297 592l-176 -18q-127 -209 -371 -650q-152 300 -344 650q-89 6 -170 18q137 -324 389 -1010q-29 -48 -47 -77l-45 -80q-8 -8 -24.5 -26t-24.5 -26q-63 -63 -108 -77q-55 -17 -121 -17q-11 -1 -32.5 -2t-31.5 -2
q-12 -76 -16 -110l-19 -113q29 4 95 8q102 3 186 29q84 25 149 100q46 51 97 137q7 14 21 39t18 33z" />
    <glyph glyph-name="Amacron" unicode="&#x100;" horiz-adv-x="1640"
d="M575 1862q13 -23 13 -54q0 -37 -25 -73q48 0 145.5 1t145.5 1q47 0 143.5 -1t145.5 -1q-15 17 -15 51q0 40 25 76q-96 -2 -289 -2t-289 2zM920 1454h-177q-80 -165 -170 -362l-170 -367q-211 -444 -368 -715l250 19q68 139 108 239q226 4 332 4q108 0 334 -4
q20 -120 51 -239q110 -5 264 -19q-81 193 -133 355q-87 260 -217 725zM817 1315q42 -166 98 -418q83 -343 101 -416h-135h-138q-180 0 -272 -2q127 299 174 418q75 188 172 418z" />
    <glyph glyph-name="amacron" unicode="&#x101;" horiz-adv-x="1263"
d="M371 1516q12 -21 12 -54q0 -37 -25 -73q48 0 145.5 1t145.5 1q47 0 143 -1t146 -1q-14 16 -14 51q0 42 24 76q-144 -3 -289 -3q-144 0 -288 3zM1026 639q6 53 6 109q0 174 -84 270q-54 54 -147 78q-71 18 -174 18q-172 0 -371 -61q0 -10 -1 -31t-1 -31q0 -41 -2 -61
q152 71 346 71q65 -3 119 -20q58 -18 110 -61q58 -55 58 -154q0 -17 -4 -45l-2 -29q-41 -2 -125 -2h-125q-186 0 -316 -63q-93 -45 -145 -156q-43 -92 -43 -205q0 -120 61 -184q80 -80 236 -80q132 0 233 45q120 52 187 154q0 -16 -1 -45t-1 -43q-1 -15 -2 -45t-2 -45
q129 -9 161 -13v45v45q0 246 29 539zM770 582l-2 -52q-4 -17 -8 -59q-2 -22 -10 -61q-17 -66 -60 -109q-34 -26 -102 -41q-37 -6 -111 -6q-79 0 -145 14q-33 8 -53 41q-19 32 -19 68q11 108 84 158q39 20 64 24q64 18 133 21q45 0 65 2h164z" />
    <glyph glyph-name="Abreve" unicode="&#x102;" horiz-adv-x="1640"
d="M530 1778l2 -9q-5 3 -2 9zM559 1667q-5 16 -14 55q-2 8 -6.5 23.5t-6.5 23.5q4 -4 9 -4q6 -2 26 -2h33q23 0 29 -2q11 -61 61 -104q47 -41 115 -41h6h8h6h6q71 0 123 43q56 44 80 104q16 0 49 1t50 1q-2 -4 -11 -21t-14 -28q-24 -57 -49 -98q-11 -19 -33 -41
q-42 -42 -106 -59q-46 -15 -111 -15q-130 0 -193 58q-36 41 -57 106zM1241 365q52 -162 133 -355q-154 14 -264 19q-31 119 -51 239q-226 4 -334 4q-106 0 -332 -4q-40 -100 -108 -239l-250 -19q157 271 368 715l170 367q90 197 170 362h177l104 -364q130 -465 217 -725z
M881 481h135q-18 73 -101 416q-56 252 -98 418q-97 -230 -172 -418q-47 -119 -174 -418q92 2 272 2h138z" />
    <glyph glyph-name="abreve" unicode="&#x103;" horiz-adv-x="1263"
d="M326 1432l2 -9q-5 3 -2 9zM354 1321q-5 16 -14 55q-2 8 -6 23.5t-6 23.5q4 -4 8 -4q6 -2 26 -2h33q23 0 29 -2q11 -61 61 -104q47 -41 115 -41h6h8h7h6q71 0 123 43q55 42 79 104q17 0 50 1t49 1q-2 -4 -11 -21t-14 -28q-24 -57 -49 -98q-11 -19 -33 -41
q-43 -43 -106 -60q-43 -14 -111 -14q-130 0 -192 57q-37 42 -58 107zM948 1018q84 -96 84 -270q0 -56 -6 -109q-29 -293 -29 -539v-45v-45q-32 4 -161 13q1 15 2 45t2 45q0 14 1 43t1 45q-67 -102 -187 -154q-101 -45 -233 -45q-156 0 -236 80q-61 64 -61 184q0 113 43 205
q52 111 145 156q130 63 316 63h125q84 0 125 2l2 29q4 28 4 45q0 99 -58 154q-52 43 -110 61q-54 17 -119 20q-194 0 -346 -71q2 20 2 61q0 10 1 31t1 31q199 61 371 61q103 0 174 -18q93 -24 147 -78zM770 582h-164q-20 -2 -65 -2q-69 -3 -133 -21q-25 -4 -64 -24
q-73 -50 -84 -158q0 -36 19 -68q20 -33 53 -41q66 -14 145 -14q74 0 111 6q68 15 102 41q43 43 60 109q8 39 10 61q4 42 8 59z" />
    <glyph glyph-name="Aogonek" unicode="&#x104;" horiz-adv-x="1640"
d="M1321 -213q73 0 123 23q-2 -27 -2 -78v-15v-16q-62 -12 -125 -12q-101 4 -146 24q-57 32 -57 111q0 63 37 129q15 30 45 72l-86 4q-31 119 -51 239q-226 4 -334 4q-106 0 -332 -4q-40 -100 -108 -239l-250 -19q157 271 368 715l170 367q90 197 170 362h177l104 -364
q130 -465 217 -725q52 -162 133 -355l-80 6q-1 -1 -3 -4t-3 -4q-35 -42 -51 -90q-10 -27 -10 -49q0 -37 28 -59.5t66 -22.5zM881 481h135q-18 73 -101 416q-56 252 -98 418q-97 -230 -172 -418q-47 -119 -174 -418q92 2 272 2h138z" />
    <glyph glyph-name="aogonek" unicode="&#x105;" horiz-adv-x="1263"
d="M961 -190q74 0 122 22q-2 -27 -2 -78v-14v-16q-67 -13 -125 -13q-98 4 -145 25q-57 32 -57 110q0 63 37 129q20 38 47 72l2 66q0 14 1 43t1 45q-67 -102 -187 -154q-101 -45 -233 -45q-156 0 -236 80q-61 64 -61 184q0 113 43 205q52 111 145 156q130 63 316 63h125
q84 0 125 2l2 29q4 28 4 45q0 99 -58 154q-52 43 -110 61q-54 17 -119 20q-194 0 -346 -71q2 20 2 61q0 10 1 31t1 31q199 61 371 61q103 0 174 -18q93 -24 147 -78q84 -96 84 -270q0 -56 -6 -109q-29 -293 -29 -539v-45v-45q-41 6 -79 6q-30 -39 -41 -75q-11 -29 -11 -50
q0 -37 28 -59t67 -22zM770 582h-164q-20 -2 -65 -2q-69 -3 -133 -21q-25 -4 -64 -24q-73 -50 -84 -158q0 -36 19 -68q20 -33 53 -41q66 -14 145 -14q74 0 111 6q68 15 102 41q43 43 60 109q8 39 10 61q4 42 8 59z" />
    <glyph glyph-name="Cacute" unicode="&#x106;" horiz-adv-x="1521"
d="M745 1651q-20 -2 -63 -2q-10 -1 -32 -2t-32 -2q53 56 103 118l98 121q107 0 160 4q-66 -60 -117 -116q-62 -69 -117 -121zM555 1196q-93 -98 -139 -256q-35 -117 -35 -270q0 -95 18 -158q27 -79 80 -127q73 -59 185 -82q85 -18 204 -18q113 0 222 41q114 43 198 118
q-8 -131 -8 -290v-33q-186 -113 -438 -113q-158 0 -285 41q-148 49 -235 148q-69 86 -97 202q-26 94 -26 230q0 191 43 346q51 192 174 315q102 102 266 154q132 37 297 37q107 0 219 -25q108 -25 193 -86q-26 -156 -29 -182q-74 74 -177 112.5t-216 38.5q-118 0 -219 -28
q-121 -39 -195 -115zM1393 1376q0 -2 1 -4.5t1 -3.5l-4 2q0 4 2 6z" />
    <glyph glyph-name="cacute" unicode="&#x107;" horiz-adv-x="1204"
d="M702 1434q-112 -125 -190 -197l-145 -6q81 84 168 192q66 85 163 197q164 5 195 8q-81 -75 -191 -194zM768 1116q138 0 268 -47q-1 -12 -5 -34t-5 -34l-12 -71q-123 63 -273 63q-85 0 -159 -26q-84 -33 -136 -93q-55 -63 -84 -149q-24 -81 -30 -168q0 -64 14 -113
q20 -59 62 -90q79 -54 247 -65l152 -4h12q69 0 131 30q-4 -55 -4 -161q0 -68 2 -105q-134 -49 -291 -49q-119 0 -223 29q-118 33 -184 116q-94 112 -94 322q0 149 32 262q43 152 136 242q84 79 211 116q96 29 233 29zM1038 1075l4 -8l-6 2q0 4 2 6z" />
    <glyph glyph-name="Cdotaccent" unicode="&#x10a;" horiz-adv-x="1521"
d="M913 1716v-12q-58 4 -86 4q-32 0 -98 -4q16 82 16 149v19v16q47 -6 93 -6q42 0 92 6q-19 -84 -19 -157q0 -11 2 -15zM555 1196q-93 -98 -139 -256q-35 -117 -35 -270q0 -95 18 -158q27 -79 80 -127q73 -59 185 -82q85 -18 204 -18q113 0 222 41q114 43 198 118
q-8 -131 -8 -290v-33q-186 -113 -438 -113q-158 0 -285 41q-148 49 -235 148q-69 86 -97 202q-26 94 -26 230q0 191 43 346q51 192 174 315q102 102 266 154q132 37 297 37q107 0 219 -25q108 -25 193 -86q-26 -156 -29 -182q-74 74 -177 112.5t-216 38.5q-118 0 -219 -28
q-121 -39 -195 -115zM1393 1376q0 -2 1 -4.5t1 -3.5l-4 2q0 4 2 6z" />
    <glyph glyph-name="cdotaccent" unicode="&#x10b;" horiz-adv-x="1204"
d="M725 1370v-12q-58 4 -86 4q-32 0 -98 -4q16 82 16 149v19v16q47 -6 92 -6q43 0 92 6q-18 -80 -18 -158q0 -10 2 -14zM768 1116q138 0 268 -47q-1 -12 -5 -34t-5 -34l-12 -71q-123 63 -273 63q-85 0 -159 -26q-84 -33 -136 -93q-55 -63 -84 -149q-24 -81 -30 -168
q0 -64 14 -113q20 -59 62 -90q79 -54 247 -65l152 -4h12q69 0 131 30q-4 -55 -4 -161q0 -68 2 -105q-134 -49 -291 -49q-119 0 -223 29q-118 33 -184 116q-94 112 -94 322q0 149 32 262q43 152 136 242q84 79 211 116q96 29 233 29zM1038 1075l4 -8l-6 2q0 4 2 6z" />
    <glyph glyph-name="Ccaron" unicode="&#x10c;" horiz-adv-x="1521"
d="M739 1548q-33 48 -82 127q-43 65 -92 117q18 -2 58 -2q18 -2 55 -2q19 -19 41 -44t37 -42.5t39.5 -47.5t35.5 -44q10 10 35 35.5t38.5 39t35 33.5t41 37t39.5 33q37 0 55 2q40 0 58 2q-20 -17 -41 -38t-36 -37t-37.5 -43t-32.5 -39.5t-35 -44.5t-33 -42q-16 2 -46 2h-45
h-45q-29 0 -43 -2zM555 1196q-93 -98 -139 -256q-35 -117 -35 -270q0 -95 18 -158q27 -79 80 -127q73 -59 185 -82q85 -18 204 -18q113 0 222 41q114 43 198 118q-8 -131 -8 -290v-33q-186 -113 -438 -113q-158 0 -285 41q-148 49 -235 148q-69 86 -97 202q-26 94 -26 230
q0 191 43 346q51 192 174 315q102 102 266 154q132 37 297 37q107 0 219 -25q108 -25 193 -86q-26 -156 -29 -182q-74 74 -177 112.5t-216 38.5q-118 0 -219 -28q-121 -39 -195 -115zM1393 1376q0 -2 1 -4.5t1 -3.5l-4 2q0 4 2 6z" />
    <glyph glyph-name="ccaron" unicode="&#x10d;" horiz-adv-x="1239"
d="M696 1180h-137q-28 49 -94 180q-62 106 -109 170q2 0 115 -6q56 -70 166 -244l100 125q60 74 107 119q9 1 29 2t30 2q40 0 58 2l-32 -36t-33 -39.5t-29 -36t-31 -40.5t-27.5 -37t-29.5 -41.5t-26.5 -38t-29.5 -42t-27 -39.5zM803 1116q138 0 268 -47l-10 -68
q-8 -46 -12 -71q-123 63 -273 63q-86 0 -160 -26q-83 -33 -135 -93q-55 -63 -84 -149q-24 -81 -30 -168q0 -66 16 -113q17 -59 59 -90q49 -33 107.5 -46t140.5 -19l152 -4h12q70 0 131 30q-4 -55 -4 -161q0 -68 2 -105q-134 -49 -291 -49q-119 0 -223 29q-118 33 -184 116
q-95 116 -95 322q0 146 33 262q44 153 135 242q84 79 211 116q96 29 234 29zM1073 1075l4 -8l-6 2q0 4 2 6z" />
    <glyph glyph-name="Dcaron" unicode="&#x10e;" horiz-adv-x="1601"
d="M694 1626h140q10 15 47.5 69.5t54 77.5t47.5 65t57.5 74t55.5 62q-18 -2 -58 -2q-10 -1 -29.5 -2t-29.5 -2q-47 -45 -107 -119l-100 -125q-7 11 -30.5 48.5t-34 53.5t-29.5 45.5t-36 52t-34 44.5q-111 6 -114 6q58 -79 106 -170zM348 1485v-66v-63q0 -688 -129 -1346
q179 18 408 25q209 8 325 33q185 39 305 133q131 113 189 331q39 157 39 359q0 123 -27 217q-29 109 -102 182q-107 99 -283 133q-113 25 -323 33q-214 6 -402 29zM535 1323q168 -8 247 -8q145 -8 236 -31q125 -30 205 -115q49 -55 73 -141q19 -69 19 -164q0 -32 -4 -98
q-46 -128 -70 -168q-50 -90 -119 -139q-55 -30 -98 -43q-97 -28 -213 -31q-74 -4 -106 -4l-244 -6q55 443 74 948z" />
    <glyph glyph-name="dcaron" unicode="&#x10f;" horiz-adv-x="1325"
d="M1460 1718l-6 -86q-1 -14 -3 -42.5t-3 -43.5q-33 -103 -64 -186q-34 -103 -67 -184q25 4 67 8q12 0 34.5 1t35.5 1q53 83 111 184q63 110 108 184q11 104 25 175q-78 -11 -170 -11h-33h-35zM961 944l-9 -2q-2 0 -5 -1t-5 -1q-32 82 -119 133q-75 47 -178 47h-29
q-91 0 -165 -39q-90 -42 -140 -106q-86 -107 -127 -258q-32 -131 -32 -275q0 -176 75 -292q45 -68 120 -105t163 -37q6 0 10 2h10h15q106 0 207 56q96 57 153 153q-1 -16 -2 -47t-2 -47q0 -17 -1 -49t-1 -47q42 -6 82 -9q52 -4 80 -8q11 736 158 1534q-31 -2 -84 -10l-82 -6
q-62 -347 -92 -586zM262 580v2q11 107 45 194q42 107 105 164q79 72 182 72h24q83 0 140 -51q59 -50 78 -140q16 -71 16 -164q0 -87 -14 -149q-25 -101 -82 -143q-74 -48 -219 -52q-60 0 -111 11q-60 13 -96 49q-64 69 -68 207z" />
    <glyph glyph-name="Dcroat" unicode="&#x110;" horiz-adv-x="1601"
d="M539 1862q12 -21 12 -54q0 -37 -25 -73q48 0 145.5 1t145.5 1q47 0 143 -1t146 -1q-14 16 -14 51q0 42 24 76q-96 -2 -289 -2q-192 0 -288 2zM348 1485v-66v-63q0 -688 -129 -1346q179 18 408 25q209 8 325 33q185 39 305 133q131 113 189 331q39 157 39 359
q0 123 -27 217q-29 109 -102 182q-107 99 -283 133q-113 25 -323 33q-214 6 -402 29zM535 1323q168 -8 247 -8q145 -8 236 -31q125 -30 205 -115q49 -55 73 -141q19 -69 19 -164q0 -32 -4 -98q-46 -128 -70 -168q-50 -90 -119 -139q-55 -30 -98 -43q-97 -28 -213 -31
q-74 -4 -106 -4l-244 -6q55 443 74 948z" />
    <glyph glyph-name="dcroat" unicode="&#x111;" horiz-adv-x="1323"
d="M963 942q-7 0 -19 -4q-36 85 -121 135q-80 47 -182 47h-25q-91 0 -165 -39q-91 -43 -138 -106q-87 -105 -129 -262q-30 -123 -30 -275q0 -180 71 -288q45 -68 121 -107q72 -35 160 -35h10h10h13q107 0 209 60q96 56 157 155q-4 -62 -4 -94q-4 -66 -4 -96q28 0 82 -4
t82 -4q5 561 96 1257q22 0 76 4l74 6q4 36 8 54q4 34 8 53q-78 -9 -152 -15q3 28 23 148l-84 -6q-54 -4 -82 -4l-18 -146q-109 -4 -320 -4q-4 -32 -4 -49q-4 -36 -4 -51q211 0 315 4q-12 -84 -34 -334zM324 604q19 186 102 287q84 100 227 100q156 0 224 -102
q59 -83 59 -225q0 -92 -23 -177q-25 -94 -84 -161q-91 -105 -247 -105q-65 0 -120.5 25.5t-88.5 75.5q-54 84 -54 210q0 43 5 72z" />
    <glyph glyph-name="Emacron" unicode="&#x112;" horiz-adv-x="1427"
d="M393 1862q13 -23 13 -54q0 -37 -25 -73q48 0 145.5 1t145.5 1q46 0 143 -1t146 -1q-15 17 -15 51q0 40 25 76q-96 -2 -289 -2t-289 2zM348 1485q-9 -771 -129 -1475q258 29 477 29q217 0 465 -29q0 195 4 291q-196 16 -444 16q-142 0 -283 -6q30 253 41 410q223 0 334 2
h334q1 6 3 32t3 42q4 46 8 73q-211 -6 -420 -6q-42 0 -124.5 1t-124.5 1q19 238 30 451q128 -8 289 -8q229 0 436 20q2 29 13 78l12 76q-245 -31 -467 -31q-239 0 -457 33z" />
    <glyph glyph-name="emacron" unicode="&#x113;" horiz-adv-x="1302"
d="M698 1391q-48 0 -145 -1t-145 -1q24 35 24 73q0 33 -12 54q144 -3 289 -3q144 0 288 3q-24 -34 -24 -76q0 -35 14 -51q-49 0 -146 1t-143 1zM1096 874q14 -57 14 -153v-25v-20q0 -21 -2 -31q0 -9 -4 -29q-332 -4 -498 -4q-94 0 -141 2h-146q0 -12 -1 -37.5t-1 -39.5
q0 -74 15 -123q21 -65 65 -99q65 -39 150 -55q71 -14 158 -14q117 0 176 6q95 7 166 43v-57v-58v-55q0 -39 2 -57q-192 -66 -402 -66q-124 10 -215 37q-116 33 -180 108q-54 59 -80 150q-20 79 -20 172q0 134 38 258q46 150 129 240q75 75 185 112q85 31 209 35
q117 -8 170 -24q92 -27 145 -80q47 -49 68 -136zM459 748h110q279 0 420 4q-6 120 -82 202q-81 84 -200 84q-161 0 -254 -90q-99 -83 -105 -198q37 -2 111 -2z" />
    <glyph glyph-name="Edotaccent" unicode="&#x116;" horiz-adv-x="1427"
d="M565 1888v-16v-19q0 -67 -16 -149q66 4 98 4q28 0 86 -4v12q-2 4 -2 15q0 73 19 157q-49 -6 -93 -6q-45 0 -92 6zM348 1485q-9 -771 -129 -1475q258 29 477 29q217 0 465 -29q0 195 4 291q-196 16 -444 16q-142 0 -283 -6q30 253 41 410q223 0 334 2h334q1 6 3 32t3 42
q4 46 8 73q-211 -6 -420 -6q-42 0 -124.5 1t-124.5 1q19 238 30 451q128 -8 289 -8q229 0 436 20q2 29 13 78l12 76q-245 -31 -467 -31q-239 0 -457 33z" />
    <glyph glyph-name="edotaccent" unicode="&#x117;" horiz-adv-x="1302"
d="M760 1370v-12q-58 4 -86 4q-33 0 -99 -4q17 87 17 149v19v16q47 -6 92 -6q42 0 92 6q-18 -80 -18 -158q0 -10 2 -14zM1096 874q14 -57 14 -153v-25v-20q0 -21 -2 -31q0 -9 -4 -29q-332 -4 -498 -4q-94 0 -141 2h-146q0 -12 -1 -37.5t-1 -39.5q0 -74 15 -123
q21 -65 65 -99q65 -39 150 -55q71 -14 158 -14q117 0 176 6q95 7 166 43v-57v-58v-55q0 -39 2 -57q-192 -66 -402 -66q-124 10 -215 37q-116 33 -180 108q-54 59 -80 150q-20 79 -20 172q0 134 38 258q46 150 129 240q75 75 185 112q85 31 209 35q117 -8 170 -24
q92 -27 145 -80q47 -49 68 -136zM459 748h110q279 0 420 4q-6 120 -82 202q-81 84 -200 84q-161 0 -254 -90q-99 -83 -105 -198q37 -2 111 -2z" />
    <glyph glyph-name="Eogonek" unicode="&#x118;" horiz-adv-x="1427"
d="M805 1452q222 0 467 31l-12 -76q-11 -49 -13 -78q-207 -20 -436 -20q-161 0 -289 8q-11 -213 -30 -451q42 0 124.5 -1t124.5 -1q209 0 420 6q-4 -27 -8 -73l-6 -74h-334q-111 -2 -334 -2q-11 -157 -41 -410q141 6 283 6q248 0 444 -16q-4 -96 -4 -291l-98 10q-1 -2 -4 -6
t-4 -6q-35 -42 -51 -90q-11 -29 -11 -49q0 -37 28 -59.5t66 -22.5q73 0 123 23q-2 -27 -2 -78v-15v-16q-61 -12 -125 -12q-100 4 -145 24q-57 32 -57 111q0 63 37 129q18 37 49 76q-147 10 -271 10q-219 0 -477 -29q120 704 129 1475q218 -33 457 -33z" />
    <glyph glyph-name="eogonek" unicode="&#x119;" horiz-adv-x="1302"
d="M1096 874q14 -57 14 -153v-25v-20q0 -21 -2 -31q0 -9 -4 -29q-332 -4 -498 -4q-94 0 -141 2h-146q0 -12 -1 -37.5t-1 -39.5q0 -74 15 -123q21 -65 65 -99q65 -39 150 -55q71 -14 158 -14q117 0 176 6q95 7 166 43v-57v-58v-55q0 -39 2 -57q-192 -66 -402 -66
q-124 10 -215 37q-116 33 -180 108q-54 59 -80 150q-20 79 -20 172q0 134 38 258q46 150 129 240q75 75 185 112q85 31 209 35q117 -8 170 -24q92 -27 145 -80q47 -49 68 -136zM459 748h110q279 0 420 4q-6 120 -82 202q-81 84 -200 84q-161 0 -254 -90q-99 -83 -105 -198
q37 -2 111 -2zM565 -207q0 -37 28 -59.5t66 -22.5q73 0 123 23q-2 -27 -2 -78v-14v-17q-61 -12 -125 -12q-98 4 -145 25q-57 32 -57 110q0 65 36 129q19 36 68 98q16 -2 49 -2h51q-5 -6 -30 -41q-37 -43 -52 -90q-10 -27 -10 -49z" />
    <glyph glyph-name="Ecaron" unicode="&#x11a;" horiz-adv-x="1427"
d="M549 1626h139q10 15 47.5 69.5t54 77.5t47.5 65t57.5 74t55.5 62q-18 -2 -57 -2q-10 -1 -29.5 -2t-29.5 -2q-47 -45 -107 -119l-100 -125q-7 11 -30.5 48.5t-34 53.5t-29.5 45.5t-36 52t-34 44.5q-113 6 -115 6q62 -84 107 -170zM348 1485q-9 -771 -129 -1475
q258 29 477 29q217 0 465 -29q0 195 4 291q-196 16 -444 16q-142 0 -283 -6q30 253 41 410q223 0 334 2h334q1 6 3 32t3 42q4 46 8 73q-211 -6 -420 -6q-42 0 -124.5 1t-124.5 1q19 238 30 451q128 -8 289 -8q229 0 436 20q2 29 13 78l12 76q-245 -31 -467 -31
q-239 0 -457 33z" />
    <glyph glyph-name="ecaron" unicode="&#x11b;" horiz-adv-x="1302"
d="M575 1280l-94 178q-48 91 -106 170q3 0 114 -6q17 -22 34 -44.5t36 -52t29.5 -45.5t34 -53.5t30.5 -48.5l101 125q63 78 106 119q10 1 30 2t30 2q39 0 57 2q-29 -30 -55.5 -62t-57.5 -74t-47.5 -65t-54 -77.5t-47.5 -69.5h-140zM1096 874q14 -57 14 -153v-25v-20
q0 -21 -2 -31q0 -9 -4 -29q-332 -4 -498 -4q-94 0 -141 2h-146q0 -12 -1 -37.5t-1 -39.5q0 -74 15 -123q21 -65 65 -99q65 -39 150 -55q71 -14 158 -14q117 0 176 6q95 7 166 43v-57v-58v-55q0 -39 2 -57q-192 -66 -402 -66q-124 10 -215 37q-116 33 -180 108
q-54 59 -80 150q-20 79 -20 172q0 134 38 258q46 150 129 240q75 75 185 112q85 31 209 35q117 -8 170 -24q92 -27 145 -80q47 -49 68 -136zM459 748h110q279 0 420 4q-6 120 -82 202q-81 84 -200 84q-161 0 -254 -90q-99 -83 -105 -198q37 -2 111 -2z" />
    <glyph glyph-name="Gbreve" unicode="&#x11e;" horiz-adv-x="1615"
d="M621 1903l2 -9q-5 3 -2 9zM651 1808l-16 47q-2 6 -6 19.5t-6 19.5q2 -2 8 -2q6 -2 26 -2h35q21 0 29 -2q15 -52 70 -82q50 -26 106 -26h8h8h7h8q59 0 111.5 28t82.5 80q18 2 49 2q34 0 50 2q-3 -7 -10.5 -21.5t-10.5 -21.5q-16 -39 -47 -82q-32 -45 -86 -65
q-55 -24 -109 -27q-10 0 -28 -1t-27 -1q-129 0 -192 49q-35 30 -60 86zM1225 1458q123 -25 225 -90q-9 -58 -14 -84l-13 -84q-86 80 -202 121q-112 37 -240 37q-123 0 -223 -27q-121 -33 -201 -110q-91 -97 -137 -252q-35 -117 -35 -267q0 -107 18 -167q24 -90 82 -140
q69 -50 185 -71q82 -17 202 -21q25 2 80 2q96 3 164 31q36 11 64 39l2 4q2 2 2 4l6 84q4 54 4 82q-49 2 -150 2h-149l14 188q166 0 248 2h250q-29 -324 -29 -596q-121 -77 -252 -104q-121 -31 -270 -31q-172 0 -291 35q-157 48 -241 150q-70 79 -99 194q-26 94 -26 225
q0 125 16 232q19 130 66 241q50 121 139 205q99 102 262 150q126 39 293 39q132 0 250 -23z" />
    <glyph glyph-name="gbreve" unicode="&#x11f;" horiz-adv-x="1292"
d="M395 1610l2 -8q-5 2 -2 8zM426 1499q-11 34 -16 55q-2 8 -6.5 24t-6.5 24q5 -5 9 -5q6 -2 26 -2h35q21 0 27 -2q11 -61 61 -104q50 -41 115 -41h8h6h6h6q71 0 123 43q60 47 80 104q17 0 49 1t49 1q-17 -34 -22 -49q-36 -74 -49 -98q-15 -21 -35 -41q-41 -41 -107 -59
q-46 -15 -108 -15q-132 0 -195 58q-38 43 -55 106zM1020 1094l82 8q13 1 41 4t43 4q-85 -415 -144 -969q-3 -20 -8.5 -59.5t-9 -64.5t-10 -59.5t-13.5 -63.5q-34 -141 -112 -228q-80 -78 -199 -100q-84 -21 -217 -21q-178 0 -305 35q18 110 41 301q122 -65 291 -65
q76 0 143 20q82 28 127 78q90 97 117 197q0 15 4 47q0 7 1 22.5t1 22.5q-132 -180 -367 -180q-87 0 -161 37t-117 106q-84 120 -84 332q0 134 26 243q34 141 113 230q54 65 143 102q79 33 170 33h31q107 0 197 -55q89 -56 127 -150l24 96q25 95 25 97zM860 575q4 27 4 78
q0 168 -78 252q-74 80 -206 80q-67 0 -129.5 -25.5t-102.5 -74.5q-45 -54 -74 -148q-17 -64 -24 -159q4 -40 4 -66q3 -74 25 -127q13 -32 34 -53q63 -43 203 -43q138 0 232 43q60 35 86 108q18 48 26 135z" />
    <glyph glyph-name="Gdotaccent" unicode="&#x120;" horiz-adv-x="1615"
d="M791 1888v-16v-19q0 -62 -17 -149q66 4 98 4q28 0 86 -4v12q-2 4 -2 15q0 73 19 157q-49 -6 -92 -6q-45 0 -92 6zM1190 467l-6 -84q0 -2 -2 -4q0 -2 -2 -4q-28 -28 -64 -39q-68 -28 -164 -31q-55 0 -80 -2q-120 4 -202 21q-116 21 -185 71q-58 50 -82 140q-18 60 -18 167
q0 150 35 267q46 155 137 252q80 77 201 110q100 27 223 27q128 0 240 -37q116 -41 202 -121l13 84q5 26 14 84q-102 65 -225 90q-118 23 -250 23q-167 0 -293 -39q-163 -48 -262 -150q-89 -84 -139 -205q-47 -111 -66 -241q-16 -107 -16 -232q0 -131 26 -225
q29 -115 99 -194q84 -102 241 -150q119 -35 291 -35q149 0 270 31q131 27 252 104q0 272 29 596h-250q-82 -2 -248 -2l-14 -188h149q101 0 150 -2q0 -28 -4 -82z" />
    <glyph glyph-name="gdotaccent" unicode="&#x121;" horiz-adv-x="1292"
d="M612 1542v-16v-19q0 -67 -16 -149q66 4 98 4q28 0 86 -4v12q-2 4 -2 14q0 74 19 158q-50 -6 -92 -6q-47 0 -93 6zM1042 141q59 554 144 969q-15 -1 -43 -4t-41 -4l-82 -8q0 -2 -25 -97l-24 -96q-38 94 -127 150q-90 55 -197 55h-31q-91 0 -170 -33q-89 -37 -143 -102
q-79 -89 -113 -230q-26 -109 -26 -243q0 -212 84 -332q43 -69 117 -106t161 -37q235 0 367 180q0 -7 -1 -22.5t-1 -22.5q-4 -32 -4 -47q-27 -100 -117 -197q-45 -50 -127 -78q-67 -20 -143 -20q-169 0 -291 65q-23 -191 -41 -301q127 -35 305 -35q133 0 217 21
q119 22 199 100q78 87 112 228q9 37 15.5 74.5t15 99t10.5 73.5zM860 575q-8 -87 -26 -135q-26 -73 -86 -108q-94 -43 -232 -43q-140 0 -203 43q-21 21 -34 53q-22 53 -25 127q0 26 -4 66q7 95 24 159q29 94 74 148q40 49 102.5 74.5t129.5 25.5q132 0 206 -80
q78 -84 78 -252q0 -51 -4 -78z" />
    <glyph glyph-name="Gcommaaccent" unicode="&#x122;" horiz-adv-x="1615"
d="M1190 467l-6 -84q0 -2 -2 -4q0 -2 -2 -4q-28 -28 -64 -39q-68 -28 -164 -31q-55 0 -80 -2q-120 4 -202 21q-116 21 -185 71q-58 50 -82 140q-18 60 -18 167q0 150 35 267q46 155 137 252q80 77 201 110q100 27 223 27q128 0 240 -37q116 -41 202 -121l13 84q5 26 14 84
q-102 65 -225 90q-118 23 -250 23q-167 0 -293 -39q-163 -48 -262 -150q-89 -84 -139 -205q-47 -111 -66 -241q-16 -107 -16 -232q0 -131 26 -225q29 -115 99 -194q84 -102 241 -150q119 -35 291 -35q149 0 270 31q131 27 252 104q0 272 29 596h-250q-82 -2 -248 -2
l-14 -188h149q101 0 150 -2q0 -28 -4 -82zM733 -119l-12 -198q-10 -26 -31 -77t-31 -77q-34 -83 -65 -152q32 7 55 7q8 1 26 2t27 2q55 63 121 149l115 154q13 109 29 198q-98 -10 -172 -10h-31q-21 0 -31 2z" />
    <glyph glyph-name="gcommaaccent" unicode="&#x123;" horiz-adv-x="1292"
d="M1042 141q59 554 144 969q-15 -1 -43 -4t-41 -4l-82 -8q0 -2 -25 -97l-24 -96q-38 94 -127 150q-90 55 -197 55h-31q-91 0 -170 -33q-89 -37 -143 -102q-79 -89 -113 -230q-26 -109 -26 -243q0 -212 84 -332q43 -69 117 -106t161 -37q235 0 367 180q0 -7 -1 -22.5
t-1 -22.5q-4 -32 -4 -47q-27 -100 -117 -197q-45 -50 -127 -78q-67 -20 -143 -20q-169 0 -291 65q-23 -191 -41 -301q127 -35 305 -35q133 0 217 21q119 22 199 100q78 87 112 228q9 37 15.5 74.5t15 99t10.5 73.5zM860 575q-8 -87 -26 -135q-26 -73 -86 -108
q-94 -43 -232 -43q-140 0 -203 43q-21 21 -34 53q-22 53 -25 127q0 26 -4 66q7 95 24 159q29 94 74 148q40 49 102.5 74.5t129.5 25.5q132 0 206 -80q78 -84 78 -252q0 -51 -4 -78zM356 -512l-12 -199q-10 -26 -30.5 -77t-30.5 -76q-24 -60 -66 -152q27 6 55 6q8 1 26.5 2
t27.5 2q41 47 120 150l115 154q13 109 29 198q-98 -10 -172 -10h-31q-21 0 -31 2z" />
    <glyph glyph-name="Hbar" unicode="&#x126;" horiz-adv-x="1601"
d="M1542 1075h-158q-53 -429 -53 -850q0 -71 4 -215q-46 5 -209 19q0 200 21 487q-230 4 -338 4q-110 0 -336 -4q-22 -219 -63 -487l-211 -19q103 494 135 1065h-160q47 24 59 42q6 9 9 18q-3 18 -13 31.5t-19.5 19.5t-25.5 14l156 -2q6 144 6 285q76 -12 191 -19
q-10 -216 -13 -266q88 -2 344 -2t344 2q6 57 39 266q17 2 50 5.5t49 5.5q64 4 96 8q-24 -141 -45 -285l151 2q-3 -2 -10 -5t-10 -5q-21 -9 -39 -27q-8 -12 -12 -20q2 -25 22 -45q10 -9 39 -23zM1167 770q10 130 31 307h-340h-340q-6 -106 -22 -307h98q33 -2 98 -2
q80 0 237.5 1t237.5 1z" />
    <glyph glyph-name="hbar" unicode="&#x127;" horiz-adv-x="1411"
d="M1155 758q0 -55 -2 -82q-12 -215 -12 -428q0 -78 4 -238q-154 18 -203 21q18 276 57 641q2 20 2 65q0 99 -30 166q-58 103 -189 103q-65 0 -127.5 -27t-105.5 -78q-94 -108 -107 -266q-7 -84 -20 -301q-5 -60 -29 -303q-102 -9 -207 -21q114 575 154 1155l-145 -4
q26 45 26 103q0 29 -2 41h35h33h63q8 155 10 235q112 -12 164 -16l-18 -215q38 1 113.5 3t113.5 3q-28 -48 -28 -103q0 -22 6 -43l-217 -2q-11 -123 -27 -260q63 96 156 152q95 61 202 61h27q77 0 147 -28q74 -38 109 -101q47 -94 47 -233z" />
    <glyph glyph-name="Itilde" unicode="&#x128;" horiz-adv-x="673"
d="M422 1862l49 -54q51 -57 135 -57q48 0 76 25q53 45 86 145q14 36 39 88q-37 -2 -107 -2q-11 -27 -16 -45q-7 -23 -18 -47q-25 -55 -74 -60q-34 2 -66 39l-49 54q-60 57 -137 57q-33 0 -74 -23q-23 -15 -41.5 -44.5t-26 -47.5t-22.5 -59q-7 -26 -33 -84q16 2 52 2
q35 0 53 2q3 5 5.5 12t5.5 16l5 15q2 10 19 49q24 53 69 58q33 -2 70 -39zM344 1468q-88 -912 -158 -1458q60 29 115 29q57 0 107 -29q39 710 108 1465q-41 -21 -94 -21q-43 0 -78 14z" />
    <glyph glyph-name="itilde" unicode="&#x129;" horiz-adv-x="600"
d="M406 1493l49 -53q52 -58 135 -58q48 0 76 25q53 45 86 145q14 36 39 88q-37 -2 -107 -2q-11 -27 -16 -45q-4 -12 -19 -47q-24 -54 -74 -59q-32 2 -65 39l-49 53q-60 57 -137 57q-35 0 -74 -22q-23 -15 -42 -45t-26 -47.5t-22 -59.5q-7 -26 -33 -84q16 2 51 2t53 2
q3 7 17 43q4 17 18 50q23 52 70 57q33 -2 70 -39zM268 1110q-38 -559 -98 -1100q44 21 86 21t80 -21q36 534 96 1100q-44 -23 -86 -23q-40 0 -78 23z" />
    <glyph glyph-name="Imacron" unicode="&#x12a;" horiz-adv-x="673"
d="M166 1823q12 -21 12 -54q0 -39 -24 -73q48 0 145 1t145 1q46 0 143 -1t146 -1q-14 16 -14 51q0 41 24 76q-96 -2 -288 -2q-193 0 -289 2zM344 1468q-88 -912 -158 -1458q60 29 115 29q57 0 107 -29q39 710 108 1465q-41 -21 -94 -21q-43 0 -78 14z" />
    <glyph glyph-name="imacron" unicode="&#x12b;" horiz-adv-x="600"
d="M150 1454q12 -21 12 -53q0 -38 -25 -74q48 0 145.5 1t145.5 1q47 0 143.5 -1t145.5 -1q-15 17 -15 51q0 40 25 76q-96 -2 -289 -2q-192 0 -288 2zM268 1110q-38 -559 -98 -1100q44 21 86 21t80 -21q36 534 96 1100q-44 -23 -86 -23q-40 0 -78 23z" />
    <glyph glyph-name="Iogonek" unicode="&#x12e;" horiz-adv-x="673"
d="M412 -172q75 0 123 22q-3 -40 -3 -77v-15v-16q-62 -12 -124 -12q-101 4 -146 24q-57 32 -57 111q0 63 37 129q4 7 12 21.5t12 21.5q-29 -4 -80 -27q70 546 158 1458q35 -14 78 -14q53 0 94 21q-69 -755 -108 -1465q-23 13 -43 19q-24 -30 -37 -70q-11 -29 -11 -49
q0 -37 28 -59.5t67 -22.5z" />
    <glyph glyph-name="iogonek" unicode="&#x12f;" horiz-adv-x="600"
d="M506 1481q-19 -84 -19 -158q0 -10 2 -14v-13q-58 4 -86 4q-32 0 -98 -4q17 87 17 150v18v17q46 -6 92 -6q42 0 92 6zM238 -135q0 -37 28 -59.5t66 -22.5q75 0 123 22q-2 -27 -2 -77v-15v-16q-62 -12 -125 -12q-101 4 -146 24q-57 32 -57 111q0 63 37 129q16 33 51 78
q-27 -8 -43 -17q60 541 98 1100q38 -23 78 -23q42 0 86 23q-60 -566 -96 -1100q-4 2 -12.5 6.5t-12.5 6.5l-12 -19q-35 -42 -51 -90q-10 -27 -10 -49z" />
    <glyph glyph-name="Idotaccent" unicode="&#x130;" horiz-adv-x="698"
d="M428 1864v-27q0 -92 -16 -160q33 2 98 2q57 0 86 -2v19v18q0 82 16 150q-46 -6 -94 -6q-44 0 -90 6zM369 1468q-80 -834 -158 -1458q60 29 115 29q53 0 106 -29q37 683 109 1465q-41 -21 -95 -21q-42 0 -77 14z" />
    <glyph glyph-name="dotlessi" unicode="&#x131;" horiz-adv-x="600"
d="M268 1110q-38 -559 -98 -1100q44 21 86 21t80 -21q36 534 96 1100q-44 -23 -86 -23q-40 0 -78 23z" />
    <glyph glyph-name="IJ" unicode="&#x132;" horiz-adv-x="1488"
d="M344 1468q-88 -912 -158 -1458q60 29 115 29q57 0 107 -29q39 710 108 1465q-41 -21 -94 -21q-43 0 -78 14zM1223 1452q-64 -433 -176 -1360q-13 -87 -105 -141q-65 -41 -172 -60q-35 5 -43 5q-7 1 -21.5 2t-21.5 2q-14 -144 -33 -310q19 2 55.5 5.5t53.5 5.5h-2
q13 2 42.5 7t45.5 7q59 11 90 20q105 29 164 80q68 68 94 168q22 74 33 187q86 795 188 1403q-67 -17 -192 -21z" />
    <glyph glyph-name="ij" unicode="&#x133;" horiz-adv-x="1343"
d="M1137 1511q-16 -92 -17 -102q-3 -17 -8 -52t-8 -54q112 12 164 26l6 109q1 17 4 52t4 52q-54 -16 -145 -31zM358 1538l-12 -102l-12 -105q30 -24 74 -24q42 0 84 22q6 55 6 107l6 102q-39 -22 -78 -22q-40 0 -68 22zM326 1104q-46 -515 -111 -1094q40 29 86 29t78 -29
q43 634 82 1096q-38 -12 -72 -12q-30 0 -63 10zM1053 1079q-49 -346 -66 -481q-12 -81 -32.5 -242.5t-32.5 -242.5q-5 -45 -19 -101q-9 -52 -43 -94h2q-17 -17 -49 -33q-51 -22 -115 -32q-16 -2 -53 -11l-18 -129q-3 -22 -9.5 -65t-9.5 -64q53 18 90 23l93 18q113 30 172 82
q52 49 75 131q19 60 27 148q61 551 135 1106q-86 -11 -147 -13z" />
    <glyph glyph-name="Kcommaaccent" unicode="&#x136;" horiz-adv-x="1617"
d="M346 1479q-12 -735 -168 -1469q82 8 123 10q63 6 121 9q35 424 45 723q275 -465 440 -715q224 -3 445 -27q-183 196 -355 391q-346 387 -352 394l389 342q51 45 184.5 161.5t206.5 180.5q-149 -15 -231 -17q-60 -50 -180.5 -154.5t-182.5 -156.5q-63 -54 -356 -315
q36 332 53 628q-95 6 -182 15zM512 -4l-12 -199q-10 -25 -31 -76t-31 -77q-34 -83 -65 -152q27 6 55 6q8 1 26 2t27 2q49 56 121 150l115 153q15 128 28 199q-98 -10 -172 -10h-30q-21 0 -31 2z" />
    <glyph glyph-name="kcommaaccent" unicode="&#x137;" horiz-adv-x="1443"
d="M360 1540q-27 -782 -174 -1530l113 13q20 1 57.5 4t55.5 4l18 266q12 176 14 266q109 -155 385 -526q148 -3 349 -27q-142 157 -551 590q22 25 99 114t120 136q45 52 219 250q-5 0 -199 -6q-41 -42 -117 -123.5t-90 -96.5q-16 -18 -89.5 -99t-114.5 -124q49 462 69 873
q-52 4 -164 16zM455 -104l-13 -199q-10 -25 -30.5 -76.5t-30.5 -77.5q-20 -49 -66 -151q27 6 56 6q8 1 26 2t27 2q55 63 121 149l114 154q13 112 29 199q-98 -10 -172 -10h-31q-20 0 -30 2z" />
    <glyph glyph-name="Lacute" unicode="&#x139;" horiz-adv-x="1363"
d="M745 2068q-105 -122 -163 -196q-88 -109 -166 -193l143 7q89 82 191 196q122 132 190 195q-47 -4 -195 -9zM346 1481q-18 -751 -147 -1471q251 29 465 29q219 0 436 -27q5 130 22 289q-188 16 -426 16q-135 0 -270 -6q75 608 100 1151q-47 2 -180 19z" />
    <glyph glyph-name="lacute" unicode="&#x13a;" horiz-adv-x="770"
d="M887 1702q-107 -124 -164 -197q-82 -102 -166 -192l143 6q84 77 191 197q116 125 190 194q-31 -3 -194 -8zM358 1536q-60 -784 -151 -1526q79 29 153 29q119 0 207 -39q2 35 7.5 104.5t7.5 104.5q-121 31 -183 31q29 350 113 1276h-16h-17q-75 0 -121 20z" />
    <glyph glyph-name="Lcommaaccent" unicode="&#x13b;" horiz-adv-x="1363"
d="M346 1481q-18 -751 -147 -1471q251 29 465 29q219 0 436 -27q5 130 22 289q-188 16 -426 16q-135 0 -270 -6q75 608 100 1151q-47 2 -180 19zM485 -94l-12 -199q-10 -26 -30.5 -77t-30.5 -76q-24 -60 -66 -152q27 6 55 6q8 1 26.5 2t27.5 2q41 47 120 150l115 153
q13 112 29 199q-98 -10 -172 -10h-31q-21 0 -31 2z" />
    <glyph glyph-name="lcommaaccent" unicode="&#x13c;" horiz-adv-x="770"
d="M358 1536q-60 -784 -151 -1526q79 29 153 29q119 0 207 -39q2 35 7.5 104.5t7.5 104.5q-121 31 -183 31q29 350 113 1276h-16h-17q-75 0 -121 20zM242 -76l-13 -198q-10 -26 -30.5 -77t-30.5 -77q-24 -60 -66 -152q31 7 56 7q8 1 26 2t27 2q55 63 121 149l114 154
q13 109 29 198q-98 -10 -172 -10h-31q-20 0 -30 2z" />
    <glyph glyph-name="Lcaron" unicode="&#x13d;" horiz-adv-x="1363"
d="M924 1677l-6 -86q-1 -14 -3.5 -42.5t-3.5 -43.5q-38 -120 -63 -186q-30 -90 -68 -184q24 4 68 8q12 0 35 1t35 1q43 68 110 184q46 79 109 184q12 114 24 175q-78 -11 -170 -11h-33h-34zM346 1481q-18 -751 -147 -1471q251 29 465 29q219 0 436 -27q5 130 22 289
q-188 16 -426 16q-135 0 -270 -6q75 608 100 1151q-47 2 -180 19z" />
    <glyph glyph-name="lcaron" unicode="&#x13e;" horiz-adv-x="770"
d="M748 1731l-7 -86q-1 -14 -3 -43t-3 -43q-40 -126 -63 -187q-30 -90 -68 -184q24 4 68 8q12 0 34 1t35 1q53 83 111 184q56 98 109 185q11 112 24 174q-71 -10 -170 -10h-33h-34zM358 1536q-60 -784 -151 -1526q79 29 153 29q119 0 207 -39q2 35 7.5 104.5t7.5 104.5
q-121 31 -183 31q29 350 113 1276h-16h-17q-75 0 -121 20z" />
    <glyph glyph-name="Ldot" unicode="&#x13f;" horiz-adv-x="1363"
d="M346 1481q-18 -751 -147 -1471q251 29 465 29q219 0 436 -27q5 130 22 289q-188 16 -426 16q-135 0 -270 -6q75 608 100 1151q-47 2 -180 19zM817 827q0 -123 -22 -233q33 4 98 4q61 0 94 -4q0 116 21 233q-33 -4 -97 -4q-63 0 -94 4z" />
    <glyph glyph-name="ldot" unicode="&#x140;" horiz-adv-x="770"
d="M358 1536q-60 -784 -151 -1526q79 29 153 29q119 0 207 -39q2 35 7.5 104.5t7.5 104.5q-121 31 -183 31q29 350 113 1276h-16h-17q-75 0 -121 20zM561 936q0 -124 -22 -234q41 5 98 5q53 0 94 -5q0 117 21 234q-33 -4 -97 -4q-63 0 -94 4z" />
    <glyph glyph-name="Lslash" unicode="&#x141;" horiz-adv-x="1468"
d="M418 1462q-9 -368 -43 -735q-51 -34 -221 -156q7 -10 26 -43q3 -9 13 -25.5t12 -21.5q63 47 80 58q69 49 77 55q-39 -371 -69 -565q202 10 356 10q260 0 553 -29v76q0 49 -2 76q-260 20 -549 20h-80h-77q45 445 53 535l194 131q33 22 97.5 65.5t97.5 65.5q-13 22 -29 45
l-26 43q-41 -26 -162 -106q-18 -12 -50.5 -33.5t-60 -39.5t-51.5 -34q28 318 45 602q-16 0 -46 1t-46 1q-62 4 -92 4z" />
    <glyph glyph-name="lslash" unicode="&#x142;" horiz-adv-x="790"
d="M426 1518q-18 -260 -55 -701q-8 -6 -43.5 -30t-53.5 -37l-98 -68q4 -5 13.5 -20.5t15.5 -22.5q11 -19 22 -45l133 92q-27 -324 -61 -649q31 2 88 2q51 0 76 -2q22 353 59 764q1 1 201 137l-29 43q-10 15 -24 43q-49 -38 -68 -49l-65 -47q17 214 55 590q-14 -2 -41 -2h-41
h-41q-29 0 -43 2z" />
    <glyph glyph-name="Nacute" unicode="&#x143;" horiz-adv-x="1568"
d="M1161 2068q-115 -133 -164 -196q-88 -109 -166 -193l144 7q83 77 190 196q116 126 191 195q-47 -4 -195 -9zM340 1450q-18 -737 -168 -1440q142 14 236 19q59 617 59 1210l16 4q71 -150 138 -303l131 -303q154 -359 276 -604q158 -10 275 -23q-3 27 -3 60v57
q0 643 132 1358q-74 -10 -168 -17q-106 -562 -152 -1210q-53 111 -266 588q-163 364 -273 586q-76 4 -116 8q-78 4 -117 10z" />
    <glyph glyph-name="nacute" unicode="&#x144;" horiz-adv-x="1394"
d="M834 1722q-115 -133 -164 -196q-88 -109 -166 -193l143 6q84 77 191 197q122 132 190 195q-48 -4 -194 -9zM1128 676q2 25 2 74q0 142 -45 239q-34 66 -106 98q-65 29 -150 29q-195 0 -401 -151q0 46 2 69q0 47 2 72q-106 4 -162 12q-9 -583 -129 -1108q104 10 236 17
q33 337 41 614q14 163 96 256q56 56 127 74q68 18 139 18q50 0 94 -18q51 -23 72 -68q25 -60 25 -135q0 -30 -4 -92q-59 -387 -78 -649q135 -7 239 -17q-12 150 -12 303q0 181 12 363z" />
    <glyph glyph-name="Ncommaaccent" unicode="&#x145;" horiz-adv-x="1568"
d="M340 1450q-18 -737 -168 -1440q142 14 236 19q59 617 59 1210l16 4q71 -150 138 -303l131 -303q154 -359 276 -604q158 -10 275 -23q-3 27 -3 60v57q0 643 132 1358q-74 -10 -168 -17q-106 -562 -152 -1210q-53 111 -266 588q-163 364 -273 586q-76 4 -116 8
q-78 4 -117 10zM582 4l-13 -199q-10 -25 -30.5 -76t-30.5 -77q-24 -60 -66 -152q27 6 56 6q9 1 27 2.5t26 2.5q55 63 121 149l114 154q13 109 29 198q-98 -10 -172 -10h-31q-20 0 -30 2z" />
    <glyph glyph-name="ncommaaccent" unicode="&#x146;" horiz-adv-x="1394"
d="M1128 676q2 25 2 74q0 142 -45 239q-34 66 -106 98q-65 29 -150 29q-195 0 -401 -151q0 46 2 69q0 47 2 72q-106 4 -162 12q-9 -583 -129 -1108q104 10 236 17q33 337 41 614q14 163 96 256q56 56 127 74q68 18 139 18q50 0 94 -18q51 -23 72 -68q25 -60 25 -135
q0 -30 -4 -92q-59 -387 -78 -649q135 -7 239 -17q-12 150 -12 303q0 181 12 363zM477 6l-12 -199q-10 -25 -31 -76t-31 -77q-34 -83 -65 -152q27 6 55 6q9 1 27 2.5t26 2.5q55 63 121 149l115 154q13 109 29 198q-98 -10 -172 -10h-31q-21 0 -31 2z" />
    <glyph glyph-name="Ncaron" unicode="&#x147;" horiz-adv-x="1568"
d="M854 1626h139q10 15 47.5 69.5t54 77.5t47.5 65t57.5 74t55.5 62q-18 -2 -57 -2q-10 -1 -29.5 -2t-29.5 -2q-47 -45 -107 -119l-100 -125q-7 11 -30.5 48.5t-34 53.5t-29.5 45.5t-36 52t-34 44.5q-113 6 -115 6q62 -84 107 -170zM340 1450q-18 -737 -168 -1440
q142 14 236 19q59 617 59 1210l16 4q71 -150 138 -303l131 -303q154 -359 276 -604q158 -10 275 -23q-3 27 -3 60v57q0 643 132 1358q-74 -10 -168 -17q-106 -562 -152 -1210q-53 111 -266 588q-163 364 -273 586q-76 4 -116 8q-78 4 -117 10z" />
    <glyph glyph-name="ncaron" unicode="&#x148;" horiz-adv-x="1394"
d="M526 1280h140q10 15 47.5 69.5t54 77.5t47.5 65t57.5 74t55.5 62q-18 -2 -58 -2q-10 -1 -29.5 -2t-29.5 -2q-43 -41 -106 -119l-101 -125q-7 11 -30.5 48.5t-34 53.5t-29.5 45.5t-36 52t-34 44.5q-111 6 -114 6q58 -79 106 -170zM1128 676q2 25 2 74q0 142 -45 239
q-34 66 -106 98q-65 29 -150 29q-195 0 -401 -151q0 46 2 69q0 47 2 72q-106 4 -162 12q-9 -583 -129 -1108q104 10 236 17q33 337 41 614q14 163 96 256q56 56 127 74q68 18 139 18q50 0 94 -18q51 -23 72 -68q25 -60 25 -135q0 -30 -4 -92q-59 -387 -78 -649
q135 -7 239 -17q-12 150 -12 303q0 181 12 363z" />
    <glyph glyph-name="Eng" unicode="&#x14a;" horiz-adv-x="1568"
d="M1300 127v-57q0 -33 3 -60h-5l5 -2l-109 -297l-107 -182q-25 14 -116 43.5t-171 64t-102 68.5q34 31 133.5 104.5t133.5 104.5q40 50 55 137q-102 202 -268 586l-131 303q-67 153 -138 303l-16 -4q0 -593 -59 -1210q-94 -5 -236 -19q150 703 168 1440q39 -6 117 -10
q40 -4 116 -8q110 -222 273 -586q213 -477 266 -588q46 648 152 1210q94 7 168 17q-132 -715 -132 -1358z" />
    <glyph glyph-name="eng" unicode="&#x14b;" horiz-adv-x="1394"
d="M1128 676q-12 -182 -12 -363q0 -151 12 -301v-2q0 -102 -44.5 -167t-196.5 -185q-36 4 -82 9q-41 4 -48.5 7.5t-10.5 20.5q-5 29 -17 55q44 46 65 73.5t44.5 75.5t50.5 128q19 262 78 649q4 62 4 92q0 75 -25 135q-21 45 -72 68q-44 18 -94 18q-72 0 -139 -18
q-71 -18 -127 -74q-82 -93 -96 -256q-8 -277 -41 -614q-132 -7 -236 -17q120 525 129 1108q56 -8 162 -12q-2 -25 -2 -72q-2 -23 -2 -69q206 151 401 151q85 0 150 -29q72 -32 106 -98q45 -97 45 -239q0 -49 -2 -74z" />
    <glyph glyph-name="Omacron" unicode="&#x14c;" horiz-adv-x="1597"
d="M633 1862q12 -21 12 -54q0 -38 -24 -73q48 0 145 1t145 1q46 0 142.5 -1t146.5 -1q-14 16 -14 51q0 42 24 76q-96 -2 -288 -2q-193 0 -289 2zM907 1481q-147 0 -266 -43q-138 -47 -233 -150q-118 -124 -170 -323q-39 -150 -39 -351q0 -122 22 -221q28 -111 92 -194
q71 -95 199 -146q119 -43 252 -43q148 0 272 41q140 46 238 150q117 134 166 323q45 160 45 350q0 111 -25 220q-23 104 -90 196q-70 98 -203 150q-116 41 -260 41zM895 1339q101 0 188 -39.5t140 -115.5q80 -136 80 -338q0 -120 -23 -217q-42 -142 -131 -195v2
q-132 -76 -340 -76q-89 0 -172 15q-92 16 -160 59q-51 33 -78 105q-18 53 -18 135q0 138 35 264q38 143 121 244q67 82 163 121q81 36 195 36z" />
    <glyph glyph-name="omacron" unicode="&#x14d;"
d="M414 1516q12 -21 12 -54q0 -37 -25 -73q48 0 145.5 1t145.5 1q46 0 143 -1t146 -1q-14 16 -14 51q0 42 24 76q-144 -3 -289 -3q-144 0 -288 3zM684 1114q-114 0 -199 -31q-101 -32 -174 -108q-86 -98 -125 -254q-28 -114 -28 -270q0 -201 82 -310q53 -75 149 -108
q80 -31 193 -31q111 0 200 31q105 29 172 110q88 96 127 256q29 107 29 271q0 196 -82 305q-59 77 -151 108q-82 31 -193 31zM674 1001q70 0 129.5 -27.5t91.5 -82.5q53 -95 53 -234q0 -92 -14 -161q-25 -109 -94 -156q-90 -51 -230 -51q-141 0 -223 51q-38 25 -51 76
q-12 46 -12 96q0 101 20 195q26 107 86 184q88 110 244 110z" />
    <glyph glyph-name="Ohungarumlaut" unicode="&#x150;" horiz-adv-x="1597"
d="M1085 1968q-61 -75 -116 -168q-42 -71 -109 -174h70h22q13 0 21 -2q148 227 266 350q-76 -6 -154 -6zM748 1968q-116 -238 -209 -350q9 1 28.5 2t28.5 2h57q70 83 125 170q49 78 117 176h-74h-73zM907 1481q-147 0 -266 -43q-138 -47 -233 -150q-118 -124 -170 -323
q-39 -150 -39 -351q0 -122 22 -221q28 -111 92 -194q71 -95 199 -146q119 -43 252 -43q148 0 272 41q140 46 238 150q117 134 166 323q45 160 45 350q0 111 -25 220q-23 104 -90 196q-70 98 -203 150q-116 41 -260 41zM895 1339q101 0 188 -39.5t140 -115.5q80 -136 80 -338
q0 -120 -23 -217q-42 -142 -131 -195v2q-132 -76 -340 -76q-89 0 -172 15q-92 16 -160 59q-51 33 -78 105q-18 53 -18 135q0 138 35 264q38 143 121 244q67 82 163 121q81 36 195 36z" />
    <glyph glyph-name="ohungarumlaut" unicode="&#x151;"
d="M866 1622q-61 -75 -116 -168q-42 -71 -109 -174h70h22q13 0 21 -2q148 227 266 350q-76 -6 -154 -6zM528 1622q-116 -238 -209 -350q9 1 29 2t29 2h57q70 83 125 170q49 78 117 176h-74h-74zM684 1114q-114 0 -199 -31q-101 -32 -174 -108q-86 -98 -125 -254
q-28 -114 -28 -270q0 -201 82 -310q53 -75 149 -108q80 -31 193 -31q111 0 200 31q105 29 172 110q88 96 127 256q29 107 29 271q0 196 -82 305q-59 77 -151 108q-82 31 -193 31zM674 1001q70 0 129.5 -27.5t91.5 -82.5q53 -95 53 -234q0 -92 -14 -161q-25 -109 -94 -156
q-90 -51 -230 -51q-141 0 -223 51q-38 25 -51 76q-12 46 -12 96q0 101 20 195q26 107 86 184q88 110 244 110z" />
    <glyph glyph-name="OE" unicode="&#x152;" horiz-adv-x="2269"
d="M2116 1483q-416 -29 -977 -29q-239 0 -369 -24q-212 -40 -352 -156q-121 -108 -178 -307q-41 -152 -41 -336q0 -135 30 -232q39 -124 119 -202q109 -92 283 -131q122 -27 321 -27q609 0 1053 -29q-14 104 -18 260q-216 11 -727 19q16 267 38 499l684 5q3 33 17 145
l-688 -6q9 100 45 416q430 7 731 24q14 65 29 111zM1040 1348h138q-27 -267 -48 -531q-9 -98 -25 -280.5t-22 -247.5h-133q-137 0 -241 24q-129 33 -209 113q-56 55 -87.5 128.5t-31.5 154.5q0 27 2 39q11 144 43 247q48 141 133 215q96 81 229 113q117 25 252 25z" />
    <glyph glyph-name="oe" unicode="&#x153;" horiz-adv-x="2109"
d="M1921 754q2 10 2 26q0 56 -25 111q-15 36 -53 96q-40 64 -127 103q-74 28 -168 28q-147 0 -270 -53q-140 -60 -225 -170q-57 111 -172 170q-103 53 -244 53q-104 0 -184 -31q-97 -38 -156 -108q-83 -106 -117 -272q-22 -117 -22 -277q0 -189 67 -291q44 -76 133 -108
q76 -33 177 -33q139 0 256 51q128 59 206 170q71 -114 213 -172q114 -49 281 -49q185 0 362 68q-10 105 -10 188v20q-168 -86 -362 -86q-91 0 -152 15q-77 16 -137 55q-45 48 -66 129q-14 55 -14 150q0 44 2 67v66q395 0 797 6q4 24 4 39q4 24 4 39zM1772 784
q-110 0 -322 -4q-104 -2 -320 -2q28 84 125 166q104 90 273 90q125 0 188 -86q56 -73 56 -143v-10v-11zM647 1014h10q69 0 130 -29t102 -82q61 -96 61 -237q0 -96 -24 -172q-32 -100 -86 -160q-95 -109 -256 -109q-63 0 -117.5 27t-85.5 78q-53 81 -53 219q0 100 16 184
q23 104 78 176q40 52 99.5 78.5t125.5 26.5z" />
    <glyph glyph-name="Racute" unicode="&#x154;" horiz-adv-x="1622"
d="M920 2068q-115 -133 -164 -196q-88 -109 -166 -193l143 7q89 82 191 196q122 132 190 195q-48 -4 -194 -9zM967 698l2 13q120 37 186 166q55 107 55 239q0 84 -26 152q-38 78 -103 121q-106 61 -288 65q-270 7 -445 31v-66q0 -719 -129 -1409q138 15 223 19
q50 331 74 612q51 2 152 2q113 0 180 -47q41 -35 72 -90q32 -63 49 -107q83 -252 127 -368q129 -6 262 -21q-98 198 -184 404q-16 35 -35 82q-1 3 -43 77q-59 91 -129 119v6zM545 1380q58 -5 260 -10q121 0 213 -65h-2q76 -54 76 -189v-33q-2 -12 -2 -32q-8 -93 -117 -166
q-100 -62 -207 -62h-125h-127q23 309 31 557z" />
    <glyph glyph-name="racute" unicode="&#x155;" horiz-adv-x="882"
d="M547 1722q-115 -133 -164 -196q-88 -109 -166 -193l143 6q84 77 191 197q122 132 190 195q-48 -4 -194 -9zM815 944l25 166h-29q-71 0 -137 -14q-76 -20 -133 -54q-43 -24 -72 -38q-15 -8 -40.5 -24t-29.5 -19q0 21 4 61q0 9 5 59q-129 11 -144 13q-44 -591 -145 -1084
q117 16 217 19q12 149 33 530q15 177 90 281q44 63 133 94q73 20 160 20q41 0 63 -10z" />
    <glyph glyph-name="Rcommaaccent" unicode="&#x156;" horiz-adv-x="1622"
d="M967 698l2 13q120 37 186 166q55 107 55 239q0 84 -26 152q-38 78 -103 121q-106 61 -288 65q-270 7 -445 31v-66q0 -719 -129 -1409q138 15 223 19q50 331 74 612q51 2 152 2q113 0 180 -47q41 -35 72 -90q32 -63 49 -107q83 -252 127 -368q129 -6 262 -21
q-98 198 -184 404q-16 35 -35 82q-1 3 -43 77q-59 91 -129 119v6zM545 1380q58 -5 260 -10q121 0 213 -65h-2q76 -54 76 -189v-33q-2 -12 -2 -32q-8 -93 -117 -166q-100 -62 -207 -62h-125h-127q23 309 31 557zM645 0l-12 -199q-10 -26 -31 -77t-31 -76q-34 -83 -65 -152
q27 6 55 6q8 1 26 2t27 2q49 56 121 150l115 154q13 109 29 198q-98 -10 -172 -10h-31q-21 0 -31 2z" />
    <glyph glyph-name="rcommaaccent" unicode="&#x157;" horiz-adv-x="882"
d="M815 944l25 166h-29q-71 0 -137 -14q-76 -20 -133 -54q-43 -24 -72 -38q-15 -8 -40.5 -24t-29.5 -19q0 21 4 61q0 9 5 59q-129 11 -144 13q-44 -591 -145 -1084q117 16 217 19q12 149 33 530q15 177 90 281q44 63 133 94q73 20 160 20q41 0 63 -10zM113 -47l-13 -199
q-10 -25 -30.5 -76t-30.5 -77q-24 -60 -66 -152q27 6 56 6q8 1 26 2t27 2q49 56 121 150l114 153q13 112 29 199q-98 -10 -172 -10h-31q-20 0 -30 2z" />
    <glyph glyph-name="Rcaron" unicode="&#x158;" horiz-adv-x="1622"
d="M612 1626h140q10 15 47.5 69.5t54 77.5t47.5 65t57.5 74t55.5 62q-18 -2 -58 -2q-10 -1 -29.5 -2t-29.5 -2q-43 -41 -106 -119l-101 -125q-7 11 -30.5 48.5t-34 53.5t-29.5 45.5t-36 52t-34 44.5q-111 6 -114 6q58 -79 106 -170zM967 698l2 13q120 37 186 166
q55 107 55 239q0 84 -26 152q-38 78 -103 121q-106 61 -288 65q-270 7 -445 31v-66q0 -719 -129 -1409q138 15 223 19q50 331 74 612q51 2 152 2q113 0 180 -47q41 -35 72 -90q32 -63 49 -107q83 -252 127 -368q129 -6 262 -21q-98 198 -184 404q-16 35 -35 82q-1 3 -43 77
q-59 91 -129 119v6zM545 1380q58 -5 260 -10q121 0 213 -65h-2q76 -54 76 -189v-33q-2 -12 -2 -32q-8 -93 -117 -166q-100 -62 -207 -62h-125h-127q23 309 31 557z" />
    <glyph glyph-name="rcaron" unicode="&#x159;" horiz-adv-x="882"
d="M240 1280h139q10 15 47.5 69.5t54 77.5t47.5 65t57.5 74t55.5 62q-18 -2 -57 -2q-10 -1 -30 -2t-30 -2q-43 -41 -106 -119l-101 -125q-7 12 -37 60t-43 68t-37.5 54.5t-45.5 61.5q-113 6 -115 6q58 -79 106 -170zM815 944l25 166h-29q-71 0 -137 -14q-76 -20 -133 -54
q-43 -24 -72 -38q-15 -8 -40.5 -24t-29.5 -19q0 21 4 61q0 9 5 59q-129 11 -144 13q-44 -591 -145 -1084q117 16 217 19q12 149 33 530q15 177 90 281q44 63 133 94q73 20 160 20q41 0 63 -10z" />
    <glyph glyph-name="Sacute" unicode="&#x15a;" horiz-adv-x="1376"
d="M887 1882q-102 -114 -191 -196l-143 -7q78 84 166 193q49 63 164 196q146 5 194 9q-68 -63 -190 -195zM555 1286q-113 -69 -113 -205q0 -90 50 -137q64 -51 210 -82l91 -18q106 -21 176 -49q36 -15 80 -43q141 -102 141 -299q0 -101 -29 -187q-33 -98 -112 -155
q-95 -63 -211 -82q-98 -19 -217 -19q-235 0 -451 64q28 175 43 293q188 -111 430 -111q165 0 264 63q46 29 72 62q33 42 33 82q0 79 -76 135q-60 43 -158 68q-45 12 -80 18q-70 11 -143 33q-86 24 -147 63q-94 65 -121 160q-17 70 -17 127q0 89 31 174q39 93 111 143
q83 56 184 78q90 19 197 19q209 0 417 -54q-2 -13 -4 -26.5t-4.5 -29.5t-3.5 -25l-12 -91q-199 84 -383 84q-152 0 -248 -53zM1214 1432q3 -3 3 -7l-7 2q0 1 1 4.5t1 4.5z" />
    <glyph glyph-name="sacute" unicode="&#x15b;" horiz-adv-x="1155"
d="M741 1536q-112 -125 -190 -197l-143 -6q71 76 165 193q49 63 164 196q148 5 195 9q-75 -69 -191 -195zM635 1114q210 0 340 -41l-10 -61q-11 -67 -11 -70q-132 62 -325 62q-111 0 -185 -39q-96 -49 -96 -154q0 -67 58 -111q45 -37 120 -57q68 -19 115 -25
q106 -28 131 -38q73 -31 115 -70q63 -60 63 -176q0 -74 -28 -141q-33 -75 -97 -113q-72 -48 -172 -64q-69 -14 -178 -14q-168 0 -354 47q19 111 35 246q156 -84 338 -84h20q6 -2 14 -2h15q90 0 149 33q77 39 82 120q-26 59 -49 89q-46 35 -121 55q-14 4 -63 14q-7 1 -115 29
q-60 12 -115 43q-73 42 -90 113q-10 39 -10 92q0 91 35 157q39 77 121 113q118 47 268 47zM981 1071l-6 2q0 4 2 6z" />
    <glyph glyph-name="Scedilla" unicode="&#x15e;" horiz-adv-x="1376"
d="M555 1286q-113 -69 -113 -205q0 -90 50 -137q64 -51 210 -82l91 -18q106 -21 176 -49q36 -15 80 -43q141 -102 141 -299q0 -101 -29 -187q-33 -98 -112 -155q-95 -63 -211 -82q-98 -19 -217 -19h-17q29 -63 29 -114q0 -39 -19 -82q-21 -48 -57 -64q-61 -29 -170 -29
q-65 0 -145 17q2 8 5 25.5t5 25.5l6 55q45 -22 121 -22h12q4 -2 12 -2q51 0 82 28q37 29 37 76q0 42 -20 90q-174 12 -332 60q28 175 43 293q188 -111 430 -111q165 0 264 63q46 29 72 62q33 42 33 82q0 79 -76 135q-60 43 -158 68q-45 12 -80 18q-70 11 -143 33
q-86 24 -147 63q-94 65 -121 160q-17 70 -17 127q0 89 31 174q39 93 111 143q83 56 184 78q90 19 197 19q209 0 417 -54q-2 -13 -4 -26.5t-4.5 -29.5t-3.5 -25l-12 -91q-199 84 -383 84q-152 0 -248 -53zM1214 1432q3 -3 3 -7l-7 2q0 1 1 4.5t1 4.5z" />
    <glyph glyph-name="scedilla" unicode="&#x15f;" horiz-adv-x="1155"
d="M635 1114q210 0 340 -41l-10 -61q-11 -67 -11 -70q-132 62 -325 62q-111 0 -185 -39q-96 -49 -96 -154q0 -67 58 -111q45 -37 120 -57q68 -19 115 -25q106 -28 131 -38q73 -31 115 -70q63 -60 63 -176q0 -74 -28 -141q-33 -75 -97 -113q-72 -48 -172 -64
q-55 -12 -112 -12q24 -60 24 -108q0 -39 -16 -82q-21 -48 -57 -64q-61 -29 -170 -29q-65 0 -148 17q7 29 10 51q3 29 9 55q43 -22 120 -22h13q4 -2 12 -2q46 0 82 28q37 29 37 76q0 36 -17 78q-161 6 -319 47q19 111 35 246q156 -84 338 -84h20q6 -2 14 -2h15q90 0 149 33
q77 39 82 120q-26 59 -49 89q-46 35 -121 55q-14 4 -63 14q-7 1 -115 29q-60 12 -115 43q-73 42 -90 113q-10 39 -10 92q0 91 35 157q39 77 121 113q118 47 268 47zM981 1071l-6 2q0 4 2 6z" />
    <glyph glyph-name="Scaron" unicode="&#x160;" horiz-adv-x="1574"
d="M946 1638q-33 49 -82 127q-44 67 -92 115q39 0 57 -2h56q19 -19 41 -44t37 -42.5t39.5 -47.5t35.5 -44q10 10 35 35.5t38.5 39t35 33.5t41 37t39.5 33h55q20 2 57 2q-20 -17 -41 -37.5t-36 -36t-37.5 -43t-32 -39t-35.5 -44.5t-33 -42q-14 2 -45 2h-45h-45q-29 0 -43 -2z
M754 1286q-113 -69 -113 -205q0 -91 49 -137q64 -51 211 -82l90 -18q106 -21 176 -49q36 -15 80 -43q72 -52 107 -130t35 -169q0 -101 -29 -187q-33 -97 -113 -155q-96 -63 -211 -82q-98 -19 -217 -19q-234 0 -450 64q28 174 43 293q188 -111 430 -111q165 0 266 63
q46 32 70 62q32 41 32 82q0 80 -75 135q-60 43 -158 68q-45 12 -80 18q-72 11 -141 33q-89 23 -150 63q-94 65 -121 160q-16 66 -16 127q0 95 33 174q33 91 108 143q82 56 185 78q90 19 196 19q213 0 418 -54q-3 -39 -12 -81l-13 -91q-199 84 -383 84q-151 0 -247 -53z
M1413 1432q2 -2 2 -7l-6 2q0 7 2 9z" />
    <glyph glyph-name="scaron" unicode="&#x161;" horiz-adv-x="1507"
d="M971 1382h-137q-49 87 -97 179q-54 103 -106 170q98 -5 114 -5q74 -94 164 -243q70 82 103 125q44 55 104 118q10 0 31 1.5t31 1.5q9 0 28.5 1t28.5 1q-24 -26 -49.5 -56t-43.5 -53t-46 -61.5t-40.5 -56t-44 -63.5t-40.5 -59zM618 1067q121 47 271 47q210 0 340 -41
q-2 -22 -10 -61l-13 -70q-132 62 -323 62q-113 0 -187 -39q-94 -50 -94 -154q0 -69 55 -111q43 -35 121 -57q72 -19 117 -25q115 -32 131 -38q76 -33 115 -70q61 -58 61 -176q0 -81 -28 -141q-33 -75 -97 -113q-72 -47 -170 -64q-69 -14 -180 -14q-168 0 -354 47
q11 67 37 246q156 -84 335 -84h23q4 -2 14 -2h13q92 0 151 33q77 39 80 120q-26 57 -47 89q-44 34 -121 55q-16 4 -65 14q-7 1 -115 29q-59 12 -113 43q-75 43 -92 113q-10 52 -10 92q0 93 37 157q35 75 118 113zM1233 1071l-4 2v6z" />
    <glyph glyph-name="Tcedilla" unicode="&#x162;" horiz-adv-x="1548"
d="M952 1452q284 0 639 33q-19 -98 -28 -154q-156 -6 -312 -6q-136 0 -204 4q-59 -825 -70 -1292q-20 2 -55 2h-11q50 -87 50 -154q0 -39 -19 -82q-21 -48 -57 -61q-61 -31 -168 -31q-68 0 -148 17q2 9 5.5 27.5t5.5 25.5l6 53q45 -22 121 -22h14q2 -2 12 -2q42 0 82 28
q37 33 37 78q0 47 -39 123h-25q-25 -2 -75 -2q87 660 153 1290q-78 -2 -231 -2q-191 0 -285 8q0 25 -1 76t-1 76q288 -33 604 -33z" />
    <glyph glyph-name="tcedilla" unicode="&#x163;" horiz-adv-x="1103"
d="M596 1360q-88 0 -176 6q-11 -119 -27 -270q-74 7 -125 14q-4 -46 -4 -61l-4 -64q46 -4 64 -4q23 0 63 -4q-13 -162 -63 -600q-5 -73 -5 -92q0 -121 58 -179q27 -24 61 -36q70 -27 148 -33l73 -6q16 -1 46.5 -4t44.5 -4l88 -13q0 86 8 254q-39 5 -170 15q-46 0 -82 8
q-45 10 -70 35q-24 37 -24 104q0 13 1 36t1 34q10 84 26 239l25 238h43q101 0 203 6q4 17 8 59l6 60q-108 -6 -211 -6h-39q16 139 33 268zM719 -14q-31 -2 -94 -2q20 -33 29.5 -51t19.5 -49t10 -58q0 -45 -37 -78q-42 -29 -82 -29q-10 0 -12 2h-14q-74 0 -121 23l-6 -53
q-2 -7 -5.5 -25.5t-5.5 -27.5q80 -17 148 -17q107 0 168 31q36 13 57 61q19 43 19 82q0 83 -74 191z" />
    <glyph glyph-name="Tcaron" unicode="&#x164;" horiz-adv-x="1548"
d="M879 1626h139q10 15 47.5 69.5t54 77.5t47.5 65t57.5 74t55.5 62q-18 -2 -57 -2q-10 -1 -30 -2t-30 -2q-43 -41 -106 -119l-101 -125q-7 12 -37 60t-43 68t-37.5 54.5t-45.5 61.5q-113 6 -115 6q58 -79 106 -170zM348 1485q0 -25 1 -76t1 -76q94 -8 285 -8q153 0 231 2
q-66 -630 -153 -1290q50 0 75 2h76h58q35 0 55 -2q11 467 70 1292q68 -4 204 -4q156 0 312 6q9 56 28 154q-355 -33 -639 -33q-316 0 -604 33z" />
    <glyph glyph-name="tcaron" unicode="&#x165;" horiz-adv-x="1103"
d="M1036 1679l-6 -86q-1 -14 -3 -42.5t-3 -43.5q-38 -120 -63 -186q-30 -90 -68 -184q24 4 68 8q13 0 35 1t34 1q53 83 111 184q74 128 108 185q10 102 25 174q-78 -11 -170 -11h-33h-35zM596 1360q-88 0 -176 6q-11 -119 -27 -270q-74 7 -125 14q-4 -46 -4 -61l-4 -64
q46 -4 64 -4q23 0 63 -4q-13 -162 -63 -600q-5 -73 -5 -92q0 -121 58 -179q27 -24 61 -36q70 -27 148 -33l73 -6q16 -1 46.5 -4t44.5 -4l88 -13q0 86 8 254q-39 5 -170 15q-46 0 -82 8q-45 10 -70 35q-24 37 -24 104q0 13 1 36t1 34q10 84 26 239l25 238h43q101 0 203 6
q4 17 8 59l6 60q-108 -6 -211 -6h-39q16 139 33 268z" />
    <glyph glyph-name="Tbar" unicode="&#x166;" horiz-adv-x="1548"
d="M723 1862q12 -21 12 -54q0 -38 -24 -73q48 0 145 1t145 1q47 0 143 -1t146 -1q-14 16 -14 51q0 42 24 76q-96 -2 -288 -2q-193 0 -289 2zM348 1485q0 -25 1 -76t1 -76q94 -8 285 -8q153 0 231 2q-66 -630 -153 -1290q50 0 75 2h76h58q35 0 55 -2q11 467 70 1292
q68 -4 204 -4q156 0 312 6q9 56 28 154q-355 -33 -639 -33q-316 0 -604 33z" />
    <glyph glyph-name="tbar" unicode="&#x167;" horiz-adv-x="1103"
d="M258 1700q12 -21 12 -53q0 -40 -24 -74q48 0 145.5 1t145.5 1q47 0 143 -1t145 -1q-14 16 -14 51q0 40 25 76q-96 -2 -289 -2t-289 2zM596 1360q-88 0 -176 6q-11 -119 -27 -270q-74 7 -125 14q-4 -46 -4 -61l-4 -64q46 -4 64 -4q23 0 63 -4q-13 -162 -63 -600
q-5 -73 -5 -92q0 -121 58 -179q27 -24 61 -36q70 -27 148 -33l73 -6q16 -1 46.5 -4t44.5 -4l88 -13q0 86 8 254q-39 5 -170 15q-46 0 -82 8q-45 10 -70 35q-24 37 -24 104q0 13 1 36t1 34q10 84 26 239l25 238h43q101 0 203 6q4 17 8 59l6 60q-108 -6 -211 -6h-39
q16 139 33 268z" />
    <glyph glyph-name="Utilde" unicode="&#x168;" horiz-adv-x="1515"
d="M864 1901l49 -54q51 -57 136 -57q47 0 75 25q53 45 86 145q14 36 39 88q-37 -2 -106 -2q-14 -32 -17 -45q-8 -23 -18 -47q-25 -55 -74 -60q-32 2 -65 39l-49 54q-60 57 -138 57q-32 0 -73 -23q-23 -15 -42 -44t-27 -48.5t-22 -58.5q-9 -32 -32 -84q16 2 51 2t53 2
q4 7 17 43q3 15 18 49q23 52 70 57q33 -2 69 -38zM346 1483v-70q0 -407 -45 -852q-6 -65 -6 -129q0 -92 18 -158q22 -82 74 -143q69 -72 180 -98q97 -25 213 -25q124 0 224 27q127 35 204 112q73 79 111 197q27 97 37 217q40 537 114 922q-29 -2 -92 -10q-8 -1 -40.5 -4
t-51.5 -3q-40 -243 -90 -741q-7 -97 -29 -176q-21 -93 -80 -164q-54 -60 -131 -82q-70 -20 -151 -20q-91 0 -150 20q-78 22 -118 82q-56 85 -56 231q0 35 4 109q34 366 43 739q-74 5 -182 19z" />
    <glyph glyph-name="utilde" unicode="&#x169;" horiz-adv-x="1341"
d="M711 1554l49 -53q51 -57 135 -57q49 0 76 24q53 45 86 146q14 36 39 88q-37 -2 -107 -2q-11 -27 -16 -45q-4 -12 -19 -47q-25 -55 -73 -60q-34 2 -66 39l-49 53q-61 58 -137 58q-33 0 -74 -23q-23 -15 -41.5 -44.5t-26 -47.5t-22.5 -59q-7 -26 -33 -84q16 2 51 2
q36 0 54 2q3 5 5.5 12t5.5 16l5 15q3 15 18 49q23 52 70 57q33 -2 70 -39zM238 442q-7 -61 -7 -104q0 -116 41 -211q35 -66 111 -98q68 -29 154 -29h26q105 0 209 61q98 61 160 156q-14 -120 -19 -194q33 -1 162 -11q3 557 121 1098q-68 -6 -197 -14q-43 -240 -65 -455
q-25 -162 -111 -256t-243 -94q-115 0 -168 92q-35 69 -35 188v19v16q19 262 22 492q-30 6 -65 6l-66 6v-43v-45q0 -288 -30 -580z" />
    <glyph glyph-name="Umacron" unicode="&#x16a;" horiz-adv-x="1515"
d="M608 1862q13 -23 13 -54q0 -37 -25 -73q48 0 145.5 1t145.5 1q47 0 143 -1t146 -1q-15 17 -15 51q0 40 25 76q-96 -2 -289 -2t-289 2zM346 1483v-70q0 -407 -45 -852q-6 -65 -6 -129q0 -92 18 -158q22 -82 74 -143q69 -72 180 -98q97 -25 213 -25q124 0 224 27
q127 35 204 112q73 79 111 197q27 97 37 217q40 537 114 922q-29 -2 -92 -10q-8 -1 -40.5 -4t-51.5 -3q-40 -243 -90 -741q-7 -97 -29 -176q-21 -93 -80 -164q-54 -60 -131 -82q-70 -20 -151 -20q-91 0 -150 20q-78 22 -118 82q-56 85 -56 231q0 35 4 109q34 366 43 739
q-74 5 -182 19z" />
    <glyph glyph-name="umacron" unicode="&#x16b;" horiz-adv-x="1341"
d="M455 1516q12 -21 12 -54q0 -37 -25 -73q48 0 145.5 1t145.5 1q47 0 143 -1t146 -1q-14 16 -14 51q0 42 24 76q-144 -3 -289 -3q-144 0 -288 3zM238 442q-7 -61 -7 -104q0 -116 41 -211q35 -66 111 -98q68 -29 154 -29h26q105 0 209 61q98 61 160 156q-14 -120 -19 -194
q33 -1 162 -11q3 557 121 1098q-68 -6 -197 -14q-43 -240 -65 -455q-25 -162 -111 -256t-243 -94q-115 0 -168 92q-35 69 -35 188v19v16q19 262 22 492q-30 6 -65 6l-66 6v-43v-45q0 -288 -30 -580z" />
    <glyph glyph-name="Uring" unicode="&#x16e;" horiz-adv-x="1515"
d="M1112 1872q0 5 1 15t1 16q0 96 -63 159q-65 62 -160 62q-122 0 -203 -84q-74 -83 -74 -201q0 -100 64 -164q59 -59 160 -59q113 0 188 72q77 71 86 184zM1016 1870q-6 -64 -53 -111q-45 -45 -113 -45q-61 0 -98 37q-39 39 -39 98q0 75 47 125q46 49 119 49q61 -2 100 -39
t39 -98v-8q-2 -2 -2 -8zM346 1483v-70q0 -407 -45 -852q-6 -65 -6 -129q0 -92 18 -158q22 -82 74 -143q69 -72 180 -98q97 -25 213 -25q124 0 224 27q127 35 204 112q73 79 111 197q27 97 37 217q40 537 114 922q-29 -2 -92 -10q-8 -1 -40.5 -4t-51.5 -3q-40 -243 -90 -741
q-7 -97 -29 -176q-21 -93 -80 -164q-54 -60 -131 -82q-70 -20 -151 -20q-91 0 -150 20q-78 22 -118 82q-56 85 -56 231q0 35 4 109q34 366 43 739q-74 5 -182 19z" />
    <glyph glyph-name="uring" unicode="&#x16f;" horiz-adv-x="1341"
d="M958 1526q0 5 1.5 14.5t1.5 15.5q0 96 -64 160q-65 62 -160 62q-121 0 -202 -84q-74 -83 -74 -201q0 -101 63 -164q59 -59 160 -59q114 0 188 71q77 71 86 185zM862 1524q-6 -64 -53 -111q-45 -45 -113 -45q-61 0 -98 37q-39 39 -39 98q0 75 47 125q46 49 119 49
q61 -2 100 -39t39 -98v-8q-2 -2 -2 -8zM238 442q-7 -61 -7 -104q0 -116 41 -211q35 -66 111 -98q68 -29 154 -29h26q105 0 209 61q98 61 160 156q-14 -120 -19 -194q33 -1 162 -11q3 557 121 1098q-68 -6 -197 -14q-43 -240 -65 -455q-25 -162 -111 -256t-243 -94
q-115 0 -168 92q-35 69 -35 188v19v16q19 262 22 492q-30 6 -65 6l-66 6v-43v-45q0 -288 -30 -580z" />
    <glyph glyph-name="Uhungarumlaut" unicode="&#x170;" horiz-adv-x="1515"
d="M1061 1968q-65 -80 -117 -168t-108 -174h69h23q12 0 20 -2q148 227 266 350q-76 -6 -153 -6zM723 1968q-116 -238 -209 -350q9 1 28.5 2t28.5 2h58q70 83 125 170q58 93 116 176h-73h-74zM346 1483v-70q0 -407 -45 -852q-6 -65 -6 -129q0 -92 18 -158q22 -82 74 -143
q69 -72 180 -98q97 -25 213 -25q124 0 224 27q127 35 204 112q73 79 111 197q27 97 37 217q40 537 114 922q-29 -2 -92 -10q-8 -1 -40.5 -4t-51.5 -3q-40 -243 -90 -741q-7 -97 -29 -176q-21 -93 -80 -164q-54 -60 -131 -82q-70 -20 -151 -20q-91 0 -150 20q-78 22 -118 82
q-56 85 -56 231q0 35 4 109q34 366 43 739q-74 5 -182 19z" />
    <glyph glyph-name="uhungarumlaut" unicode="&#x171;" horiz-adv-x="1341"
d="M907 1622q-61 -75 -116 -168q-42 -71 -109 -174h70h22q13 0 21 -2q148 227 266 350q-76 -6 -154 -6zM569 1622q-116 -238 -209 -350q9 1 29 2t29 2h57q70 83 125 170q49 78 117 176h-74h-74zM238 442q-7 -61 -7 -104q0 -116 41 -211q35 -66 111 -98q68 -29 154 -29h26
q105 0 209 61q98 61 160 156q-14 -120 -19 -194q33 -1 162 -11q3 557 121 1098q-68 -6 -197 -14q-43 -240 -65 -455q-25 -162 -111 -256t-243 -94q-115 0 -168 92q-35 69 -35 188v19v16q19 262 22 492q-30 6 -65 6l-66 6v-43v-45q0 -288 -30 -580z" />
    <glyph glyph-name="Uogonek" unicode="&#x172;" horiz-adv-x="1515"
d="M346 1483v-70q0 -407 -45 -852q-6 -65 -6 -129q0 -92 18 -158q22 -82 74 -143q69 -72 180 -98q97 -25 213 -25q124 0 224 27q127 35 204 112q73 79 111 197q27 97 37 217q40 537 114 922q-29 -2 -92 -10q-8 -1 -40.5 -4t-51.5 -3q-40 -243 -90 -741q-7 -97 -29 -176
q-21 -93 -80 -164q-54 -60 -131 -82q-70 -20 -151 -20q-91 0 -150 20q-78 22 -118 82q-56 85 -56 231q0 35 4 109q34 366 43 739q-74 5 -182 19zM778 8q-47 -58 -67 -98q-37 -66 -37 -129q0 -79 57 -111q45 -20 146 -24q63 0 124 12v16v15q0 37 3 78q-50 -23 -123 -23
q-39 0 -67 22.5t-28 59.5q0 20 11 49q16 48 51 90q19 27 31 41h-52q-33 0 -49 2z" />
    <glyph glyph-name="uogonek" unicode="&#x173;" horiz-adv-x="1341"
d="M238 442q-7 -61 -7 -104q0 -116 41 -211q35 -66 111 -98q68 -29 154 -29h26q105 0 209 61q98 61 160 156q-14 -120 -19 -194q33 -1 162 -11q3 557 121 1098q-68 -6 -197 -14q-43 -240 -65 -455q-25 -162 -111 -256t-243 -94q-115 0 -168 92q-35 69 -35 188v19v16
q19 262 22 492q-30 6 -65 6l-66 6v-43v-45q0 -288 -30 -580zM483 -2q-47 -58 -67 -98q-37 -66 -37 -129q0 -79 57 -111q47 -21 146 -25q58 0 125 13v16v14q0 51 2 78q-48 -22 -123 -22q-38 0 -66 22.5t-28 59.5q0 22 10 49q16 48 51 90q19 27 31 41h-52q-33 0 -49 2z" />
    <glyph glyph-name="Wcircumflex" unicode="&#x174;" horiz-adv-x="2166"
d="M1389 1831h-140q-10 -15 -31.5 -44.5t-31.5 -45.5q-11 -18 -33.5 -48.5t-28.5 -39.5q-78 -111 -137 -172q9 1 28.5 2t28.5 2q40 0 60 2q67 71 106 119l101 125q54 -88 78 -125q37 -60 86 -119q18 -2 59 -2q9 -1 28.5 -2t28.5 -2q-45 61 -57 84q-49 73 -98 176
q-8 15 -47 90zM518 1473l-170 12q94 -327 144 -719q45 -354 57 -739q200 8 301 8q172 342 373 794q12 -46 48.5 -191.5t54.5 -215.5t50.5 -182t63.5 -203q23 -1 69.5 -2t69.5 -2q45 0 139 -4q92 401 203 739q136 404 293 717l-86 -6q-58 -4 -88 -4q-228 -427 -467 -1090
q-71 186 -129 350q-70 201 -125 352h-158l-200 -342q-117 -204 -205 -342q-51 319 -97 541q-67 306 -141 529z" />
    <glyph glyph-name="wcircumflex" unicode="&#x175;" horiz-adv-x="1777"
d="M1120 1485h-139q-10 -15 -31.5 -45t-31.5 -45q-11 -18 -33.5 -48.5t-28.5 -39.5q-78 -111 -137 -172q9 1 28.5 2t28.5 2q40 0 60 2q67 71 106 119l100 124q46 -75 78 -124q37 -60 86 -119q18 -2 60 -2q9 -1 28.5 -2t28.5 -2q-45 61 -57 84q-52 78 -99 176q-9 15 -47 90z
M268 1110q78 -235 129 -535q36 -223 64 -550q19 0 58 1t59 1q37 2 114 2q102 183 262 506q70 -242 166 -504q20 -1 60.5 -2t60.5 -2q21 0 61.5 -1t61.5 -1q74 315 156 553q97 288 227 532q-58 -4 -166 -8q-148 -282 -321 -787q-90 204 -173 418q-16 -2 -43 -2h-43h-145
q-93 -159 -121 -209q-115 -190 -125 -207q-78 484 -182 785q-26 2 -79.5 5t-80.5 5z" />
    <glyph glyph-name="Ycircumflex" unicode="&#x176;" horiz-adv-x="1525"
d="M1077 1831h-139q-10 -16 -32 -45.5t-32 -44.5q-12 -18 -35 -51t-26 -37q-78 -111 -137 -172q9 1 28.5 2t28.5 2q40 0 60 2q67 71 106 119l100 125q54 -88 78 -125q37 -60 86 -119q18 -2 60 -2q9 -1 28.5 -2t28.5 -2q-45 61 -57 84q-52 78 -99 176q-8 15 -47 90zM348 1485
q70 -147 150 -336t118.5 -285t135.5 -342q-26 -265 -50 -485q49 0 74 2h74h53q35 0 53 -2q17 272 35 485q197 339 285 488q131 227 299 475q-121 -15 -197 -17q-179 -261 -483 -759q-234 520 -354 757q-51 3 -97 9q-27 2 -96 10z" />
    <glyph glyph-name="ycircumflex" unicode="&#x177;" horiz-adv-x="1361"
d="M893 1485h-139q-10 -15 -32 -45t-32 -45q-12 -18 -35 -51t-26 -37q-78 -111 -137 -172q9 1 28.5 2t28.5 2q39 0 59 2q74 78 107 119l100 124q46 -75 78 -124q37 -60 86 -119q18 -2 59 -2q9 -1 29 -2t29 -2q-48 65 -58 84q-49 73 -98 176q-8 15 -47 90zM754 -84
q83 177 139 301t139 301q164 348 297 592l-176 -18q-127 -209 -371 -650q-152 300 -344 650q-89 6 -170 18q137 -324 389 -1010q-29 -48 -47 -77l-45 -80q-8 -8 -24.5 -26t-24.5 -26q-63 -63 -108 -77q-55 -17 -121 -17q-11 -1 -32.5 -2t-31.5 -2q-12 -76 -16 -110l-19 -113
q29 4 95 8q102 3 186 29q84 25 149 100q46 51 97 137q7 14 21 39t18 33z" />
    <glyph glyph-name="Ydieresis" unicode="&#x178;" horiz-adv-x="1525"
d="M713 1862q12 -38 12 -72q0 -62 -29 -113q16 0 46 1t46 1h91q16 65 16 146v16v17q-61 0 -90 2q-61 0 -92 2zM1104 1858q-19 -71 -19 -134q0 -8 1 -22.5t1 -22.5h93q15 0 45 -1t47 -1q-12 35 -12 70q0 62 26 115q-31 -2 -92 -2q-31 -2 -90 -2zM348 1485q70 -147 150 -336
t118.5 -285t135.5 -342q-26 -265 -50 -485q49 0 74 2h74h53q35 0 53 -2q17 272 35 485q197 339 285 488q131 227 299 475q-121 -15 -197 -17q-179 -261 -483 -759q-234 520 -354 757q-51 3 -97 9q-27 2 -96 10z" />
    <glyph glyph-name="Zacute" unicode="&#x179;" horiz-adv-x="1660"
d="M1055 2068q-115 -133 -164 -196q-88 -109 -166 -193l143 7q89 82 191 196q122 132 190 195q-48 -4 -194 -9zM346 1481v-152q257 -20 543 -20q201 0 368 8q-530 -530 -1013 -1036q-42 -234 -49 -271q327 29 604 29q275 0 596 -29q-2 59 -2 180v52v49q-245 16 -553 16
q-192 0 -385 -6q230 230 510 520q336 344 510 518q7 31 14 72l12 72q-289 -29 -596 -29q-277 0 -559 27z" />
    <glyph glyph-name="zacute" unicode="&#x17a;" horiz-adv-x="1271"
d="M834 1722q-115 -133 -164 -196q-88 -109 -166 -193l143 6q84 77 191 197q122 132 190 195q-48 -4 -194 -9zM266 1106v-119q148 -12 371 -12q146 0 293 6q-489 -455 -760 -717q-21 -153 -43 -254q225 21 448 21q243 0 431 -21q0 24 -1 71t-1 71v45q0 27 2 43
q-193 12 -392 12q-71 0 -215 -4q118 118 344 352q58 63 340 354q4 19 13.5 73t15.5 83q-250 -23 -453 -23q-186 0 -393 19z" />
    <glyph glyph-name="Zdotaccent" unicode="&#x17b;" horiz-adv-x="1660"
d="M764 1888v-16v-19q0 -67 -16 -149q66 4 98 4q28 0 86 -4v12q-2 4 -2 15q0 77 18 157q-49 -6 -92 -6q-46 0 -92 6zM346 1481v-152q257 -20 543 -20q201 0 368 8q-530 -530 -1013 -1036q-42 -234 -49 -271q327 29 604 29q275 0 596 -29q-2 59 -2 180v52v49q-245 16 -553 16
q-192 0 -385 -6q230 230 510 520q336 344 510 518q7 31 14 72l12 72q-289 -29 -596 -29q-277 0 -559 27z" />
    <glyph glyph-name="zdotaccent" unicode="&#x17c;" horiz-adv-x="1271"
d="M543 1542v-16v-19q0 -62 -17 -149q66 4 99 4q28 0 86 -4v12q-2 4 -2 14q0 78 18 158q-50 -6 -92 -6q-45 0 -92 6zM266 1106v-119q148 -12 371 -12q146 0 293 6q-489 -455 -760 -717q-21 -153 -43 -254q225 21 448 21q243 0 431 -21q0 24 -1 71t-1 71v45q0 27 2 43
q-193 12 -392 12q-71 0 -215 -4q118 118 344 352q58 63 340 354q4 19 13.5 73t15.5 83q-250 -23 -453 -23q-186 0 -393 19z" />
    <glyph glyph-name="Zcaron" unicode="&#x17d;" horiz-adv-x="1660"
d="M748 1626h139q10 15 47.5 69.5t54 77.5t47.5 65t57.5 74t55.5 62q-18 -2 -57 -2q-10 -1 -30 -2t-30 -2q-43 -41 -106 -119l-101 -125q-7 12 -37 60t-43 68t-37.5 54.5t-45.5 61.5q-113 6 -115 6q58 -79 106 -170zM346 1481v-152q257 -20 543 -20q201 0 368 8
q-530 -530 -1013 -1036q-42 -234 -49 -271q327 29 604 29q275 0 596 -29q-2 59 -2 180v52v49q-245 16 -553 16q-192 0 -385 -6q230 230 510 520q336 344 510 518q7 31 14 72l12 72q-289 -29 -596 -29q-277 0 -559 27z" />
    <glyph glyph-name="zcaron" unicode="&#x17e;" horiz-adv-x="1271"
d="M526 1280h140q10 15 47.5 69.5t54 77.5t47.5 65t57.5 74t55.5 62q-18 -2 -58 -2q-10 -1 -29.5 -2t-29.5 -2q-43 -41 -106 -119l-101 -125q-7 11 -30.5 48.5t-34 53.5t-29.5 45.5t-36 52t-34 44.5q-111 6 -114 6q58 -79 106 -170zM266 1106v-119q148 -12 371 -12
q146 0 293 6q-489 -455 -760 -717q-21 -153 -43 -254q225 21 448 21q243 0 431 -21q0 24 -1 71t-1 71v45q0 27 2 43q-193 12 -392 12q-71 0 -215 -4q118 118 344 352q58 63 340 354q4 19 13.5 73t15.5 83q-250 -23 -453 -23q-186 0 -393 19z" />
    <glyph glyph-name="florin" unicode="&#x192;" horiz-adv-x="1294"
d="M1223 1528q55 0 118 -17q-1 -11 -4 -29t-4 -26q-7 -37 -10 -63q-51 32 -121 32q-112 0 -194 -79q-76 -76 -101 -191q-50 -167 -92 -332l137 13q47 6 138 14l-13 -121q-50 -4 -149.5 -11t-149.5 -11q-7 -35 -24.5 -115t-26.5 -123q-41 -179 -53 -236q-39 -164 -74 -251
q-52 -139 -135 -228q-151 -151 -381 -151q-76 0 -131 18q33 93 49 152l49 149q76 -47 162 -47q117 0 190 100q47 62 95 207q75 322 120 525q-20 -1 -58 -4.5t-58 -4.5q-76 -8 -119 -10q0 20 4 60q0 19 4 59q86 4 133 8q21 1 64.5 4t66.5 4q24 83 45 162q3 13 16 62
t18.5 67.5t16.5 55t23 63t27 51.5q79 137 213 205q73 32 143 35q10 2 33 2q10 2 33 2zM1346 1516q0 -1 1 -3.5t1 -3.5l-7 2q0 1 1 4.5t1 4.5z" />
    <glyph glyph-name="Ohorn" unicode="&#x1a0;" horiz-adv-x="1597"
d="M1593 1276l88 -45q0 -34 -12 -66q-58 -153 -158 -190l-30 -12q4 -58 4 -89q0 -190 -45 -350q-49 -189 -166 -323q-98 -104 -238 -150q-124 -41 -272 -41q-133 0 -252 43q-128 51 -199 146q-64 83 -92 194q-22 99 -22 221q0 201 39 351q52 199 170 323q95 103 233 150
q119 43 266 43q144 0 260 -41q133 -52 203 -150q67 -92 90 -196l8 -33q11 0 23 6q52 22 94 139q1 4 2 6q9 30 6 64zM1280 629q23 97 23 217q0 202 -80 338q-53 76 -140 115.5t-188 39.5q-114 0 -195 -36q-96 -39 -163 -121q-83 -101 -121 -244q-35 -126 -35 -264
q0 -82 18 -135q27 -72 78 -105q68 -43 160 -59q83 -15 172 -15q208 0 340 76v-2q89 53 131 195z" />
    <glyph glyph-name="ohorn" unicode="&#x1a1;"
d="M1235 1114l88 -45q0 -33 -12 -65q-59 -154 -158 -191l-51 -18q8 -55 8 -125q0 -164 -29 -271q-39 -160 -127 -256q-67 -81 -172 -110q-89 -31 -200 -31q-113 0 -193 31q-96 33 -149 108q-82 109 -82 310q0 156 28 270q39 156 125 254q73 76 174 108q85 31 199 31
q111 0 193 -31q92 -31 151 -108q35 -52 45 -82q50 8 60 12q52 22 94 139q1 5 2 7q9 30 6 63zM934 496q14 69 14 161q0 139 -53 234q-32 55 -91.5 82.5t-129.5 27.5q-156 0 -244 -110q-60 -77 -86 -184q-20 -94 -20 -195q0 -50 12 -96q13 -51 51 -76q82 -51 223 -51
q140 0 230 51q69 47 94 156z" />
    <glyph glyph-name="Uhorn" unicode="&#x1af;" horiz-adv-x="1515"
d="M1530 1264l88 -45q0 -34 -12 -66q-58 -153 -158 -190q-56 -21 -57 -21q-17 -159 -35 -381q-10 -120 -37 -217q-38 -118 -111 -197q-77 -77 -204 -112q-100 -27 -224 -27q-116 0 -213 25q-111 26 -180 98q-52 61 -74 143q-18 66 -18 158q0 64 6 129q45 445 45 852v70
q108 -14 182 -19q-9 -373 -43 -739q-4 -74 -4 -109q0 -146 56 -231q40 -60 118 -82q59 -20 150 -20q81 0 151 20q77 22 131 82q59 71 80 164q22 79 29 176q50 498 90 741q19 0 51.5 3t40.5 4q63 8 92 10q-42 -211 -67 -436q16 4 24 8q52 22 97 145q9 30 6 64z" />
    <glyph glyph-name="uhorn" unicode="&#x1b0;" horiz-adv-x="1341"
d="M1278 1188l88 -45q0 -34 -12 -66q-58 -153 -158 -190l-47 -19q-71 -431 -74 -856q-129 10 -162 11q5 75 19 194q-62 -95 -160 -156q-104 -61 -209 -61h-26q-86 0 -154 29q-76 32 -111 98q-41 95 -41 211q0 43 7 104q30 292 30 580v45v43l66 -6q35 0 65 -6
q-3 -230 -22 -492v-16v-19q0 -119 35 -188q53 -92 168 -92q157 0 243 94t111 256q22 215 65 455q129 8 197 14l-27 -133q1 0 3.5 1t3.5 1q52 22 94 139q1 4 2 6q9 30 6 64z" />
    <glyph glyph-name="Acaron" unicode="&#x1cd;" horiz-adv-x="1640"
d="M731 1626h139q10 15 40.5 59t43.5 63t40.5 56.5t45.5 60.5t43.5 53t49.5 56q-18 -2 -58 -2q-10 -1 -29.5 -2t-29.5 -2q-47 -45 -107 -119l-100 -125q-7 11 -30.5 48.5t-34 53.5t-29.5 45.5t-36 52t-34 44.5q-113 6 -115 6q62 -84 107 -170zM920 1454h-177
q-80 -165 -170 -362l-170 -367q-211 -444 -368 -715l250 19q68 139 108 239q226 4 332 4q108 0 334 -4q20 -120 51 -239q110 -5 264 -19q-81 193 -133 355q-87 260 -217 725zM817 1315q42 -166 98 -418q83 -343 101 -416h-135h-138q-180 0 -272 -2q127 299 174 418
q75 188 172 418z" />
    <glyph glyph-name="acaron" unicode="&#x1ce;" horiz-adv-x="1263"
d="M526 1280h140q10 15 47.5 69.5t54 77.5t47.5 65t57.5 74t55.5 62q-18 -2 -58 -2q-10 -1 -29.5 -2t-29.5 -2q-43 -41 -106 -119l-101 -125q-7 11 -30.5 48.5t-34 53.5t-29.5 45.5t-36 52t-34 44.5q-111 6 -114 6q58 -79 106 -170zM1026 639q6 53 6 109q0 174 -84 270
q-54 54 -147 78q-71 18 -174 18q-172 0 -371 -61q0 -10 -1 -31t-1 -31q0 -41 -2 -61q152 71 346 71q65 -3 119 -20q58 -18 110 -61q58 -55 58 -154q0 -17 -4 -45l-2 -29q-41 -2 -125 -2h-125q-186 0 -316 -63q-93 -45 -145 -156q-43 -92 -43 -205q0 -120 61 -184
q80 -80 236 -80q132 0 233 45q120 52 187 154q0 -16 -1 -45t-1 -43q-1 -15 -2 -45t-2 -45q129 -9 161 -13v45v45q0 246 29 539zM770 582l-2 -52q-4 -17 -8 -59q-2 -22 -10 -61q-17 -66 -60 -109q-34 -26 -102 -41q-37 -6 -111 -6q-79 0 -145 14q-33 8 -53 41q-19 32 -19 68
q11 108 84 158q39 20 64 24q64 18 133 21q45 0 65 2h164z" />
    <glyph glyph-name="Icaron" unicode="&#x1cf;" horiz-adv-x="673"
d="M322 1587h139q10 15 47.5 69.5t54 77.5t47.5 65t57.5 74t55.5 62q-18 -2 -57 -2q-10 -1 -30 -2t-30 -2q-43 -41 -106 -119l-101 -124q-8 13 -30 48.5t-33.5 53t-30 45.5t-35.5 51t-34 45q-113 6 -115 6q58 -79 106 -170zM344 1468q-88 -912 -158 -1458q60 29 115 29
q57 0 107 -29q39 710 108 1465q-41 -21 -94 -21q-43 0 -78 14z" />
    <glyph glyph-name="icaron" unicode="&#x1d0;" horiz-adv-x="600"
d="M305 1219h139q10 15 40.5 59t43.5 63t40.5 56.5t45.5 60.5t43.5 53t49.5 56q-18 -2 -58 -2q-10 -1 -29.5 -2t-29.5 -2q-47 -45 -107 -119l-100 -125q-7 11 -30.5 48.5t-34 53.5t-29.5 45.5t-36 52t-34 44.5q-113 6 -115 6q62 -84 107 -170zM268 1110q-38 -559 -98 -1100
q44 21 86 21t80 -21q36 534 96 1100q-44 -23 -86 -23q-40 0 -78 23z" />
    <glyph glyph-name="Ocaron" unicode="&#x1d1;" horiz-adv-x="1597"
d="M788 1626h140q10 15 47.5 69.5t54 77.5t47.5 65t57.5 74t55.5 62q-18 -2 -57 -2q-10 -1 -30 -2t-30 -2q-43 -41 -106 -119l-101 -125q-7 11 -30.5 48.5t-34 53.5t-29.5 45.5t-36 52t-34 44.5q-111 6 -114 6q58 -79 106 -170zM907 1481q-147 0 -266 -43
q-138 -47 -233 -150q-118 -124 -170 -323q-39 -150 -39 -351q0 -122 22 -221q28 -111 92 -194q71 -95 199 -146q119 -43 252 -43q148 0 272 41q140 46 238 150q117 134 166 323q45 160 45 350q0 111 -25 220q-23 104 -90 196q-70 98 -203 150q-116 41 -260 41zM895 1339
q101 0 188 -39.5t140 -115.5q80 -136 80 -338q0 -120 -23 -217q-42 -142 -131 -195v2q-132 -76 -340 -76q-89 0 -172 15q-92 16 -160 59q-51 33 -78 105q-18 53 -18 135q0 138 35 264q38 143 121 244q67 82 163 121q81 36 195 36z" />
    <glyph glyph-name="ocaron" unicode="&#x1d2;"
d="M569 1280h140q10 15 47.5 69.5t54 77.5t47.5 65t57.5 74t55.5 62q-18 -2 -58 -2q-10 -1 -29.5 -2t-29.5 -2q-43 -41 -106 -119l-101 -125q-7 11 -30.5 48.5t-34 53.5t-29.5 45.5t-36 52t-34 44.5q-111 6 -114 6q58 -79 106 -170zM684 1114q-114 0 -199 -31
q-101 -32 -174 -108q-86 -98 -125 -254q-28 -114 -28 -270q0 -201 82 -310q53 -75 149 -108q80 -31 193 -31q111 0 200 31q105 29 172 110q88 96 127 256q29 107 29 271q0 196 -82 305q-59 77 -151 108q-82 31 -193 31zM674 1001q70 0 129.5 -27.5t91.5 -82.5
q53 -95 53 -234q0 -92 -14 -161q-25 -109 -94 -156q-90 -51 -230 -51q-141 0 -223 51q-38 25 -51 76q-12 46 -12 96q0 101 20 195q26 107 86 184q88 110 244 110z" />
    <glyph glyph-name="Ucaron" unicode="&#x1d3;" horiz-adv-x="1515"
d="M764 1626h139q10 15 47.5 69.5t54 77.5t47.5 65t57.5 74t55.5 62q-18 -2 -57 -2q-10 -1 -29.5 -2t-29.5 -2q-47 -45 -107 -119l-100 -125q-7 11 -30.5 48.5t-34 53.5t-29.5 45.5t-36 52t-34 44.5q-113 6 -115 6q62 -84 107 -170zM346 1483v-70q0 -407 -45 -852
q-6 -65 -6 -129q0 -92 18 -158q22 -82 74 -143q69 -72 180 -98q97 -25 213 -25q124 0 224 27q127 35 204 112q73 79 111 197q27 97 37 217q40 537 114 922q-29 -2 -92 -10q-8 -1 -40.5 -4t-51.5 -3q-40 -243 -90 -741q-7 -97 -29 -176q-21 -93 -80 -164q-54 -60 -131 -82
q-70 -20 -151 -20q-91 0 -150 20q-78 22 -118 82q-56 85 -56 231q0 35 4 109q34 366 43 739q-74 5 -182 19z" />
    <glyph glyph-name="ucaron" unicode="&#x1d4;" horiz-adv-x="1341"
d="M610 1280h140q10 15 47.5 69.5t54 77.5t47.5 65t57.5 74t55.5 62q-18 -2 -58 -2q-10 -1 -29.5 -2t-29.5 -2q-47 -45 -107 -119l-100 -125q-7 11 -30.5 48.5t-34 53.5t-29.5 45.5t-36 52t-34 44.5q-111 6 -114 6q58 -79 106 -170zM238 442q-7 -61 -7 -104q0 -116 41 -211
q35 -66 111 -98q68 -29 154 -29h26q105 0 209 61q98 61 160 156q-14 -120 -19 -194q33 -1 162 -11q3 557 121 1098q-68 -6 -197 -14q-43 -240 -65 -455q-25 -162 -111 -256t-243 -94q-115 0 -168 92q-35 69 -35 188v19v16q19 262 22 492q-30 6 -65 6l-66 6v-43v-45
q0 -288 -30 -580z" />
    <glyph glyph-name="Udieresismacron" unicode="&#x1d5;" horiz-adv-x="1515"
d="M608 1862q13 -23 13 -54q0 -37 -25 -73q48 0 145.5 1t145.5 1q47 0 143 -1t146 -1q-15 17 -15 51q0 40 25 76q-96 -2 -289 -2t-289 2zM563 1692q12 -37 12 -76q0 -64 -30 -123q17 1 50 2t50 2h100q15 76 15 152v20v19q-65 0 -96 2q-68 0 -101 2zM983 1688
q-18 -74 -18 -146v-22q0 -4 1 -12t1 -11q17 0 49 -1t49 -1q65 0 98 -2q-12 35 -12 76q0 63 31 123q-33 -2 -99 -2q-17 0 -50 -1t-50 -1zM346 1483v-70q0 -407 -45 -852q-6 -65 -6 -129q0 -92 18 -158q22 -82 74 -143q69 -72 180 -98q97 -25 213 -25q124 0 224 27
q127 35 204 112q73 79 111 197q27 97 37 217q40 537 114 922q-29 -2 -92 -10q-8 -1 -40.5 -4t-51.5 -3q-40 -243 -90 -741q-7 -97 -29 -176q-21 -93 -80 -164q-54 -60 -131 -82q-70 -20 -151 -20q-91 0 -150 20q-78 22 -118 82q-56 85 -56 231q0 35 4 109q34 366 43 739
q-74 5 -182 19z" />
    <glyph glyph-name="udieresismacron" unicode="&#x1d6;" horiz-adv-x="1341"
d="M455 1516q12 -21 12 -54q0 -37 -25 -73q48 0 145.5 1t145.5 1q47 0 143 -1t146 -1q-14 16 -14 51q0 42 24 76q-144 -3 -289 -3q-144 0 -288 3zM410 1346q12 -38 12 -76q0 -63 -31 -123q17 1 50.5 2t50.5 2h100q14 71 14 152v20v18q-65 0 -96 2q-50 0 -100 3zM829 1341
q-18 -74 -18 -145v-22q0 -4 1 -12t1 -11q17 0 49 -1t49 -1q66 0 99 -2q-13 37 -13 76q0 63 31 123q-50 -3 -98 -3q-16 0 -50 -1t-51 -1zM238 442q-7 -61 -7 -104q0 -116 41 -211q35 -66 111 -98q68 -29 154 -29h26q105 0 209 61q98 61 160 156q-14 -120 -19 -194
q33 -1 162 -11q3 557 121 1098q-68 -6 -197 -14q-43 -240 -65 -455q-25 -162 -111 -256t-243 -94q-115 0 -168 92q-35 69 -35 188v19v16q19 262 22 492q-30 6 -65 6l-66 6v-43v-45q0 -288 -30 -580z" />
    <glyph glyph-name="Udieresisacute" unicode="&#x1d7;" horiz-adv-x="1515"
d="M745 1497h-100q-17 -1 -50 -2t-50 -2q30 59 30 123q0 39 -12 76q33 -2 101 -2q27 -2 86 -2q81 91 157 184q49 63 164 196q148 5 195 9q-75 -69 -191 -195q-107 -119 -190 -196l-125 -7v-10v-20q0 -76 -15 -152zM1083 1690q66 0 99 2q-31 -60 -31 -123q0 -41 12 -76
q-33 2 -98 2q-17 0 -49 1t-49 1q0 3 -1 11t-1 12v22q0 72 18 146q17 0 50 1t50 1zM1378 1473q63 8 92 10q-74 -385 -114 -922q-10 -120 -37 -217q-38 -118 -111 -197q-77 -77 -204 -112q-100 -27 -224 -27q-116 0 -213 25q-111 26 -180 98q-52 61 -74 143q-18 66 -18 158
q0 64 6 129q45 445 45 852v70q108 -14 182 -19q-9 -373 -43 -739q-4 -74 -4 -109q0 -146 56 -231q40 -60 118 -82q59 -20 150 -20q81 0 151 20q77 22 131 82q59 71 80 164q22 79 29 176q50 498 90 741q19 0 51.5 3t40.5 4z" />
    <glyph glyph-name="udieresisacute" unicode="&#x1d8;" horiz-adv-x="1341"
d="M592 1151h-100q-17 -1 -50.5 -2t-50.5 -2q31 60 31 123q0 38 -12 76q49 -3 100 -3q27 -2 86 -2q83 93 158 185q49 63 164 196q146 5 194 9q-68 -63 -190 -195q-107 -120 -191 -197l-125 -6v-10v-20q0 -81 -14 -152zM930 1343q48 0 98 3q-31 -60 -31 -123q0 -39 13 -76
q-33 2 -99 2q-17 0 -49 1t-49 1q0 3 -1 11t-1 12v22q0 71 18 145q17 0 51 1t50 1zM999 1096q129 8 197 14q-118 -541 -121 -1098q-129 10 -162 11q5 75 19 194q-62 -95 -160 -156q-104 -61 -209 -61h-26q-86 0 -154 29q-76 32 -111 98q-41 95 -41 211q0 43 7 104
q30 292 30 580v45v43l66 -6q35 0 65 -6q-3 -230 -22 -492v-16v-19q0 -119 35 -188q53 -92 168 -92q157 0 243 94t111 256q22 215 65 455z" />
    <glyph glyph-name="Udieresiscaron" unicode="&#x1d9;" horiz-adv-x="1515"
d="M745 1497h-100q-17 -1 -50 -2t-50 -2q30 59 30 123q0 39 -12 76q33 -2 101 -2q23 -2 67 -2l-61 116q-45 86 -107 170q2 0 115 -6q17 -22 34 -44.5t36 -52t29.5 -45.5t34 -53.5t30.5 -48.5l100 125q60 74 107 119q10 1 29.5 2t29.5 2q39 0 57 2q-29 -30 -55.5 -62
t-57.5 -74t-47.5 -65t-54 -77.5t-47.5 -69.5h-139l-4 8q0 -66 -15 -137zM1083 1690q66 0 99 2q-31 -60 -31 -123q0 -41 12 -76q-33 2 -98 2q-17 0 -49 1t-49 1q0 3 -1 11t-1 12v22q0 72 18 146q17 0 50 1t50 1zM1378 1473q63 8 92 10q-74 -385 -114 -922q-10 -120 -37 -217
q-38 -118 -111 -197q-77 -77 -204 -112q-100 -27 -224 -27q-116 0 -213 25q-111 26 -180 98q-52 61 -74 143q-18 66 -18 158q0 64 6 129q45 445 45 852v70q108 -14 182 -19q-9 -373 -43 -739q-4 -74 -4 -109q0 -146 56 -231q40 -60 118 -82q59 -20 150 -20q81 0 151 20
q77 22 131 82q59 71 80 164q22 79 29 176q50 498 90 741q19 0 51.5 3t40.5 4z" />
    <glyph glyph-name="udieresiscaron" unicode="&#x1da;" horiz-adv-x="1341"
d="M592 1151h-100q-17 -1 -50.5 -2t-50.5 -2q31 60 31 123q0 38 -12 76q49 -3 100 -3q23 -2 68 -2l-62 117q-48 91 -106 170q3 0 114 -6q17 -22 34 -44.5t36 -52t29.5 -45.5t34 -53.5t30.5 -48.5l100 125q60 74 107 119q10 1 29.5 2t29.5 2q40 0 58 2q-29 -30 -55.5 -62
t-57.5 -74t-47.5 -65t-54 -77.5t-47.5 -69.5h-140l-4 8q0 -71 -14 -137zM930 1343q48 0 98 3q-31 -60 -31 -123q0 -39 13 -76q-33 2 -99 2q-17 0 -49 1t-49 1q0 3 -1 11t-1 12v22q0 71 18 145q17 0 51 1t50 1zM999 1096q129 8 197 14q-118 -541 -121 -1098q-129 10 -162 11
q5 75 19 194q-62 -95 -160 -156q-104 -61 -209 -61h-26q-86 0 -154 29q-76 32 -111 98q-41 95 -41 211q0 43 7 104q30 292 30 580v45v43l66 -6q35 0 65 -6q-3 -230 -22 -492v-16v-19q0 -119 35 -188q53 -92 168 -92q157 0 243 94t111 256q22 215 65 455z" />
    <glyph glyph-name="Udieresisgrave" unicode="&#x1db;" horiz-adv-x="1515"
d="M811 1978l-57 88q-110 0 -174 7q45 -74 86 -172q58 -137 77 -177h33q105 0 213 -6q-5 6 -28 36.5t-35 47.5q-55 81 -115 176zM563 1692q12 -37 12 -76q0 -64 -30 -123q17 1 50 2t50 2h100q15 76 15 152v20v19q-65 0 -96 2q-68 0 -101 2zM983 1688q-18 -74 -18 -146v-22
q0 -4 1 -12t1 -11q17 0 49 -1t49 -1q65 0 98 -2q-12 35 -12 76q0 63 31 123q-33 -2 -99 -2q-17 0 -50 -1t-50 -1zM346 1483v-70q0 -407 -45 -852q-6 -65 -6 -129q0 -92 18 -158q22 -82 74 -143q69 -72 180 -98q97 -25 213 -25q124 0 224 27q127 35 204 112q73 79 111 197
q27 97 37 217q40 537 114 922q-29 -2 -92 -10q-8 -1 -40.5 -4t-51.5 -3q-40 -243 -90 -741q-7 -97 -29 -176q-21 -93 -80 -164q-54 -60 -131 -82q-70 -20 -151 -20q-91 0 -150 20q-78 22 -118 82q-56 85 -56 231q0 35 4 109q34 366 43 739q-74 5 -182 19z" />
    <glyph glyph-name="udieresisgrave" unicode="&#x1dc;" horiz-adv-x="1341"
d="M657 1632l-57 88q-119 0 -174 6q45 -74 86 -172q46 -107 78 -176h33q105 0 213 -6q-7 9 -30 38t-34 46q-55 81 -115 176zM410 1346q12 -38 12 -76q0 -63 -31 -123q17 1 50.5 2t50.5 2h100q14 71 14 152v20v18q-65 0 -96 2q-50 0 -100 3zM829 1341q-18 -74 -18 -145v-22
q0 -4 1 -12t1 -11q17 0 49 -1t49 -1q66 0 99 -2q-13 37 -13 76q0 63 31 123q-50 -3 -98 -3q-16 0 -50 -1t-51 -1zM238 442q-7 -61 -7 -104q0 -116 41 -211q35 -66 111 -98q68 -29 154 -29h26q105 0 209 61q98 61 160 156q-14 -120 -19 -194q33 -1 162 -11q3 557 121 1098
q-68 -6 -197 -14q-43 -240 -65 -455q-25 -162 -111 -256t-243 -94q-115 0 -168 92q-35 69 -35 188v19v16q19 262 22 492q-30 6 -65 6l-66 6v-43v-45q0 -288 -30 -580z" />
    <glyph glyph-name="Adieresismacron" unicode="&#x1de;" horiz-adv-x="1640"
d="M575 1862q13 -23 13 -54q0 -37 -25 -73q48 0 145.5 1t145.5 1q47 0 143.5 -1t145.5 -1q-15 17 -15 51q0 40 25 76q-96 -2 -289 -2t-289 2zM530 1692q13 -41 13 -76q0 -63 -31 -123q17 1 50 2t50 2h101q14 71 14 152v20v19q-65 0 -96 2q-68 0 -101 2zM950 1688
q-18 -74 -18 -146v-22q0 -4 1 -12t1 -11q16 0 49 -1t49 -1q65 0 98 -2q-12 35 -12 76q0 63 31 123q-33 -2 -98 -2q-17 0 -51 -1t-50 -1zM920 1454h-177q-80 -165 -170 -362l-170 -367q-211 -444 -368 -715l250 19q68 139 108 239q226 4 332 4q108 0 334 -4q20 -120 51 -239
q110 -5 264 -19q-81 193 -133 355q-87 260 -217 725zM817 1315q42 -166 98 -418q83 -343 101 -416h-135h-138q-180 0 -272 -2q127 299 174 418q75 188 172 418z" />
    <glyph glyph-name="adieresismacron" unicode="&#x1df;" horiz-adv-x="1263"
d="M371 1516q12 -21 12 -54q0 -37 -25 -73q48 0 145.5 1t145.5 1q47 0 143 -1t146 -1q-14 16 -14 51q0 42 24 76q-144 -3 -289 -3q-144 0 -288 3zM326 1346q12 -38 12 -76q0 -63 -31 -123q17 1 50.5 2t50.5 2h100q14 71 14 152v20v18q-65 0 -96 2q-50 0 -100 3zM745 1341
q-18 -74 -18 -145v-22q0 -4 1 -12t1 -11q17 0 49 -1t49 -1q66 0 99 -2q-13 37 -13 76q0 63 31 123q-49 -3 -98 -3q-16 0 -50 -1t-51 -1zM1026 639q6 53 6 109q0 174 -84 270q-54 54 -147 78q-71 18 -174 18q-172 0 -371 -61q0 -10 -1 -31t-1 -31q0 -41 -2 -61q152 71 346 71
q65 -3 119 -20q58 -18 110 -61q58 -55 58 -154q0 -17 -4 -45l-2 -29q-41 -2 -125 -2h-125q-186 0 -316 -63q-93 -45 -145 -156q-43 -92 -43 -205q0 -120 61 -184q80 -80 236 -80q132 0 233 45q120 52 187 154q0 -16 -1 -45t-1 -43q-1 -15 -2 -45t-2 -45q129 -9 161 -13v45
v45q0 246 29 539zM770 582l-2 -52q-4 -17 -8 -59q-2 -22 -10 -61q-17 -66 -60 -109q-34 -26 -102 -41q-37 -6 -111 -6q-79 0 -145 14q-33 8 -53 41q-19 32 -19 68q11 108 84 158q39 20 64 24q64 18 133 21q45 0 65 2h164z" />
    <glyph glyph-name="Gcaron" unicode="&#x1e6;" horiz-adv-x="1615"
d="M774 1626h139q10 15 40.5 59t43.5 63t40.5 56.5t45.5 60.5t43.5 53t49.5 56q-18 -2 -58 -2q-10 -1 -29.5 -2t-29.5 -2q-47 -45 -107 -119l-100 -125q-7 11 -30.5 48.5t-34 53.5t-29.5 45.5t-36 52t-34 44.5q-113 6 -115 6q62 -84 107 -170zM1190 467l-6 -84q0 -2 -2 -4
q0 -2 -2 -4q-28 -28 -64 -39q-68 -28 -164 -31q-55 0 -80 -2q-120 4 -202 21q-116 21 -185 71q-58 50 -82 140q-18 60 -18 167q0 150 35 267q46 155 137 252q80 77 201 110q100 27 223 27q128 0 240 -37q116 -41 202 -121l13 84q5 26 14 84q-102 65 -225 90q-118 23 -250 23
q-167 0 -293 -39q-163 -48 -262 -150q-89 -84 -139 -205q-47 -111 -66 -241q-16 -107 -16 -232q0 -131 26 -225q29 -115 99 -194q84 -102 241 -150q119 -35 291 -35q149 0 270 31q131 27 252 104q0 272 29 596h-250q-82 -2 -248 -2l-14 -188h149q101 0 150 -2q0 -28 -4 -82z
" />
    <glyph glyph-name="gcaron" unicode="&#x1e7;" horiz-adv-x="1292"
d="M596 1280h139q10 15 47.5 69.5t54 77.5t47.5 65t57.5 74t55.5 62q-18 -2 -57 -2q-10 -1 -29.5 -2t-29.5 -2q-47 -45 -107 -119l-100 -125q-7 11 -30.5 48.5t-34 53.5t-29.5 45.5t-36 52t-34 44.5q-113 6 -115 6q62 -84 107 -170zM1042 141q59 554 144 969q-15 -1 -43 -4
t-41 -4l-82 -8q0 -2 -25 -97l-24 -96q-38 94 -127 150q-90 55 -197 55h-31q-91 0 -170 -33q-89 -37 -143 -102q-79 -89 -113 -230q-26 -109 -26 -243q0 -212 84 -332q43 -69 117 -106t161 -37q235 0 367 180q0 -7 -1 -22.5t-1 -22.5q-4 -32 -4 -47q-27 -100 -117 -197
q-45 -50 -127 -78q-67 -20 -143 -20q-169 0 -291 65q-23 -191 -41 -301q127 -35 305 -35q133 0 217 21q119 22 199 100q78 87 112 228q9 37 15.5 74.5t15 99t10.5 73.5zM860 575q-8 -87 -26 -135q-26 -73 -86 -108q-94 -43 -232 -43q-140 0 -203 43q-21 21 -34 53
q-22 53 -25 127q0 26 -4 66q7 95 24 159q29 94 74 148q40 49 102.5 74.5t129.5 25.5q132 0 206 -80q78 -84 78 -252q0 -51 -4 -78z" />
    <glyph glyph-name="Oslashacute" unicode="&#x1fe;" horiz-adv-x="1599"
d="M1008 2068q-115 -133 -164 -196q-88 -109 -166 -193l143 7q89 82 191 196q122 132 190 195q-48 -4 -194 -9zM293 227q-11 -12 -30.5 -33t-35 -37.5t-30.5 -31.5q-11 -12 -31.5 -33t-37 -38.5t-30.5 -33.5q34 -34 72 -69q32 32 94 98q83 88 96 101q156 -140 408 -140
q146 0 270 41q143 52 236 150q112 126 166 315q47 164 47 342q0 242 -98 404q66 70 100 104q32 32 98 102q-19 16 -35 35q-32 32 -36 35q-149 -154 -193 -201q-71 69 -190 111q-97 31 -226 31q-144 0 -266 -41q-141 -50 -233 -150q-117 -125 -168 -319q-41 -155 -41 -346
q0 -243 94 -396zM1198 1206q-154 -161 -362 -387q-357 -381 -365 -389q-117 149 -117 299q0 129 37 256q40 137 119 238q62 73 158 116q85 39 188 39q120 0 213 -41q70 -30 129 -131zM1245 1108q4 -2 8 -2h9q49 -118 49 -215q0 -41 -6 -88q-31 -133 -60 -203
q-46 -115 -108 -180q-62 -57 -154 -90q-64 -24 -170 -39q-100 0 -151 2q-64 5 -123 51q179 190 354 381q208 229 352 383z" />
    <glyph glyph-name="oslashacute" unicode="&#x1ff;" horiz-adv-x="1263"
d="M811 1722q-115 -133 -164 -196q-88 -109 -166 -193l144 6q78 72 190 197q116 126 191 195q-47 -4 -195 -9zM223 172l-86 -92q-43 -49 -88 -94q18 -12 35 -29l33 -31q58 62 84 88l82 86q109 -98 303 -98q106 0 196 33q103 33 170 108q85 94 127 250q31 121 31 266
q0 169 -63 287l83 94q12 14 26.5 29.5t32.5 34.5t28 29l-68 59q-12 -14 -26 -28.5t-30.5 -32t-25.5 -27.5l-82 -86q-111 94 -297 94q-105 0 -201 -29q-99 -30 -174 -108q-86 -96 -125 -248q-30 -108 -30 -264q0 -179 65 -291zM872 897q-115 -125 -264 -295
q-18 -20 -115.5 -129.5t-150.5 -167.5q-23 68 -23 166q0 116 23 205q22 107 84 190q46 58 109 86q57 29 129 29q135 0 208 -84zM915 799l11 -2q20 -67 20 -144q0 -104 -20 -207q-26 -118 -92 -198q-40 -55 -102.5 -85t-129.5 -30q-136 0 -211 86q49 53 260 289
q126 144 258 291h6z" />
    <glyph glyph-name="Scommaaccent" unicode="&#x218;" horiz-adv-x="1376"
d="M555 1286q-113 -69 -113 -205q0 -90 50 -137q64 -51 210 -82l91 -18q106 -21 176 -49q36 -15 80 -43q141 -102 141 -299q0 -101 -29 -187q-33 -98 -112 -155q-95 -63 -211 -82q-98 -19 -217 -19q-235 0 -451 64q28 175 43 293q188 -111 430 -111q165 0 264 63
q46 29 72 62q33 42 33 82q0 79 -76 135q-60 43 -158 68q-45 12 -80 18q-70 11 -143 33q-86 24 -147 63q-94 65 -121 160q-17 70 -17 127q0 89 31 174q39 93 111 143q83 56 184 78q90 19 197 19q209 0 417 -54q-2 -13 -4 -26.5t-4.5 -29.5t-3.5 -25l-12 -91q-199 84 -383 84
q-152 0 -248 -53zM1214 1432q3 -3 3 -7l-7 2q0 1 1 4.5t1 4.5zM514 -27h31q64 0 172 11q-16 -87 -29 -199l-115 -154q-73 -95 -120 -149q-9 -1 -27.5 -2t-26.5 -2q-28 0 -55 -6q46 102 66 151l61 154q2 34 6 99t6 99q10 -2 31 -2z" />
    <glyph glyph-name="scommaaccent" unicode="&#x219;" horiz-adv-x="1155"
d="M635 1114q210 0 340 -41l-10 -61q-11 -67 -11 -70q-132 62 -325 62q-111 0 -185 -39q-96 -49 -96 -154q0 -67 58 -111q45 -37 120 -57q68 -19 115 -25q106 -28 131 -38q73 -31 115 -70q63 -60 63 -176q0 -74 -28 -141q-33 -75 -97 -113q-72 -48 -172 -64
q-69 -14 -178 -14q-168 0 -354 47q19 111 35 246q156 -84 338 -84h20q6 -2 14 -2h15q90 0 149 33q77 39 82 120q-26 59 -49 89q-46 35 -121 55q-14 4 -63 14q-7 1 -115 29q-60 12 -115 43q-73 42 -90 113q-10 39 -10 92q0 91 35 157q39 77 121 113q118 47 268 47zM981 1071
l-6 2q0 4 2 6zM354 -57h31q74 0 172 10q-16 -87 -29 -199l-114 -153q-72 -94 -121 -150q-9 -1 -27 -2t-26 -2q-29 0 -56 -6q46 102 66 151l61 154q2 34 6.5 99.5t6.5 99.5q10 -2 30 -2z" />
    <glyph glyph-name="uni021A" unicode="&#x21a;" horiz-adv-x="1548"
d="M348 1485q0 -25 1 -76t1 -76q94 -8 285 -8q153 0 231 2q-66 -630 -153 -1290q50 0 75 2h76h58q35 0 55 -2q11 467 70 1292q68 -4 204 -4q156 0 312 6q9 56 28 154q-355 -33 -639 -33q-316 0 -604 33zM711 -31l-13 -198q-10 -26 -30.5 -77t-30.5 -77q-24 -60 -66 -152
q32 7 56 7q8 1 26 2t27 2q55 63 121 149l114 154q13 109 29 198q-98 -10 -172 -10h-31q-20 0 -30 2z" />
    <glyph glyph-name="uni021B" unicode="&#x21b;" horiz-adv-x="1103"
d="M596 1360q-88 0 -176 6q-11 -119 -27 -270q-74 7 -125 14q-4 -46 -4 -61l-4 -64q46 -4 64 -4q23 0 63 -4q-13 -162 -63 -600q-5 -73 -5 -92q0 -121 58 -179q27 -24 61 -36q70 -27 148 -33l73 -6q16 -1 46.5 -4t44.5 -4l88 -13q0 86 8 254q-39 5 -170 15q-46 0 -82 8
q-45 10 -70 35q-24 37 -24 104q0 13 1 36t1 34q10 84 26 239l25 238h43q101 0 203 6q4 17 8 59l6 60q-108 -6 -211 -6h-39q16 139 33 268zM485 -37l-12 -199q-10 -26 -30.5 -77t-30.5 -76q-24 -60 -66 -152q27 6 55 6q8 1 27 2.5t27 2.5q47 54 120 149l115 154
q13 109 29 198q-98 -10 -172 -10h-31q-21 0 -31 2z" />
    <glyph glyph-name="uni0228" unicode="&#x228;" horiz-adv-x="1427"
d="M805 1452q222 0 467 31l-12 -76q-11 -49 -13 -78q-207 -20 -436 -20q-161 0 -289 8q-11 -213 -30 -451q42 0 124.5 -1t124.5 -1q209 0 420 6q-4 -27 -8 -73l-6 -74h-334q-111 -2 -334 -2q-11 -157 -41 -410q141 6 283 6q248 0 444 -16q-4 -96 -4 -291q-219 25 -375 27
q60 -93 60 -168q0 -39 -19 -82q-21 -48 -57 -61q-61 -31 -168 -31q-72 0 -147 16q2 9 5 27t5 26l6 54q47 -23 121 -23h14q2 -2 12 -2q40 0 82 29q37 33 37 78q0 61 -49 139q-214 0 -469 -29q120 704 129 1475q218 -33 457 -33z" />
    <glyph glyph-name="uni0229" unicode="&#x229;" horiz-adv-x="1302"
d="M1096 874q14 -57 14 -153v-25v-20q0 -21 -2 -31q0 -9 -4 -29q-332 -4 -498 -4q-94 0 -141 2h-146q0 -12 -1 -37.5t-1 -39.5q0 -74 15 -123q21 -65 65 -99q65 -39 150 -55q71 -14 158 -14q117 0 176 6q95 7 166 43v-57v-58v-55q0 -39 2 -57q-192 -66 -402 -66
q-124 10 -215 37q-116 33 -180 108q-54 59 -80 150q-20 79 -20 172q0 134 38 258q46 150 129 240q75 75 185 112q85 31 209 35q117 -8 170 -24q92 -27 145 -80q47 -49 68 -136zM459 748h110q279 0 420 4q-6 120 -82 202q-81 84 -200 84q-161 0 -254 -90q-99 -83 -105 -198
q37 -2 111 -2zM676 -14q63 0 94 2q74 -108 74 -191q0 -39 -19 -82q-21 -48 -57 -61q-61 -31 -168 -31q-67 0 -147 17q2 8 5 26.5t5 26.5l6 53q45 -22 121 -22h14q3 -3 12 -3q40 0 82 29q37 33 37 78q0 27 -10 58t-19.5 49t-29.5 51z" />
    <glyph glyph-name="uni022A" unicode="&#x22a;" horiz-adv-x="1597"
d="M633 1862q12 -21 12 -54q0 -38 -24 -73q48 0 145 1t145 1q46 0 142.5 -1t146.5 -1q-14 16 -14 51q0 42 24 76q-96 -2 -288 -2q-193 0 -289 2zM588 1692q12 -37 12 -76q0 -63 -31 -123q17 1 50.5 2t50.5 2h100q14 71 14 152v20v19q-65 0 -96 2q-67 0 -100 2zM1008 1688
q-19 -78 -19 -146v-22q0 -4 1 -12t1 -11q17 0 50 -1t49 -1q65 0 98 -2q-12 35 -12 76q0 65 30 123q-33 -2 -98 -2q-16 0 -50 -1t-50 -1zM907 1481q-147 0 -266 -43q-138 -47 -233 -150q-118 -124 -170 -323q-39 -150 -39 -351q0 -122 22 -221q28 -111 92 -194
q71 -95 199 -146q119 -43 252 -43q148 0 272 41q140 46 238 150q117 134 166 323q45 160 45 350q0 111 -25 220q-23 104 -90 196q-70 98 -203 150q-116 41 -260 41zM895 1339q101 0 188 -39.5t140 -115.5q80 -136 80 -338q0 -120 -23 -217q-42 -142 -131 -195v2
q-132 -76 -340 -76q-89 0 -172 15q-92 16 -160 59q-51 33 -78 105q-18 53 -18 135q0 138 35 264q38 143 121 244q67 82 163 121q81 36 195 36z" />
    <glyph glyph-name="uni022B" unicode="&#x22b;"
d="M414 1516q12 -21 12 -54q0 -37 -25 -73q48 0 145.5 1t145.5 1q46 0 143 -1t146 -1q-14 16 -14 51q0 42 24 76q-144 -3 -289 -3q-144 0 -288 3zM369 1346q12 -38 12 -76q0 -63 -31 -123q17 1 50.5 2t50.5 2h100q14 71 14 152v20v18q-65 0 -96 2q-51 0 -100 3zM788 1341
q-18 -74 -18 -145v-22q0 -4 1 -12t1 -11q16 0 49 -1t49 -1q66 0 99 -2q-13 37 -13 76q0 63 31 123q-50 -3 -98 -3q-17 0 -51 -1t-50 -1zM684 1114q-114 0 -199 -31q-101 -32 -174 -108q-86 -98 -125 -254q-28 -114 -28 -270q0 -201 82 -310q53 -75 149 -108q80 -31 193 -31
q111 0 200 31q105 29 172 110q88 96 127 256q29 107 29 271q0 196 -82 305q-59 77 -151 108q-82 31 -193 31zM674 1001q70 0 129.5 -27.5t91.5 -82.5q53 -95 53 -234q0 -92 -14 -161q-25 -109 -94 -156q-90 -51 -230 -51q-141 0 -223 51q-38 25 -51 76q-12 46 -12 96
q0 101 20 195q26 107 86 184q88 110 244 110z" />
    <glyph glyph-name="circumflex" unicode="&#x2c6;" horiz-adv-x="903"
d="M705 1622h-140q-10 -16 -31.5 -45t-31.5 -45q-11 -18 -33.5 -48.5t-28.5 -39.5q-78 -111 -137 -172q9 1 28.5 2t28.5 2q40 0 60 2q67 71 106 119l101 125q54 -88 78 -125q37 -60 86 -119q18 -2 59 -2q9 -1 28.5 -2t28.5 -2q-45 61 -57 84q-49 73 -98 176q-8 15 -47 90z
" />
    <glyph glyph-name="caron" unicode="&#x2c7;" horiz-adv-x="903"
d="M580 1280h139q10 15 47.5 69.5t54 77.5t47.5 65t57.5 74t55.5 62q-18 -2 -57 -2q-10 -1 -30 -2t-30 -2q-43 -41 -106 -119l-101 -125q-7 12 -37 60t-43 68t-37.5 54.5t-45.5 61.5q-113 6 -115 6q58 -79 106 -170z" />
    <glyph glyph-name="breve" unicode="&#x2d8;" horiz-adv-x="903"
d="M375 1610l2 -8q-5 2 -2 8zM879 1595q17 0 49 1t49 1q-2 -4 -11 -21t-14 -28q-24 -57 -49 -98q-11 -19 -33 -41q-42 -42 -106 -59q-46 -15 -111 -15q-129 0 -192 58q-37 43 -58 106q-5 16 -14 55l-12 48q5 -5 8 -5q6 -2 27 -2h32q23 0 29 -2q11 -60 62 -104
q47 -41 114 -41h6h9h6h6q71 0 123 43q56 44 80 104z" />
    <glyph glyph-name="dotaccent" unicode="&#x2d9;" horiz-adv-x="507"
d="M360 1542v-16v-19q0 -67 -16 -149q66 4 98 4q28 0 86 -4v12q-2 4 -2 14q0 74 19 158q-50 -6 -92 -6q-47 0 -93 6z" />
    <glyph glyph-name="ring" unicode="&#x2da;" horiz-adv-x="800"
d="M854 1526q0 5 1 14.5t1 15.5q0 97 -63 160q-65 62 -160 62q-122 0 -203 -84q-74 -83 -74 -201q0 -100 64 -164q59 -59 160 -59q114 0 188 71q77 71 86 185zM758 1524q-6 -64 -53 -111q-45 -45 -113 -45q-61 0 -98 37q-39 39 -39 98q0 75 47 125q46 49 119 49
q61 -2 100 -39t39 -98v-8q-2 -2 -2 -8z" />
    <glyph glyph-name="ogonek" unicode="&#x2db;" horiz-adv-x="659"
d="M90 -16q-45 -57 -67 -99q-37 -66 -37 -129q0 -78 57 -110q47 -21 145 -25q64 0 125 12v17v14q0 51 2 78q-50 -23 -122 -23q-39 0 -67 22.5t-28 59.5q0 20 11 49q16 50 51 91q25 35 30 41h-51q-33 0 -49 2z" />
    <glyph glyph-name="tilde" unicode="&#x2dc;" horiz-adv-x="907"
d="M592 1434l49 -54q51 -57 135 -57q48 0 76 25q53 45 86 145q14 36 39 88q-37 -2 -107 -2q-11 -27 -16 -45q-7 -23 -18 -47q-25 -55 -74 -60q-34 2 -66 39l-49 54q-60 57 -137 57q-33 0 -74 -23q-23 -15 -41.5 -44.5t-26 -47.5t-22.5 -59q-7 -26 -33 -84q16 2 52 2
q35 0 53 2q3 5 5.5 12t5.5 16l5 15q2 10 19 49q24 53 69 58q33 -2 70 -39z" />
    <glyph glyph-name="hungarumlaut" unicode="&#x2dd;" horiz-adv-x="925"
d="M850 1622q-64 -80 -117 -168t-108 -174h69h23q12 0 20 -2q146 224 267 350q-76 -6 -154 -6zM512 1622q-116 -238 -209 -350q9 1 28.5 2t28.5 2h58q70 83 125 170q58 93 116 176h-73h-74z" />
    <glyph glyph-name="hookabovecomb" unicode="&#x309;" horiz-adv-x="0"
d="M211 1186v-43q68 33 106 33q52 0 52 -35q0 -11 -33 -35l-23 -19q-25 -19 -32 -30q-7 -14 -7 -33v-6h58q0 12 4 24q15 15 18 17l23 14q51 40 51 64q0 31 -31 53q-33 20 -92 20q-39 0 -94 -24z" />
    <glyph glyph-name="uni031B" unicode="&#x31b;" horiz-adv-x="0"
d="M256 1034l10 -102q17 1 28.5 2.5t23 4.5t17.5 5t22.5 8.5t27.5 10.5q100 37 158 190q12 32 12 66l-88 45q3 -34 -6 -64q-34 -94 -68 -126q-14 -13 -28 -19q-14 -5 -28 -7.5t-36.5 -5.5t-44.5 -8z" />
    <glyph glyph-name="dotbelowcomb" unicode="&#x323;" horiz-adv-x="0"
d="M111 0q0 -118 -23 -233q33 4 98 4q62 0 95 -4q0 122 20 233q-33 -4 -96 -4t-94 4z" />
    <glyph glyph-name="uni0326" unicode="&#x326;" horiz-adv-x="0"
d="M113 225l-13 -198q-10 -26 -30.5 -77t-30.5 -77q-24 -60 -66 -152q31 7 56 7q8 1 26 2t27 2q55 63 121 149l114 154q13 109 29 198q-98 -10 -172 -10h-31q-20 0 -30 2z" />
    <glyph glyph-name="uni032D" unicode="&#x32d;" horiz-adv-x="0"
d="M254 -37h-139q-10 -15 -32 -44.5t-32 -45.5q-12 -18 -35 -51t-26 -37q-78 -111 -137 -172q9 1 28.5 2t28.5 2q39 0 59 2q74 78 107 119l100 125q54 -88 78 -125q37 -60 86 -119q18 -2 59 -2q9 -1 29 -2t29 -2q-48 65 -58 84q-49 73 -98 176q-9 15 -47 90z" />
    <glyph glyph-name="uni0331" unicode="&#x331;" horiz-adv-x="0"
d="M-139 -57q12 -21 12 -54q0 -37 -25 -73q48 0 145.5 1t145.5 1q47 0 143 -1t146 -1q-14 16 -14 51q0 41 24 76q-96 -2 -288 -2q-193 0 -289 2z" />
    <glyph glyph-name="pi" unicode="&#x3c0;" horiz-adv-x="1439"
d="M1339 932q5 11 15 34t14 31t10 21t10.5 24t8.5 21q-320 -25 -611 -25q-86 0 -270 4q-91 0 -117 -4q-63 -10 -110 -45q-41 -38 -60 -94q-8 -22 -28 -108q10 -1 31.5 -2.5t31.5 -2.5q12 0 33 -1t33 -1q8 49 28 84q32 52 93 52h18h20q6 -2 19 -2h6q-7 -19 -35 -101.5
t-45 -126.5q-53 -152 -82 -227q-86 -241 -188 -449q220 10 264 11q88 284 242 890h63h66q103 0 211 3q-98 -238 -154 -386q-33 -83 -65 -176q-31 -102 -31 -178q0 -99 86 -172q79 -67 190 -67q14 0 86 10q10 110 25 186q-50 -4 -74 -4h-10q-2 -2 -12 -2q-37 0 -66 29
q-27 27 -27 65q0 45 17 105q28 99 29 102q89 306 157 492q30 2 89 5t89 5z" />
    <glyph glyph-name="Bdotbelow" unicode="&#x1e04;" horiz-adv-x="1470"
d="M348 1485q0 -751 -129 -1475q258 29 531 29q112 0 200 16q105 19 191 74q85 60 116 152q31 80 31 184q0 132 -98 227q-93 90 -232 103v16q126 11 203 127q68 103 68 231q0 81 -41 146q-46 69 -127 98q-90 37 -258 41q-276 4 -455 31zM524 1352q183 -11 303 -11
q115 0 185 -45q86 -59 86 -172q0 -54 -21 -110q-28 -67 -82 -103q-72 -51 -209 -51h-145q-23 0 -71.5 1t-73.5 1q18 207 28 490zM483 723h316q63 0 121 -12q63 -16 104 -54q21 -19 33.5 -33.5t23.5 -37.5t11 -47q0 -53 -21 -109q-26 -56 -72 -84q-84 -43 -237 -43
q-160 0 -324 -6q2 21 12 96t13 117q3 36 10 106.5t10 106.5zM111 0q0 -118 -23 -233q33 4 98 4q62 0 95 -4q0 122 20 233q-33 -4 -96 -4t-94 4z" />
    <glyph glyph-name="bdotbelow" unicode="&#x1e05;" horiz-adv-x="1366"
d="M481 938h-12q25 201 53 588q-15 1 -42 4t-40 4q-53 4 -80 10q-10 -426 -23.5 -614t-66.5 -549l127 -162q41 -96 129 -153q86 -58 195 -58q4 0 8 2h8h17q88 -2 169.5 35.5t141.5 106.5q82 98 115 239q28 123 28 256q0 198 -86 326q-95 147 -274 147h-33q-101 0 -186 -49
q-96 -52 -144 -135q-2 0 -4 2zM1116 604v-2q-12 -60 -37 -125t-75 -106q-89 -60 -201 -66q-61 0 -119 17q-60 19 -104 65q-50 64 -58 209q18 194 109 307q84 111 241 111q135 0 197 -117q49 -93 49 -246v-22q-2 -8 -2 -25zM592 -115q0 -118 -23 -233q33 4 99 4q61 0 94 -4
q0 122 20 233q-33 -4 -96 -4t-94 4z" />
    <glyph glyph-name="Ddotbelow" unicode="&#x1e0c;" horiz-adv-x="1601"
d="M348 1485v-66v-63q0 -688 -129 -1346q179 18 408 25q209 8 325 33q185 39 305 133q131 113 189 331q39 157 39 359q0 123 -27 217q-29 109 -102 182q-107 99 -283 133q-113 25 -323 33q-214 6 -402 29zM535 1323q168 -8 247 -8q145 -8 236 -31q125 -30 205 -115
q49 -55 73 -141q19 -69 19 -164q0 -32 -4 -98q-46 -128 -70 -168q-50 -90 -119 -139q-55 -30 -98 -43q-97 -28 -213 -31q-74 -4 -106 -4l-244 -6q55 443 74 948zM721 -80q0 -118 -23 -233q33 4 99 4q61 0 94 -4q0 122 20 233q-33 -4 -96 -4t-94 4z" />
    <glyph glyph-name="ddotbelow" unicode="&#x1e0d;" horiz-adv-x="1325"
d="M961 944l-9 -2q-2 0 -5 -1t-5 -1q-32 82 -119 133q-75 47 -178 47h-29q-91 0 -165 -39q-90 -42 -140 -106q-86 -107 -127 -258q-32 -131 -32 -275q0 -176 75 -292q45 -68 120 -105t163 -37q6 0 10 2h10h15q106 0 207 56q96 57 153 153q-1 -16 -2 -47t-2 -47q0 -17 -1 -49
t-1 -47q42 -6 82 -9q52 -4 80 -8q11 736 158 1534q-31 -2 -84 -10l-82 -6q-62 -347 -92 -586zM262 580v2q11 107 45 194q42 107 105 164q79 72 182 72h24q83 0 140 -51q59 -50 78 -140q16 -71 16 -164q0 -87 -14 -149q-25 -101 -82 -143q-74 -48 -219 -52q-60 0 -111 11
q-60 13 -96 49q-64 69 -68 207zM453 -100q0 -119 -23 -234q33 4 98 4q62 0 95 -4q0 123 20 234q-33 -4 -96 -4t-94 4z" />
    <glyph glyph-name="Dlinebelow" unicode="&#x1e0e;" horiz-adv-x="1601"
d="M348 1485v-66v-63q0 -688 -129 -1346q179 18 408 25q209 8 325 33q185 39 305 133q131 113 189 331q39 157 39 359q0 123 -27 217q-29 109 -102 182q-107 99 -283 133q-113 25 -323 33q-214 6 -402 29zM535 1323q168 -8 247 -8q145 -8 236 -31q125 -30 205 -115
q49 -55 73 -141q19 -69 19 -164q0 -32 -4 -98q-46 -128 -70 -168q-50 -90 -119 -139q-55 -30 -98 -43q-97 -28 -213 -31q-74 -4 -106 -4l-244 -6q55 443 74 948zM469 -123q12 -21 12 -53q0 -40 -24 -74q48 0 145.5 1t145.5 1q46 0 142 -1t146 -1q-14 16 -14 51q0 40 25 76
q-96 -2 -289 -2t-289 2z" />
    <glyph glyph-name="dlinebelow" unicode="&#x1e0f;" horiz-adv-x="1325"
d="M961 944l-9 -2q-2 0 -5 -1t-5 -1q-32 82 -119 133q-75 47 -178 47h-29q-91 0 -165 -39q-90 -42 -140 -106q-86 -107 -127 -258q-32 -131 -32 -275q0 -176 75 -292q45 -68 120 -105t163 -37q6 0 10 2h10h15q106 0 207 56q96 57 153 153q-1 -16 -2 -47t-2 -47q0 -17 -1 -49
t-1 -47q42 -6 82 -9q52 -4 80 -8q11 736 158 1534q-31 -2 -84 -10l-82 -6q-62 -347 -92 -586zM262 580v2q11 107 45 194q42 107 105 164q79 72 182 72h24q83 0 140 -51q59 -50 78 -140q16 -71 16 -164q0 -87 -14 -149q-25 -101 -82 -143q-74 -48 -219 -52q-60 0 -111 11
q-60 13 -96 49q-64 69 -68 207zM201 -143q12 -21 12 -54q0 -37 -25 -73q48 0 145.5 1t145.5 1q47 0 143 -1t146 -1q-14 16 -14 51q0 41 24 76q-96 -2 -289 -2q-192 0 -288 2z" />
    <glyph glyph-name="Dcircumflexbelow" unicode="&#x1e12;" horiz-adv-x="1601"
d="M348 1485v-66v-63q0 -688 -129 -1346q179 18 408 25q209 8 325 33q185 39 305 133q131 113 189 331q39 157 39 359q0 123 -27 217q-29 109 -102 182q-107 99 -283 133q-113 25 -323 33q-214 6 -402 29zM535 1323q168 -8 247 -8q145 -8 236 -31q125 -30 205 -115
q49 -55 73 -141q19 -69 19 -164q0 -32 -4 -98q-46 -128 -70 -168q-50 -90 -119 -139q-55 -30 -98 -43q-97 -28 -213 -31q-74 -4 -106 -4l-244 -6q55 443 74 948zM881 -72h-140q-10 -15 -31.5 -45t-31.5 -45q-11 -18 -33.5 -48.5t-28.5 -39.5q-78 -111 -137 -172q9 1 29 2
t29 2q39 0 59 2q67 71 106 119l101 125q54 -88 78 -125q37 -60 86 -119q18 -2 59 -2q9 -1 28.5 -2t28.5 -2q-45 61 -57 84q-49 73 -98 176q-8 15 -47 90z" />
    <glyph glyph-name="dcircumflexbelow" unicode="&#x1e13;" horiz-adv-x="1325"
d="M961 944l-9 -2q-2 0 -5 -1t-5 -1q-32 82 -119 133q-75 47 -178 47h-29q-91 0 -165 -39q-90 -42 -140 -106q-86 -107 -127 -258q-32 -131 -32 -275q0 -176 75 -292q45 -68 120 -105t163 -37q6 0 10 2h10h15q106 0 207 56q96 57 153 153q-1 -16 -2 -47t-2 -47q0 -17 -1 -49
t-1 -47q42 -6 82 -9q52 -4 80 -8q11 736 158 1534q-31 -2 -84 -10l-82 -6q-62 -347 -92 -586zM262 580v2q11 107 45 194q42 107 105 164q79 72 182 72h24q83 0 140 -51q59 -50 78 -140q16 -71 16 -164q0 -87 -14 -149q-25 -101 -82 -143q-74 -48 -219 -52q-60 0 -111 11
q-60 13 -96 49q-64 69 -68 207zM612 -92h-139q-10 -15 -31.5 -45t-31.5 -45q-11 -18 -33.5 -48.5t-28.5 -39.5q-78 -111 -137 -172q9 1 28.5 2t28.5 2q40 0 60 2q67 71 106 119l101 124q58 -96 77 -124q37 -60 86 -119q18 -2 60 -2q9 -1 28.5 -2t28.5 -2q-45 61 -57 84
q-52 78 -99 176q-9 15 -47 90z" />
    <glyph glyph-name="Hdotbelow" unicode="&#x1e24;" horiz-adv-x="1601"
d="M346 1483q-6 -781 -147 -1473l211 19q41 268 63 487q226 4 336 4q108 0 338 -4q-21 -287 -21 -487q163 -14 209 -19q-4 144 -4 215q0 605 115 1258q-32 -4 -96 -8q-16 -2 -49 -5.5t-50 -5.5q-50 -294 -84 -694q-80 0 -237.5 -1t-237.5 -1q-65 0 -98 2h-98q28 331 41 694
q-115 7 -191 19zM119 -74q0 -118 -23 -233q33 4 99 4q61 0 94 -4q0 122 20 233q-33 -4 -96 -4t-94 4z" />
    <glyph glyph-name="hdotbelow" unicode="&#x1e25;" horiz-adv-x="1411"
d="M1153 676q2 27 2 82q0 139 -47 233q-35 63 -109 101q-70 28 -147 28h-27q-107 0 -202 -61q-93 -56 -156 -152q31 275 57 617q-52 4 -164 16q-27 -782 -174 -1530q105 12 207 21q24 243 29 303q13 217 20 301q13 158 107 266q43 51 105.5 78t127.5 27q131 0 189 -103
q30 -67 30 -166q0 -45 -2 -65q-39 -365 -57 -641q49 -3 203 -21q-4 160 -4 238q0 214 12 428zM543 -61q0 -119 -23 -234q33 4 98 4q62 0 95 -4q0 123 20 234q-41 -5 -96 -5t-94 5z" />
    <glyph glyph-name="Idieresisacute" unicode="&#x1e2e;" horiz-adv-x="673"
d="M629 2030q163 5 194 8q-68 -63 -190 -195q-102 -114 -191 -196l-125 -7v-10v-20q0 -81 -14 -152h-100q-17 -1 -50.5 -2t-50.5 -2q31 60 31 123q0 39 -12 76q33 -2 100 -2q27 -2 86 -2q92 102 158 184q57 73 164 197zM641 1651q65 0 98 2q-30 -59 -30 -123q0 -42 12 -76
q-33 2 -98 2q-17 0 -50 1t-49 1q0 3 -1 11t-1 12v22q0 68 19 146q17 0 50 1t50 1zM344 1468q35 -14 78 -14q53 0 94 21q-69 -755 -108 -1465q-50 29 -107 29q-55 0 -115 -29q70 546 158 1458z" />
    <glyph glyph-name="idieresisacute" unicode="&#x1e2f;" horiz-adv-x="600"
d="M612 1661q164 5 195 8q-81 -75 -191 -194q-112 -125 -190 -197l-125 -6v-10v-21q0 -71 -12 -141q29 -13 57 -13q42 0 86 23q-60 -566 -96 -1100q-38 21 -80 21t-86 -21q55 484 96 1080h-80q-17 -1 -50 -2.5t-50 -2.5q31 60 31 123q0 35 -13 76q33 -2 101 -2q27 -2 86 -2
q92 102 158 184q66 85 163 197zM625 1282q65 0 98 2q-31 -60 -31 -123q0 -39 13 -76q-33 2 -99 2q-16 0 -49 1.5t-49 1.5q0 3 -1 10.5t-1 11.5v23q0 71 18 145q16 0 50 1t51 1z" />
    <glyph glyph-name="Ldotbelow" unicode="&#x1e36;" horiz-adv-x="1363"
d="M346 1481q-18 -751 -147 -1471q251 29 465 29q219 0 436 -27q5 130 22 289q-188 16 -426 16q-135 0 -270 -6q75 608 100 1151q-47 2 -180 19zM373 -59q0 -119 -23 -234q33 4 99 4q61 0 94 -4q0 123 20 234q-33 -4 -96 -4t-94 4z" />
    <glyph glyph-name="ldotbelow" unicode="&#x1e37;" horiz-adv-x="770"
d="M358 1536q-60 -784 -151 -1526q79 29 153 29q119 0 207 -39q2 35 7.5 104.5t7.5 104.5q-121 31 -183 31q29 350 113 1276h-16h-17q-75 0 -121 20zM274 -92q0 -124 -22 -234q33 4 98 4q61 0 94 -4q0 117 21 234q-33 -4 -96 -4q-64 0 -95 4z" />
    <glyph glyph-name="Lcircumflexbelow" unicode="&#x1e3c;" horiz-adv-x="1363"
d="M346 1481q-18 -751 -147 -1471q251 29 465 29q219 0 436 -27q5 130 22 289q-188 16 -426 16q-135 0 -270 -6q75 608 100 1151q-47 2 -180 19zM532 -51h-139q-10 -16 -31.5 -45t-31.5 -45q-11 -18 -33.5 -48.5t-28.5 -39.5q-78 -111 -137 -172q9 1 28.5 2t28.5 2
q40 0 60 2q67 71 106 119l101 124q58 -95 77 -124q37 -60 86 -119q18 -2 60 -2q9 -1 28.5 -2t28.5 -2q-45 61 -57 84q-49 73 -98 176q-24 43 -48 90z" />
    <glyph glyph-name="lcircumflexbelow" unicode="&#x1e3d;" horiz-adv-x="770"
d="M358 1536q-60 -784 -151 -1526q79 29 153 29q119 0 207 -39q2 35 7.5 104.5t7.5 104.5q-121 31 -183 31q29 350 113 1276h-16h-17q-75 0 -121 20zM434 -84h-139q-10 -15 -32 -44.5t-32 -45.5q-12 -18 -35 -51t-26 -37q-78 -111 -137 -172q9 1 28.5 2t28.5 2q40 0 60 2
q67 71 106 119l100 125q54 -89 78 -125q37 -60 86 -119q18 -2 60 -2q9 -1 28.5 -2t28.5 -2q-45 61 -57 84q-52 78 -99 176q-9 15 -47 90z" />
    <glyph glyph-name="Macute" unicode="&#x1e3e;" horiz-adv-x="1839"
d="M1296 1946q-97 -112 -163 -197q-88 -109 -166 -193l143 7q83 77 190 196q116 126 191 195q-31 -3 -195 -8zM346 1481q0 -771 -158 -1471q204 15 238 17q84 623 84 1212v61h8q3 3 8 3q33 -103 74 -256q63 -240 129 -521q37 -159 64 -260h55h53h55h56q15 36 82 200
t93.5 227t80 190t98.5 226t92 196q4 -2 8 -2q6 0 9 -3q-125 -699 -136 -1273q28 -1 236 -17q-12 169 -12 334q0 558 110 1137l-266 -19q-126 -202 -246 -434q-43 -80 -121 -229.5t-110 -210.5q-156 504 -301 872q-145 9 -283 21z" />
    <glyph glyph-name="macute" unicode="&#x1e3f;" horiz-adv-x="2050"
d="M625 1620q-107 -124 -164 -197q-82 -102 -166 -192l143 6q84 77 191 197q116 125 190 194q-31 -3 -194 -8zM1118 887q-4 0 -8.5 1t-7.5 1q-22 109 -127 176q-95 53 -223 53q-97 0 -185 -51q-90 -50 -135 -137l-8 4l-8 2q7 60 14 166q-24 0 -82 4q-14 0 -40 1t-40 1
q2 -51 2 -152q0 -489 -141 -946q38 2 111.5 5t111.5 5q55 259 72 613q7 143 88 260q85 127 227 127q62 0 109 -19q53 -19 88 -71q33 -60 33 -162q0 -43 -2 -66q-63 -344 -131 -671h235q17 283 53 600q14 163 103 268q45 58 112.5 86.5t141.5 28.5q75 0 111 -43.5t36 -136.5
q0 -22 -4 -68l-6 -70q-66 -384 -66 -645v-31q39 0 117 -4l115 -6q-29 173 -29 361q0 161 17 305q8 90 8 135q0 82 -23 164q-19 67 -86 110q-61 37 -141 37q-152 0 -244 -61q-97 -61 -168 -174z" />
    </font>
</defs>
</svg>
