<?xml version="1.0" standalone="no"?>
<!DOCTYPE svg PUBLIC "-//W3C//DTD SVG 1.1//EN" "http://www.w3.org/Graphics/SVG/1.1/DTD/svg11.dtd" >
<svg xmlns="http://www.w3.org/2000/svg" xmlns:xlink="http://www.w3.org/1999/xlink" version="1.1">
<metadata>
   Created by FontForge 20170731 at Mon Oct 5 15:13:42 2020
   By Aleksey,,,
   Original Fonts are (c) Bitstream. OpenDyslexic changes and additional glyphs by Abelardo Gonzalez are licensed under
   a Creative Commons Attribution 3.0 Unported License.
   Based on a work at https://dyslexicfonts.com. 2012 by Abelardo Gonzalez. Copying is an act of love. Please copy.
   Bitstream license available here: https://opendyslexic.org/legal/
</metadata>
<defs>
<font id="OpenDyslexic-Regular" horiz-adv-x="600" >
  <font-face
    font-family="OpenDyslexic"
    font-weight="400"
    font-stretch="normal"
    units-per-em="2048"
    panose-1="0 0 5 0 0 0 0 0 0 0"
    ascent="1638"
    descent="-410"
    x-height="1120"
    cap-height="1493"
    bbox="-90 -1069 2673 2421"
    underline-thickness="102"
    underline-position="-538"
    unicode-range="U+0020-FB02"
  />
<missing-glyph horiz-adv-x="1323"
d="M1174 1444h-1024v-1806h1024v1806zM1061 1329v-1397h-797v1397h797z" />
    <glyph glyph-name="fi" unicode="fi" horiz-adv-x="1390"
d="M520 1120v99q0 194 176 194l176 39v154l-184 -21q-186 -30 -274 -119.5t-88 -267.5v-78h-176v-133h176l-21 -987h246l-31 987h506l-20 -987h235l-31 1120h-690zM1210 1321v233h-184v-233h184z" />
    <glyph glyph-name="fl" unicode="fl" horiz-adv-x="1462"
d="M1200 1556h-512q-189 0 -275.5 -85.5t-86.5 -272.5l-11 -78h-165v-143h165l-28 -977h295l-62 977h293v143h-293l-8 119q0 104 38 144t136 40h330v-1423h297l-2 211l-111 -2v1347z" />
    <glyph glyph-name=".notdef" horiz-adv-x="1323"
d="M1174 1444h-1024v-1806h1024v1806zM1061 1329v-1397h-797v1397h797z" />
    <glyph glyph-name=".null" horiz-adv-x="0"
 />
    <glyph glyph-name="nonmarkingreturn" horiz-adv-x="682"
 />
    <glyph glyph-name="NULL" horiz-adv-x="0"
 />
    <glyph glyph-name="NULL" horiz-adv-x="0"
 />
    <glyph glyph-name="space" unicode=" " horiz-adv-x="800"
 />
    <glyph glyph-name="exclam" unicode="!" horiz-adv-x="571"
d="M150 481h272l-31 357l-8 655h-195l-18 -655zM412 0l-21 254h-213l-18 -254h252z" />
    <glyph glyph-name="quotedbl" unicode="&#x22;" horiz-adv-x="901"
d="M150 905h200l-10 588h-178zM551 905h201l-13 588h-180z" />
    <glyph glyph-name="numbersign" unicode="#" horiz-adv-x="1701"
d="M625 1055h-361v-154h322l-84 -334h-352v-153h315l-105 -414h162l103 414h293l-103 -414h160l104 414h357v153h-318l82 334h350v154h-311l102 415h-159l-105 -415h-293l105 415h-162zM664 567l84 334h290l-82 -334h-292z" />
    <glyph glyph-name="dollar" unicode="$" horiz-adv-x="1267"
d="M715 -295l-15 303q189 12 302 109.5t116 263.5q-6 156 -106.5 238t-329.5 120l8 467q190 -12 348 -98l4 156q-152 54 -350 67l4 232l-98 2l-4 -236q-204 -9 -314.5 -101t-113.5 -255q6 -152 101 -240t304 -127l-8 -393q-207 3 -409 135l-4 -239q207 -93 409 -99l-24 -301
zM575 1200l-10 -450q-126 22 -192 79.5t-66 143.5q0 89 72 152t196 75zM684 205l-8 373q124 -23 185 -76t61 -140q0 -18 -2 -33t-9.5 -27.5t-12.5 -22t-19.5 -18.5t-21.5 -14.5t-28 -11.5t-30 -9t-36 -7.5t-37 -6.5t-42 -7z" />
    <glyph glyph-name="percent" unicode="%" horiz-adv-x="2019"
d="M494 1520q-158 0 -251 -110t-93 -296q0 -189 92.5 -298t251.5 -109q160 0 253 109t93 298q0 187 -93.5 296.5t-252.5 109.5zM625 -29l942 1549h-160l-944 -1549h162zM494 1393q86 0 136 -73.5t50 -199.5q0 -129 -49 -201.5t-137 -72.5q-86 0 -135.5 72.5t-49.5 201.5
q0 126 49.5 199.5t135.5 73.5zM1526 784q-159 0 -252.5 -109.5t-93.5 -297.5q0 -186 93.5 -296t252.5 -110q157 0 250.5 110t93.5 296q0 187 -93 297t-251 110zM1526 657q85 0 134.5 -70t49.5 -190q0 -121 -49.5 -190.5t-134.5 -69.5q-88 0 -137.5 69t-49.5 191t49.5 191
t137.5 69z" />
    <glyph glyph-name="ampersand" unicode="&#x26;" horiz-adv-x="1705"
d="M1139 416l-549 538q-89 92 -121 148q-29 53 -29 100q0 89 66 145t170 56q129 0 313 -96l70 141q-173 72 -334 72q-183 0 -294.5 -99t-111.5 -260q0 -116 99 -248q-268 -200 -268 -452q0 -215 153.5 -352.5t392.5 -137.5q260 0 463 176l144 -147h251l-278 285
q42 56 69.5 114.5t42.5 129.5t20.5 112.5t13.5 127.5q2 21 3 32h-186q-7 -131 -26.5 -217t-73.5 -168zM471 844l535 -549q-148 -127 -338 -127q-161 0 -268 97t-107 245q0 89 43 170t135 164z" />
    <glyph glyph-name="quotesingle" unicode="'" horiz-adv-x="468"
d="M150 938h169v555h-169v-555z" />
    <glyph glyph-name="parenleft" unicode="(" horiz-adv-x="724"
d="M686 1546l-160 15q-339 -440 -376 -881q0 -462 188 -936l211 -14q-104 218 -144 438.5t-51 495.5q17 438 332 882z" />
    <glyph glyph-name="parenright" unicode=")" horiz-adv-x="724"
d="M354 1573l-157 14q103 -226 143.5 -451t40.5 -479q-43 -457 -344 -886l229 -15q72 133 117.5 225t94 211.5t72 230.5t23.5 218q0 243 -49 470.5t-170 461.5z" />
    <glyph glyph-name="asterisk" unicode="*" horiz-adv-x="1271"
d="M688 1143v377l-153 -39l38 -338l-335 203l-88 -140l389 -153l-359 -195l99 -137l294 242v-377l154 30l-39 347l336 -203l98 137l-399 156l358 194l-16 139z" />
    <glyph glyph-name="plus" unicode="+" horiz-adv-x="1581"
d="M707 727h-557v-170h557v-557h167v557h558v170h-558v557h-167v-557z" />
    <glyph glyph-name="comma" unicode="," horiz-adv-x="653"
d="M150 -289h129l225 322v211h-252v-211z" />
    <glyph glyph-name="hyphen" unicode="-" horiz-adv-x="845"
d="M688 487l8 166l-538 -10l-8 -164z" />
    <glyph glyph-name="period" unicode="." horiz-adv-x="598"
d="M449 0v324h-299v-324h299z" />
    <glyph glyph-name="slash" unicode="/" horiz-adv-x="1028"
d="M381 -199l498 1667l-152 7l-577 -1665z" />
    <glyph glyph-name="zero" unicode="0" horiz-adv-x="1331"
d="M676 1520q-249 0 -382 -197.5t-144 -577.5q0 -379 127.5 -576.5t377.5 -197.5q251 0 384.5 197.5t142.5 576.5q0 380 -127.5 577.5t-378.5 197.5zM676 1440q313 0 313 -549q-21 -280 -100.5 -414.5t-233.5 -134.5t-223.5 131.5t-69.5 417.5q0 549 314 549zM670 664
q-40 0 -65.5 29.5t-33.5 66t-8 80.5q0 39 2 69t8.5 62t18 52.5t31.5 34t47 13.5q59 0 81.5 -57.5t22.5 -173.5q0 -32 -4.5 -60.5t-15.5 -55.5t-32.5 -43.5t-51.5 -16.5z" />
    <glyph glyph-name="one" unicode="1" horiz-adv-x="1189"
d="M1038 0v281h-329v1212h-201l-358 -72v-184l360 72v-1028h-332v-281h860z" />
    <glyph glyph-name="two" unicode="2" horiz-adv-x="1247"
d="M1098 291h-496q38 130 168 266q117 119 160 168q90 111 125 193.5t35 175.5q0 195 -138 310.5t-370 115.5q-176 0 -422 -99v-204q236 133 426 133q134 0 217.5 -75t83.5 -194q0 -74 -37 -147q-44 -85 -122 -169t-243 -210q-142 -107 -335 -264v-291h948v291z" />
    <glyph glyph-name="three" unicode="3" horiz-adv-x="1282"
d="M825 805q130 34 201.5 119.5t71.5 208.5q0 179 -134 283t-364 104q-176 0 -405 -64v-160q221 74 387 74q152 0 233.5 -61.5t81.5 -175.5q0 -113 -79 -172.5t-228 -59.5h-182v-166h174q160 0 255 -72.5t95 -179.5q0 -52 -98 -137q-103 -86 -291 -86q-222 0 -393 100v-315
q213 -74 399 -74q283 0 433.5 122.5t150.5 361.5q0 145 -83 242.5t-225 107.5z" />
    <glyph glyph-name="four" unicode="4" horiz-adv-x="1388"
d="M150 422h655l-21 -422h271l-21 422h203v168h-203l-10 903h-254l-620 -946v-125zM313 590l510 796l-10 -796h-500z" />
    <glyph glyph-name="five" unicode="5" horiz-adv-x="1265"
d="M213 1493v-750q164 74 326 74q176 0 270 -77t94 -230q0 -39 -25 -83.5t-69.5 -83.5t-116 -65t-153.5 -26q-213 0 -389 96v-313q207 -64 393 -64q273 0 423 133t150 375q0 234 -146.5 371t-396.5 137q-64 0 -194 -31v387h627v150h-793z" />
    <glyph glyph-name="six" unicode="6" horiz-adv-x="1331"
d="M1083 1276v184q-171 60 -315 60q-282 0 -450 -210.5t-168 -564.5q0 -377 137 -575.5t395 -198.5q226 0 363 139t137 369q0 235 -131 371.5t-357 136.5q-106 0 -195 -46.5t-149 -133.5q15 274 120.5 408.5t305.5 134.5q150 0 307 -74zM682 827q137 0 217 -93.5t80 -254.5
q0 -101 -80 -160t-217 -59q-135 0 -215 59t-80 160q0 161 80 254.5t215 93.5z" />
    <glyph glyph-name="seven" unicode="7" horiz-adv-x="1249"
d="M918 1343l-551 -1343h360l373 1407v86h-950v-150h768z" />
    <glyph glyph-name="eight" unicode="8" horiz-adv-x="1363"
d="M479 795q-149 -34 -239 -134.5t-90 -240.5q0 -215 141 -332t391 -117t391 117t141 332q0 140 -90 240.5t-239 134.5q126 32 190 119.5t64 218.5q0 164 -120 265t-337 101t-337 -101t-120 -265q0 -131 64 -218.5t190 -119.5zM406 1174q0 99 74 163t202 64q126 0 201 -64
t75 -163q0 -115 -73.5 -180.5t-202.5 -65.5q-130 0 -203 65t-73 181zM682 729q145 0 227 -77t82 -212q0 -81 -86.5 -150t-222.5 -69t-222.5 68.5t-86.5 150.5q0 135 82 212t227 77z" />
    <glyph glyph-name="nine" unicode="9" horiz-adv-x="1329"
d="M246 336v-305q174 -60 315 -60q283 0 451 210.5t168 563.5q0 378 -136.5 576.5t-396.5 198.5q-226 0 -361.5 -139t-135.5 -369q0 -235 130.5 -370.5t354.5 -135.5q107 0 196.5 46t147.5 132q-6 -108 -27.5 -184t-54 -123t-86.5 -73t-113 -35t-145 -9q-152 0 -307 76z
M631 807q-75 0 -123.5 3.5t-98 17.5t-77 39t-45 69t-17.5 108q0 161 97.5 255t263.5 94t262 -94t96 -255q0 -64 -17 -108t-44 -69t-76.5 -39t-97.5 -17.5t-123 -3.5z" />
    <glyph glyph-name="colon" unicode=":" horiz-adv-x="561"
d="M412 815v287h-262v-287h262zM412 0v305h-262v-305h262z" />
    <glyph glyph-name="semicolon" unicode=";" horiz-adv-x="628"
d="M479 803v293h-243v-293h243zM150 -328h143l182 355v190h-233v-190z" />
    <glyph glyph-name="less" unicode="&#x3c;" horiz-adv-x="1636"
d="M170 817l-20 -225l1236 -576l23 242l-997 453l1058 276l17 180z" />
    <glyph glyph-name="equal" unicode="=" horiz-adv-x="1581"
d="M1432 762v168h-1282v-168h1282zM1432 352v201h-1282v-201h1282z" />
    <glyph glyph-name="greater" unicode="&#x3e;" horiz-adv-x="1636"
d="M170 379l-20 -242l1318 350l19 228l-1235 573l-16 -180l993 -457z" />
    <glyph glyph-name="question" unicode="?" horiz-adv-x="1087"
d="M600 401v123q0 42 4 82q7 63 37 103q23 31 45 73l80 86q90 98 131 164t41 135q0 159 -107.5 256t-289.5 97q-205 0 -391 -113v-158q201 137 356 137q104 0 170.5 -68t66.5 -161q-8 -46 -39 -80.5t-118 -105.5l-101 -88q-86 -83 -115.5 -153t-29.5 -175v-154h260zM598 -10
v284h-264v-284h264z" />
    <glyph glyph-name="at" unicode="@" horiz-adv-x="2070"
d="M1323 238v-154q280 6 439 157.5t159 415.5q0 247 -156 451q-123 160 -304 247t-394 87q-189 0 -357.5 -67.5t-297.5 -194.5q-126 -125 -194 -289.5t-68 -347.5q0 -188 67 -352.5t195 -290.5q129 -125 293 -190.5t348 -65.5q152 0 299 51.5t272 148.5l-88 181
q-201 -158 -483 -158q-165 0 -290.5 41.5t-227.5 140.5q-71 75 -111.5 125.5t-73.5 109.5t-46 119.5t-13 139.5q0 193 88.5 358t245.5 268q198 129 444 129q177 0 326.5 -69.5t253.5 -200.5q127 -157 127 -375q0 -177 -82 -288.5t-230 -133.5v736h-141v-131
q-118 151 -319 151q-171 0 -279.5 -125t-108.5 -325q0 -199 108 -324t280 -125q198 0 319 150zM748 618q0 126 71.5 200.5t192.5 74.5q122 0 194 -74.5t72 -200.5t-70.5 -200t-193.5 -74q-124 0 -195 73t-71 201z" />
    <glyph glyph-name="A" unicode="A" horiz-adv-x="1667"
d="M424 0l76 244h671l58 -244h289l-588 1493h-191l-589 -1493h274zM559 481l275 828l276 -828h-551z" />
    <glyph glyph-name="B" unicode="B" horiz-adv-x="1378"
d="M150 0h536q254 0 398.5 110t144.5 308q0 156 -94.5 255.5t-288.5 131.5q124 20 188 101t64 218q0 177 -126 273t-356 96h-466v-1493zM352 1358h299q144 0 218.5 -69t74.5 -187q0 -225 -293 -225h-299v481zM352 713h324q161 0 242 -66q77 -65 77 -117q0 -134 -74 -183.5
t-245 -49.5h-324v416z" />
    <glyph glyph-name="C" unicode="C" horiz-adv-x="1503"
d="M1354 1165v213q-210 142 -475 142q-339 0 -534 -207.5t-195 -567.5t195 -567t534 -207q263 0 475 144v352q-203 -191 -463 -191q-265 0 -395 107.5t-134 361.5q0 296 136.5 452.5t392.5 156.5q262 0 463 -189z" />
    <glyph glyph-name="D" unicode="D" horiz-adv-x="1554"
d="M150 0h415q432 0 636 181.5t204 566.5q0 384 -203 564.5t-637 180.5h-415v-1493zM362 1327h244q306 0 449 -138t143 -421q-12 -116 -47 -190t-107 -119.5t-175.5 -63.5t-262.5 -18h-244v950z" />
    <glyph glyph-name="E" unicode="E" horiz-adv-x="1261"
d="M1112 0v309h-760v402h711v170h-711v442h742v170h-944v-1493h962z" />
    <glyph glyph-name="F" unicode="F" horiz-adv-x="1157"
d="M401 0l-18 674h571v209h-581l18 430h617v180h-818l-40 -1493h251z" />
    <glyph glyph-name="G" unicode="G" horiz-adv-x="1603"
d="M1225 535v-162q-36 -37 -119.5 -56.5t-194.5 -19.5q-142 0 -238.5 21.5t-166.5 74.5t-104.5 144t-39.5 229q0 608 549 608q280 0 504 -190v194q-227 142 -520 142q-350 0 -547.5 -205t-197.5 -570t197 -569.5t548 -204.5q323 0 559 168v611h-551v-215h322z" />
    <glyph glyph-name="H" unicode="H" horiz-adv-x="1458"
d="M383 0v502h692v-502h234l-21 1493h-213v-713h-692v713h-213l-20 -1493h233z" />
    <glyph glyph-name="I" unicode="I" horiz-adv-x="542"
d="M150 0h241q-9 174 -15 382t-7.5 355.5t-3.5 391t-3 364.5h-172q-2 -94 -7 -453t-12 -587t-21 -453z" />
    <glyph glyph-name="J" unicode="J" horiz-adv-x="925"
d="M563 1495l-53 -1419q-2 -71 -68 -127t-190 -62l-102 23l4 -330l116 -12q240 5 343.5 116t109.5 379l53 1418z" />
    <glyph glyph-name="K" unicode="K" horiz-adv-x="1505"
d="M412 0l-39 719l506 -719h477l-795 797l742 696h-261l-669 -631l18 631h-201l-40 -1493h262z" />
    <glyph glyph-name="L" unicode="L" horiz-adv-x="1239"
d="M1069 0l21 309h-728l11 1184h-203l-20 -1493h919z" />
    <glyph glyph-name="M" unicode="M" horiz-adv-x="1705"
d="M406 0l-39 1311l364 -1073h244l364 1073l-41 -1311h258l-30 1493h-281l-393 -887l-371 887h-301l-30 -1493h256z" />
    <glyph glyph-name="N" unicode="N" horiz-adv-x="1449"
d="M406 0l-60 1249l662 -1249h292v1493h-186l-31 -1208l-641 1177h-252l-40 -1462h256z" />
    <glyph glyph-name="O" unicode="O" horiz-adv-x="1681"
d="M842 1520q-315 0 -503.5 -211t-188.5 -564q0 -354 188 -564t504 -210q315 0 502.5 210.5t187.5 563.5t-187.5 564t-502.5 211zM842 1356q220 0 348.5 -164.5t128.5 -446.5q0 -113 -32.5 -191t-97.5 -121t-148 -61t-199 -18t-199.5 18t-149 61t-98.5 121t-33 191
q0 282 130 446.5t350 164.5z" />
    <glyph glyph-name="P" unicode="P" horiz-adv-x="1314"
d="M391 0l21 580h243q249 0 378.5 121.5t129.5 345.5q0 220 -128 333t-380 113h-444l-61 -1493h241zM422 1407h254q151 0 233 -73t82 -208t-82 -207.5t-233 -72.5h-275z" />
    <glyph glyph-name="Q" unicode="Q" horiz-adv-x="1751"
d="M1602 -264l-318 350q53 58 90.5 112t77 134t60 184.5t20.5 228.5q0 353 -187.5 564t-502.5 211t-503.5 -211t-188.5 -564q0 -233 85.5 -409t239.5 -270.5t356 -94.5q41 0 84 4l211 -239h476zM842 1356q220 0 348.5 -164.5t128.5 -446.5q0 -232 -189 -335q-115 14 -241 69
l-82 -137l-94 12q-43 5 -83.5 16t-91.5 39t-88 68.5t-62.5 110t-25.5 157.5q0 282 130 446.5t350 164.5z" />
    <glyph glyph-name="R" unicode="R" horiz-adv-x="1462"
d="M858 700q106 36 165.5 130t59.5 233q0 214 -124 322t-353 108h-456v-1493h241v631h152q122 0 190.5 -50t140.5 -198l152 -383h287l-205 408q-125 250 -250 292zM373 1386h254q49 0 92 -8.5t84.5 -31.5t71 -58.5t47.5 -93t18 -131.5q0 -89 -97.5 -157t-215.5 -68h-254v548
z" />
    <glyph glyph-name="S" unicode="S" horiz-adv-x="1351"
d="M1110 1247v197q-227 76 -436 76q-245 0 -384.5 -114t-139.5 -312q0 -170 101 -267t327 -141l122 -24q144 -29 216.5 -89.5t72.5 -126.5q0 -73 -99 -136.5t-261 -63.5q-225 0 -473 139v-319q259 -95 473 -95q281 0 426 112t145 329q0 183 -107.5 291t-332.5 151l-121 25
q-164 30 -225.5 81t-61.5 150q0 118 89.5 182t254.5 64q190 0 414 -109z" />
    <glyph glyph-name="T" unicode="T" horiz-adv-x="1562"
d="M680 1343l-39 -1343h283l-41 1343l530 -20v170h-1263v-170z" />
    <glyph glyph-name="U" unicode="U" horiz-adv-x="1443"
d="M150 1493v-932q0 -292 144.5 -441t428.5 -149q281 0 425 149t144 441v932h-213l21 -768q6 -236 -87 -343.5t-290 -107.5q-198 0 -291.5 107.5t-89.5 343.5l20 768h-212z" />
    <glyph glyph-name="V" unicode="V" horiz-adv-x="1667"
d="M1518 1493h-209l-475 -1116l-474 1116h-210l520 -1493h329z" />
    <glyph glyph-name="W" unicode="W" horiz-adv-x="2189"
d="M799 0l297 807l274 -807h295l375 1493h-195l-344 -1092l-323 711h-177l-354 -690l-303 1071h-194l333 -1493h316z" />
    <glyph glyph-name="X" unicode="X" horiz-adv-x="1579"
d="M150 0h327l314 535l311 -535h325l-491 696l461 797h-217l-373 -635l-373 635h-217l447 -797z" />
    <glyph glyph-name="Y" unicode="Y" horiz-adv-x="1558"
d="M639 0h272v512l498 981h-217l-412 -764l-413 764h-217l489 -981v-512z" />
    <glyph glyph-name="Z" unicode="Z" horiz-adv-x="1519"
d="M1094 1323l-944 -1038v-285h1218v299h-967l945 1040v154h-1174v-170h922z" />
    <glyph glyph-name="bracketleft" unicode="[" horiz-adv-x="673"
d="M573 -270v223h-239v1460h239v143h-423v-1826h423z" />
    <glyph glyph-name="backslash" unicode="\" horiz-adv-x="931"
d="M571 -207l209 -6l-461 1700l-169 6z" />
    <glyph glyph-name="bracketright" unicode="]" horiz-adv-x="673"
d="M100 1413h240v-1470h-240v-213h424v1826h-424v-143z" />
    <glyph glyph-name="asciicircum" unicode="^" horiz-adv-x="1581"
d="M150 936h311l330 455l329 -455h312l-564 557h-155z" />
    <glyph glyph-name="underscore" unicode="_" horiz-adv-x="1363"
d="M150 -264v-178h1064v178h-1064z" />
    <glyph glyph-name="grave" unicode="`" horiz-adv-x="778"
d="M356 1343h273l-283 375h-196z" />
    <glyph glyph-name="a" unicode="a" horiz-adv-x="1245"
d="M1096 0v639q0 257 -120 382.5t-364 125.5q-175 0 -381 -78v-149q170 92 363 92q159 -10 238 -83.5t79 -203.5v-18h-258q-503 0 -503 -381q0 -161 102 -258t272 -97q258 0 387 189v-160h185zM809 571v-41q0 -90 -13 -144.5t-46.5 -84.5t-78 -39.5t-118.5 -9.5q-46 0 -76 2
t-63 9t-53.5 20t-36 36.5t-21.5 57.5q1 71 30 112t103 61.5t207 20.5h166z" />
    <glyph glyph-name="b" unicode="b" horiz-adv-x="1302"
d="M258 203q-18 39 -30.5 217.5t-28.5 546t-29 589.5h184l-18 -585q55 96 141 136t215 40q205 0 333 -162.5t128 -425.5t-128 -425.5t-333 -162.5q-108 0 -183.5 15t-124 46.5t-77 71.5t-49.5 99zM1034 600q-6 200 -80.5 308t-218.5 108q-147 0 -229 -111t-82 -313
q6 -47 10 -73t12.5 -59.5t18 -51.5t25.5 -39.5t37 -32t51 -20.5t68.5 -13.5t88.5 -3.5q66 5 112.5 20t86 48t64.5 90.5t36 142.5z" />
    <glyph glyph-name="c" unicode="c" horiz-adv-x="1185"
d="M1036 915v162q-149 70 -323 70q-261 0 -412 -157.5t-151 -430.5q0 -270 149 -429t401 -159q180 0 336 72l-4 289q-30 -16 -61 -26t-68 -13.5t-59.5 -4.5t-69 0t-61.5 1q-183 9 -264.5 68.5t-94.5 201.5q0 207 95 324.5t272 117.5q158 0 315 -86z" />
    <glyph glyph-name="d" unicode="d" horiz-adv-x="1320"
d="M987 1556l-20 -606q-113 197 -359 197q-203 0 -330.5 -162.5t-127.5 -425.5t127.5 -425.5t330.5 -162.5q246 0 359 197v-168h184l20 1556h-184zM283 580q0 203 83 318.5t230 115.5q280 0 289 -420q-2 -92 -20 -149.5t-57.5 -88t-89 -41t-128.5 -10.5q-145 0 -214 63.5
t-93 211.5z" />
    <glyph glyph-name="e" unicode="e" horiz-adv-x="1327"
d="M1178 606v70q-19 237 -135 349.5t-343 121.5q-251 0 -395 -160t-155 -438q0 -263 156 -416t425 -162q215 0 416 86l-4 254q-61 -33 -138.5 -48.5t-122.5 -17t-145 -1.5q-80 4 -135 13.5t-107.5 33t-83 62.5t-49.5 102t-20 151h836zM1018 768l-656 -2q0 108 96 196.5
t242 88.5q86 0 157.5 -45.5t110.5 -108.5t50 -129z" />
    <glyph glyph-name="f" unicode="f" horiz-adv-x="964"
d="M803 1516l-164 20q-141 0 -227 -81t-86 -257l-11 -78h-165v-182h165l-28 -938h264l-31 938h293v182h-293l-8 99q0 100 26.5 131.5t98.5 31.5l166 -18v152z" />
    <glyph glyph-name="g" unicode="g" horiz-adv-x="1320"
d="M987 1120l-20 -170q-114 197 -359 197q-206 0 -332 -157.5t-126 -416.5t126 -416t332 -157q117 0 208 47t140 121v-62q-9 -44 -25.5 -87t-47 -90.5t-70 -83t-99 -58.5t-128.5 -23q-163 0 -322 86v-327q168 -60 350 -60q135 0 228.5 33t160 111.5t99.5 208.5t39 323
l30 981h-184zM887 584q0 -56 -8 -99t-21.5 -73t-37.5 -51t-48 -33t-61.5 -18.5t-70.5 -8.5t-81 -2q-55 0 -89 2.5t-69.5 12.5t-55.5 28.5t-38.5 50.5t-29 78.5t-17.5 112.5q0 200 82.5 310t230.5 110q149 0 231.5 -109.5t82.5 -310.5z" />
    <glyph glyph-name="h" unicode="h" horiz-adv-x="1277"
d="M1128 0l-20 676q0 232 -99 351.5t-292 119.5q-232 0 -363 -201l21 610h-185l-40 -1556h225l-21 633q0 167 87.5 271t234.5 104q131 0 194 -77t54 -261l-29 -670h233z" />
    <glyph glyph-name="i" unicode="i" horiz-adv-x="534"
d="M354 1323l-10 233h-164l-10 -233h184zM150 0h235q-60 574 -41 1120h-164q4 -631 -30 -1120z" />
    <glyph glyph-name="j" unicode="j" horiz-adv-x="733"
d="M584 1323l-11 233h-163l-11 -233h185zM367 1114l-48 -1020q-4 -72 -11 -117.5t-18.5 -76.5t-34 -46.5t-49.5 -23t-73 -10.5h-78l-6 -277l101 -2q180 7 263.5 111t88.5 319l39 1141z" />
    <glyph glyph-name="k" unicode="k" horiz-adv-x="1323"
d="M395 0l-30 526l430 -526h379l-619 596l424 524h-236l-378 -442l10 878h-185l-40 -1556h245z" />
    <glyph glyph-name="l" unicode="l" horiz-adv-x="700"
d="M551 0v227h-217q6 612 41 1239h-174q-39 -703 -51 -1466h401z" />
    <glyph glyph-name="m" unicode="m" horiz-adv-x="1984"
d="M1079 905q-41 117 -135 179.5t-219 62.5q-121 0 -209 -49t-151 -152l20 174h-184l-51 -1120h256l-21 633q0 166 89 279.5t228 113.5q119 0 176.5 -77t57.5 -238l-90 -711h254l30 633q8 173 84.5 279t215.5 106q113 0 156.5 -75t43.5 -243l-69 -700h274l-20 676
q0 226 -95 348.5t-270 122.5q-127 0 -214 -58t-157 -184z" />
    <glyph glyph-name="n" unicode="n" horiz-adv-x="1308"
d="M1157 0l-29 676q-21 471 -401 471q-104 0 -190 -42t-172 -110v135h-185l-30 -1130h256l-31 643q0 168 83.5 261t248.5 93q121 0 174 -77t53 -240l-39 -680h262z" />
    <glyph glyph-name="o" unicode="o" horiz-adv-x="1327"
d="M664 1147q-242 0 -378 -155.5t-136 -432.5q0 -275 136.5 -431.5t377.5 -156.5q240 0 377 156.5t137 431.5q0 276 -137 432t-377 156zM664 1012q147 0 233 -113.5t86 -306.5q0 -95 -21 -156.5t-66 -93t-98 -42.5t-134 -11q-65 0 -110.5 6.5t-87.5 25t-67 51.5t-40 88
t-15 132q0 195 86 307.5t234 112.5z" />
    <glyph glyph-name="p" unicode="p" horiz-adv-x="1359"
d="M385 -426l8 594q113 -197 359 -197q204 0 331 162t127 426t-127 426t-331 162q-246 0 -359 -197l31 154h-184v-844l-90 -686h235zM1092 592q0 -80 -13.5 -137t-37 -92.5t-63 -55t-83.5 -26.5t-107 -7t-108.5 7t-88 27t-68.5 54.5t-41 92t-15 137.5q0 203 82.5 317.5
t228.5 114.5q148 0 231 -114.5t83 -317.5z" />
    <glyph glyph-name="q" unicode="q" horiz-adv-x="1488"
d="M1171 -424l166 141l-225 217l64 1186h-179l-30 -170q-113 197 -359 197q-203 0 -330.5 -162.5t-127.5 -425.5t127.5 -425.5t330.5 -162.5q246 0 359 197l-56 -594zM272 586q0 203 83.5 318.5t230.5 115.5q146 0 229.5 -115.5t83.5 -318.5q0 -67 -9.5 -117t-30 -83.5
t-46 -55t-64.5 -32.5t-77.5 -15t-91.5 -4q-65 0 -108 6t-84 24t-64.5 51.5t-37.5 89.5t-14 136z" />
    <glyph glyph-name="r" unicode="r" horiz-adv-x="978"
d="M829 928l-2 188q-46 10 -82 10q-181 0 -348 -131v115h-170q12 -365 -1.5 -566.5t-75.5 -543.5h288l-41 559q0 393 293 393q39 0 55 -0.5t40.5 -6t43.5 -17.5z" />
    <glyph glyph-name="s" unicode="s" horiz-adv-x="1155"
d="M946 934v153q-154 60 -358 60q-206 0 -318 -86t-112 -244q0 -128 74.5 -193.5t248.5 -101.5l64 -14q175 -41 194 -66q23 -26 58 -88q0 -149 -250 -149q-195 0 -397 106v-270q216 -70 393 -70q216 0 339.5 90.5t123.5 247.5q0 136 -82.5 208t-278.5 114l-63 14
q-146 32 -201 73.5t-55 117.5q0 84 73.5 131t210.5 47q173 0 336 -80z" />
    <glyph glyph-name="t" unicode="t" horiz-adv-x="999"
d="M285 1120h-135v-143h135l-11 -608q0 -209 85.5 -289t299.5 -80h191v274h-191q-61 0 -94.5 7.5t-57 31.5t-31 64.5t-7.5 111.5l10 488h260v143h-260l10 279h-194z" />
    <glyph glyph-name="u" unicode="u" horiz-adv-x="1247"
d="M150 1120v-678q0 -231 100.5 -351t292.5 -120q229 0 360 201l-8 -172h182l21 1120h-203l-21 -475q-11 -167 -92.5 -260.5t-228.5 -93.5q-122 0 -180.5 77.5t-69.5 239.5v512h-153z" />
    <glyph glyph-name="v" unicode="v" horiz-adv-x="1390"
d="M829 0l410 1120h-195l-350 -821l-350 821h-194l409 -1120h270z" />
    <glyph glyph-name="w" unicode="w" horiz-adv-x="1802"
d="M690 0l211 508l203 -508h256l293 1120h-185l-229 -784l-209 414h-258l-209 -414l-229 784h-184l292 -1120h248z" />
    <glyph glyph-name="x" unicode="x" horiz-adv-x="1425"
d="M711 662l-308 458h-196l389 -583l-446 -537h296l277 389l256 -389h297l-436 524l395 596h-186z" />
    <glyph glyph-name="y" unicode="y" horiz-adv-x="1390"
d="M1044 1120l-303 -651l-397 651h-194l479 -1028l-78 -158q-34 -41 -50 -59t-43 -40t-54.5 -30t-63.5 -8h-129v-243h168q66 0 112.5 12.5t94 48.5t90.5 104t92 177l471 1224h-195z" />
    <glyph glyph-name="z" unicode="z" horiz-adv-x="1208"
d="M862 983l-712 -715v-268h899v248h-623l633 704v168h-864v-137h667z" />
    <glyph glyph-name="braceleft" unicode="{" horiz-adv-x="1058"
d="M928 -143h-68q-70 1 -112.5 11.5t-66 36t-32 57t-12.5 87.5l4 250q-6 141 -47 210t-148 97q111 25 157.5 96t49.5 226l4 248q1 51 4 82t13 57.5t24 40t42 24t61.5 14.5t87.5 7l67 -2l2 143h-61q-87 -2 -147 -8.5t-109.5 -22.5t-79 -40.5t-50.5 -65.5t-29.5 -94
t-10.5 -129l-2 -240q-2 -76 -14.5 -123.5t-44 -77.5t-77.5 -42.5t-120 -16.5l-61 2l-2 -143h61q95 -2 146 -29t73 -83t27 -161l-4 -237q3 -116 20 -183.5t64.5 -112.5t123 -62t203.5 -19l62 -2z" />
    <glyph glyph-name="bar" unicode="|" horiz-adv-x="509"
d="M240 1565l-90 -2048h190l31 1009l39 1039h-170z" />
    <glyph glyph-name="braceright" unicode="}" horiz-adv-x="911"
d="M117 -334h63q129 0 206 15.5t126 59t66.5 112t17.5 182.5v239q0 151 54.5 209t195.5 58h61v143h-61q-141 0 -195.5 57.5t-54.5 206.5v240q0 114 -17.5 182.5t-66.5 111.5t-126 58.5t-206 15.5h-63v-143h69q140 0 183 -43.5t43 -185.5v-248q0 -156 44.5 -227.5
t155.5 -96.5q-110 -28 -155 -98.5t-45 -216.5v-248q0 -143 -42.5 -186t-183.5 -43h-69v-154z" />
    <glyph glyph-name="asciitilde" unicode="~" horiz-adv-x="1581"
d="M1432 659v158q-103 -85 -187 -122.5t-172 -37.5q-94 0 -248 62q-27 9 -37 14q-151 60 -258 60q-96 0 -185 -35t-195 -113v-209q57 49 78.5 67t68.5 54t74.5 50t65 27t71.5 13q95 0 250 -82l20 -8q1 -1 7.5 -2.5t9.5 -3.5q146 -88 256 -88q43 0 85 12t92 41.5t82 52
t94 69.5q19 14 28 21z" />
    <glyph glyph-name="uni00A0" unicode="&#xa0;" horiz-adv-x="1603"
 />
    <glyph glyph-name="exclamdown" unicode="&#xa1;"
d="M180 1534l-30 -274h243l-31 274h-182zM385 1016l-203 -8l-8 -357l14 -655l263 8l-33 655z" />
    <glyph glyph-name="cent" unicode="&#xa2;" horiz-adv-x="1196"
d="M1044 920l3 141q-129 62 -277 74l4 286l-102 2l-4 -286q-243 -19 -377.5 -169.5t-140.5 -408.5q-3 -258 126.5 -413.5t368.5 -180.5l-4 -287l102 -2l5 283q145 11 280 68l4 249q-143 -73 -280 -79l16 813q131 -6 276 -90zM664 1008l-15 -805q-146 20 -226.5 113.5
t-78.5 238.5q4 203 88.5 320.5t231.5 132.5z" />
    <glyph glyph-name="sterling" unicode="&#xa3;" horiz-adv-x="1312"
d="M1157 1262l6 182q-168 63 -289 63q-235 -6 -344 -121t-116 -374l-6 -238l-199 2l-4 -123l198 -2l-12 -436l-235 4l-6 -219l993 -16l6 219l-557 10l12 434l391 -6l2 123l-391 6l6 215q4 142 32.5 218.5t84 108t158.5 36.5q117 0 270 -86z" />
    <glyph glyph-name="currency" unicode="&#xa4;" horiz-adv-x="1417"
d="M1153 1202l-207 -209q-116 74 -237 74q-126 0 -236 -76l-207 207l-114 -115l206 -206q-75 -109 -75 -236q0 -116 73 -238l-206 -206l112 -115l207 207q124 -74 240 -74q120 0 235 78l209 -207l113 113l-209 207q78 112 78 235q0 121 -72 240l205 206zM979 643
q0 -55 -20 -94t-58.5 -60.5t-85 -30.5t-106.5 -9q-126 0 -198.5 44t-72.5 150q0 112 79 189t192 77q114 0 192 -77t78 -189z" />
    <glyph glyph-name="yen" unicode="&#xa5;" horiz-adv-x="1456"
d="M838 578v51l84 155h331v123h-264l318 586h-211l-367 -700l-369 700h-210l307 -586h-264v-123h331l105 -155v-51h-416v-162h416l-31 -416h262l-20 416h413v162h-415z" />
    <glyph glyph-name="brokenbar" unicode="&#xa6;" horiz-adv-x="468"
d="M410 1565h-170l-39 -932h170zM201 526l-51 -1009h190l31 1009h-170z" />
    <glyph glyph-name="section" unicode="&#xa7;" horiz-adv-x="1138"
d="M887 1298v164q-155 58 -305 58q-166 0 -266.5 -79t-100.5 -210q0 -135 119 -225q-184 -100 -184 -283q0 -103 63 -178q65 -77 279 -197l24 -14q221 -123 221 -205q0 -72 -53 -100.5t-162 -28.5q-121 0 -293 78v-215q174 -58 316 -58q173 0 275 84.5t102 225.5
q0 126 -119 225q184 106 184 283q0 103 -63 178q-67 75 -279 196q-11 6 -39 23q-207 118 -207 205q0 72 54 111.5t151 39.5q113 0 283 -78zM436 961q251 -138 320 -201q69 -66 69 -144q0 -94 -125 -182q-249 135 -317 203q-72 66 -72 141q0 92 125 183z" />
    <glyph glyph-name="dieresis" unicode="&#xa8;" horiz-adv-x="937"
d="M369 1350v217h-219v-217h219zM786 1350v217h-217v-217h217z" />
    <glyph glyph-name="copyright" unicode="&#xa9;" horiz-adv-x="1781"
d="M891 1485q-305 0 -524 -219q-217 -217 -217 -525q0 -305 217 -522q219 -219 524 -219t524 219q217 217 217 522q0 308 -217 525q-219 219 -524 219zM891 1382q264 0 452 -188q187 -190 187 -453q0 -275 -187 -419q-203 -140 -452 -140q-248 0 -451 140q-190 169 -190 419
q0 263 190 453q188 188 451 188zM1190 1038v99q-128 55 -275 55q-215 0 -340.5 -121t-125.5 -330q0 -207 125.5 -329.5t340.5 -122.5q146 0 275 57v186q-123 -63 -252 -63q-147 0 -236.5 82.5t-89.5 189.5q0 160 85 261.5t231 101.5q127 0 262 -66z" />
    <glyph glyph-name="ordfeminine" unicode="&#xaa;" horiz-adv-x="1011"
d="M860 717v448q0 180 -89.5 267.5t-272.5 87.5q-142 0 -287 -56v-127q136 68 266 68q234 0 234 -182v-4h-183q-187 0 -282.5 -69t-95.5 -204q0 -114 75.5 -181t204.5 -67q189 0 281 131v-112h149zM700 1169v-28q0 -115 -64.5 -186.5t-168.5 -71.5q-82 0 -131 38.5
t-49 102.5q0 76 63 113q66 32 223 32h127zM862 469v123h-688v-123h688z" />
    <glyph glyph-name="guillemotleft" unicode="&#xab;" horiz-adv-x="1261"
d="M150 518l454 -432l47 227l-291 281l312 256l6 190l-483 -401zM584 504l454 -434l47 229l-290 279l311 258l4 190l-481 -401z" />
    <glyph glyph-name="logicalnot" unicode="&#xac;" horiz-adv-x="1611"
d="M1264 692l-50 -405h248l-30 575h-1282v-190z" />
    <glyph glyph-name="softhyphen" unicode="&#xad;" horiz-adv-x="845"
d="M688 487l8 166l-538 -10l-8 -164z" />
    <glyph glyph-name="registered" unicode="&#xae;" horiz-adv-x="1781"
d="M891 1485q-305 0 -524 -219q-217 -217 -217 -525q0 -305 217 -522q219 -219 524 -219t524 219q217 217 217 522q0 308 -217 525q-219 219 -524 219zM891 1382q263 0 452 -174q187 -175 187 -417q0 -244 -187 -416q-188 -176 -452 -176q-263 0 -451 176q-190 175 -190 416
q0 239 190 417q189 174 451 174zM586 338h205v356h57q12 0 49 -24q36 -26 96 -123l129 -209h172l-137 223q-47 74 -80 113q-37 40 -57 45q97 17 149 73t52 142q0 240 -351 240h-284v-836zM791 1120h122q109 0 153 -31t44 -108q0 -74 -44 -104.5t-153 -30.5h-122v274z" />
    <glyph glyph-name="macron" unicode="&#xaf;" horiz-adv-x="897"
d="M748 1378v148h-598v-148h598z" />
    <glyph glyph-name="degree" unicode="&#xb0;" horiz-adv-x="933"
d="M467 1520q-132 0 -224.5 -93.5t-92.5 -226.5q0 -135 90 -225t225 -90q134 0 226.5 91.5t92.5 223.5q0 136 -92 225q-89 95 -225 95zM467 1442q78 0 134 -51t56 -123t-55 -122t-135 -50t-135.5 50t-55.5 122t56 123t135 51z" />
    <glyph glyph-name="plusminus" unicode="&#xb1;" horiz-adv-x="1581"
d="M707 897h-557v-170h557v-387h167v387h558v170h-558v387h-167v-387zM1432 0v190h-1282v-190h1282z" />
    <glyph glyph-name="twosuperior" unicode="&#xb2;" horiz-adv-x="897"
d="M748 834h-424q11 10 42.5 35.5t45.5 37.5q195 168 248 224q81 86 81 149q0 108 -86.5 174t-230.5 66q-114 0 -268 -56v-123q143 70 245 70q85 0 138 -40.5t53 -106.5q0 -18 -12 -39t-46 -55t-64.5 -61t-101 -88t-120.5 -106l-98 -86v-161h598v166z" />
    <glyph glyph-name="threesuperior" unicode="&#xb3;" horiz-adv-x="919"
d="M575 1120q82 19 127.5 66.5t45.5 116.5q0 100 -84.5 158.5t-229.5 58.5q-107 0 -256 -35v-115q144 41 223 41q95 0 146 -31t51 -88q0 -60 -49 -91.5t-143 -31.5h-95v-108h86q219 0 219 -150q0 -28 -9.5 -47t-25 -30t-45 -17t-60.5 -8t-79 -2q-138 0 -237 51l-10 -164
q143 -41 251 -41q178 0 272.5 66.5t94.5 191.5q0 82 -50.5 136t-142.5 73z" />
    <glyph glyph-name="acute" unicode="&#xb4;" horiz-adv-x="833"
d="M319 1321l363 418h-219l-313 -418h169z" />
    <glyph glyph-name="mu" unicode="&#xb5;" horiz-adv-x="1429"
d="M354 -426l-10 553q82 -156 287 -156q190 0 293 158q30 -158 166 -158q36 0 92 35q66 44 98 60v147q-20 -6 -45 -16q-17 -7 -25 -7q-112 9 -112 68l10 862h-184l-11 -442q0 -336 -297 -336q-272 0 -272 293l-10 495l-184 -10l20 -1546h184z" />
    <glyph glyph-name="paragraph" unicode="&#xb6;" horiz-adv-x="1433"
d="M1063 1493h-438q-215 0 -345 -116t-130 -306q0 -88 33 -166t84.5 -129.5t109.5 -84.5t112 -42l-69 -846h321v1567h191l-10 -1567h360z" />
    <glyph glyph-name="periodcentered" unicode="&#xb7;" horiz-adv-x="512"
d="M360 584v254h-210v-254h210z" />
    <glyph glyph-name="cedilla" unicode="&#xb8;" horiz-adv-x="714"
d="M455 0h-119q88 -122 88 -178q0 -94 -119 -94q-92 0 -155 32v-131q86 -24 176 -24q237 0 237 180q0 92 -108 215z" />
    <glyph glyph-name="onesuperior" unicode="&#xb9;" horiz-adv-x="872"
d="M723 668v184h-207v651h-135l-231 -39v-116l223 41v-537h-203v-184h553z" />
    <glyph glyph-name="ordmasculine" unicode="&#xba;" horiz-adv-x="1071"
d="M537 1520q-179 0 -283 -110t-104 -302q0 -190 104 -300t283 -110q180 0 282.5 109.5t102.5 300.5q0 192 -102.5 302t-282.5 110zM537 1442q106 0 168.5 -67.5t62.5 -182.5q0 -114 -62.5 -182t-168.5 -68q-105 0 -168.5 68t-63.5 182t63.5 182t168.5 68zM881 469v123h-688
v-123h688z" />
    <glyph glyph-name="guillemotright" unicode="&#xbb;" horiz-adv-x="1251"
d="M465 608l-315 -252l28 -231l490 391l-33 125l-447 442l-10 -190zM897 586l-313 -252l26 -234l492 394l-35 124l-446 443l-11 -193z" />
    <glyph glyph-name="onequarter" unicode="&#xbc;" horiz-adv-x="1972"
d="M659 -29l932 1549h-159l-932 -1549h159zM723 668v110h-207v725h-135l-231 -39v-116l223 41v-611h-203v-110h553zM1128 188h414v-186h146v186h135v109h-135v541h-166l-394 -529v-121zM1235 297l307 420v-420h-307z" />
    <glyph glyph-name="onehalf" unicode="&#xbd;" horiz-adv-x="1980"
d="M608 -29l932 1549h-160l-931 -1549h159zM723 668v110h-207v725h-135l-231 -39v-116l223 41v-611h-203v-110h553zM1831 117h-424q11 9 40 34t46 39q332 285 332 424q0 108 -87.5 174t-232.5 66q-114 0 -266 -55v-123q141 69 246 69q85 0 136.5 -40.5t51.5 -106.5
q0 -94 -344 -399l-96 -86v-111h598v115z" />
    <glyph glyph-name="threequarters" unicode="&#xbe;" horiz-adv-x="1959"
d="M575 1120q82 19 127.5 66.5t45.5 116.5q0 100 -84.5 158.5t-229.5 58.5q-107 0 -256 -35v-115q144 41 223 41q95 0 146 -31t51 -88q0 -60 -49 -91.5t-143 -31.5h-95v-108h86q219 0 219 -150q0 -71 -60 -110t-169 -39q-137 0 -237 53v-121q143 -41 251 -41
q178 0 272.5 66.5t94.5 191.5q0 82 -50.5 136t-142.5 73zM686 -29l934 1549h-162l-932 -1549h160zM1116 188h416v-186h143v186h135v109h-135v541h-166l-393 -529v-121zM1223 297l309 420v-420h-309z" />
    <glyph glyph-name="questiondown" unicode="&#xbf;" horiz-adv-x="1097"
d="M502 1493v-254h200v254h-200zM508 1092v-123q0 -94 -14 -135q-8 -26 -28 -53t-67 -72l-88 -86q-88 -85 -124.5 -153.5t-36.5 -145.5q0 -158 112 -255.5t295 -97.5q203 0 389 113v248q-198 -137 -352 -137q-109 0 -175.5 54.5t-66.5 143.5q0 95 111 197l90 88
q44 49 58.5 66t32 49t21 62t3.5 81v156h-160z" />
    <glyph glyph-name="Agrave" unicode="&#xc0;" horiz-adv-x="1667"
d="M723 1923h272l-282 375h-197zM424 0l76 244h671l58 -244h289l-588 1493h-191l-589 -1493h274zM559 481l275 828l276 -828h-551z" />
    <glyph glyph-name="Aacute" unicode="&#xc1;" horiz-adv-x="1667"
d="M934 1905l362 417h-219l-313 -417h170zM424 0l76 244h671l58 -244h289l-588 1493h-191l-589 -1493h274zM559 481l275 828l276 -828h-551z" />
    <glyph glyph-name="Acircumflex" unicode="&#xc2;" horiz-adv-x="1667"
d="M666 1501l180 246l180 -246h139l-245 377h-148l-246 -377h140zM424 0l76 244h671l58 -244h289l-588 1493h-191l-589 -1493h274zM559 481l275 828l276 -828h-551z" />
    <glyph glyph-name="Atilde" unicode="&#xc3;" horiz-adv-x="1667"
d="M786 2001l56 -55q68 -62 139 -62q91 0 142.5 74t54.5 209h-127q0 -79 -19 -119q-18 -37 -57 -37q-26 0 -68 39l-57 55q-68 62 -139 62q-91 0 -141.5 -74t-53.5 -209h125q3 81 21 119q18 37 55 37q24 0 69 -39zM424 0l76 244h671l58 -244h289l-588 1493h-191l-589 -1493
h274zM559 481l275 828l276 -828h-551z" />
    <glyph glyph-name="Adieresis" unicode="&#xc4;" horiz-adv-x="1667"
d="M745 1624v217h-219v-217h219zM1163 1624v217h-217v-217h217zM424 0l76 244h671l58 -244h289l-588 1493h-191l-589 -1493h274zM559 481l275 828l276 -828h-551z" />
    <glyph glyph-name="Aring" unicode="&#xc5;" horiz-adv-x="1667"
d="M1120 1798q0 116 -79.5 195.5t-194.5 79.5q-116 0 -195.5 -79.5t-79.5 -195.5q0 -115 79.5 -194.5t195.5 -79.5t195 79t79 195zM997 1798q0 -63 -43.5 -107t-107.5 -44q-65 0 -108.5 43.5t-43.5 107.5t44 108t108 44t107.5 -44.5t43.5 -107.5zM424 0l76 244h671l58 -244
h289l-588 1493h-191l-589 -1493h274zM559 481l275 828l276 -828h-551z" />
    <glyph glyph-name="AE" unicode="&#xc6;" horiz-adv-x="2172"
d="M102 0h375l-8 262h526v-262h965v260h-762v281h713v170h-713v612h741v170h-1212zM995 430h-458l329 905h129v-905z" />
    <glyph glyph-name="Ccedilla" unicode="&#xc7;" horiz-adv-x="1503"
d="M891 1354q-256 0 -392.5 -156.5t-136.5 -452.5q4 -254 134 -361.5t395 -107.5q260 0 463 191v-352q-203 -138 -449 -144q84 -106 84 -186q0 -180 -237 -180q-92 0 -177 24v131q63 -32 156 -32q119 0 119 94q0 53 -72 153q-295 31 -461.5 235t-166.5 535q0 360 195 567.5
t534 207.5q265 0 475 -142v-213q-201 189 -463 189z" />
    <glyph glyph-name="Egrave" unicode="&#xc8;" horiz-adv-x="1261"
d="M475 1972h273l-283 375h-197zM1112 0v309h-760v402h711v170h-711v442h742v170h-944v-1493h962z" />
    <glyph glyph-name="Eacute" unicode="&#xc9;" horiz-adv-x="1261"
d="M686 1954l363 418h-220l-313 -418h170zM1112 0v309h-760v402h711v170h-711v442h742v170h-944v-1493h962z" />
    <glyph glyph-name="Ecircumflex" unicode="&#xca;" horiz-adv-x="1261"
d="M418 1550l180 246l180 -246h140l-246 377h-148l-245 -377h139zM1112 0v309h-760v402h711v170h-711v442h742v170h-944v-1493h962z" />
    <glyph glyph-name="Edieresis" unicode="&#xcb;" horiz-adv-x="1261"
d="M498 1673v217h-219v-217h219zM915 1673v217h-217v-217h217zM1112 0v309h-760v402h711v170h-711v442h742v170h-944v-1493h962z" />
    <glyph glyph-name="Igrave" unicode="&#xcc;" horiz-adv-x="542"
d="M158 2021h272l-283 375h-196zM150 0h241q-9 174 -15 382t-7.5 355.5t-3.5 391t-3 364.5h-172q-2 -94 -7 -453t-12 -587t-21 -453z" />
    <glyph glyph-name="Iacute" unicode="&#xcd;" horiz-adv-x="542"
d="M369 2003l362 418h-219l-313 -418h170zM150 0h241q-9 174 -15 382t-7.5 355.5t-3.5 391t-3 364.5h-172q-2 -94 -7 -453t-12 -587t-21 -453z" />
    <glyph glyph-name="Icircumflex" unicode="&#xce;" horiz-adv-x="542"
d="M100 1599l181 246l180 -246h139l-246 377h-147l-246 -377h139zM150 0h241q-9 174 -15 382t-7.5 355.5t-3.5 391t-3 364.5h-172q-2 -94 -7 -453t-12 -587t-21 -453z" />
    <glyph glyph-name="Idieresis" unicode="&#xcf;" horiz-adv-x="542"
d="M180 1722v217h-219v-217h219zM598 1722v217h-217v-217h217zM150 0h241q-9 174 -15 382t-7.5 355.5t-3.5 391t-3 364.5h-172q-2 -94 -7 -453t-12 -587t-21 -453z" />
    <glyph glyph-name="Eth" unicode="&#xd0;" horiz-adv-x="1771"
d="M133 844v-144h203v-700h416q431 0 634 181.5t203 566.5q0 384 -203 564.5t-634 180.5h-416v-649h-203zM539 1327h241q310 0 453 -139t143 -440q0 -67 -7 -121t-20 -97t-36 -76t-49 -57t-65.5 -40t-79.5 -26.5t-97 -16t-112 -7.5t-130 -2h-241v395h335v144h-335v483z" />
    <glyph glyph-name="Ntilde" unicode="&#xd1;" horiz-adv-x="1449"
d="M678 2099l55 -55q68 -62 139 -62q91 0 142.5 74t54.5 209h-127q0 -81 -18 -119q-18 -37 -58 -37q-25 0 -67 39l-58 56q-66 61 -139 61q-90 0 -140.5 -74t-53.5 -209h124q3 81 21 119q18 37 55 37q25 0 70 -39zM406 0l-60 1249l662 -1249h292v1493h-186l-31 -1208
l-641 1177h-252l-40 -1462h256z" />
    <glyph glyph-name="Ograve" unicode="&#xd2;" horiz-adv-x="1681"
d="M719 2021h272l-282 375h-197zM842 1520q-315 0 -503.5 -211t-188.5 -564q0 -354 188 -564t504 -210q315 0 502.5 210.5t187.5 563.5t-187.5 564t-502.5 211zM842 1356q220 0 348.5 -164.5t128.5 -446.5q0 -113 -32.5 -191t-97.5 -121t-148 -61t-199 -18t-199.5 18
t-149 61t-98.5 121t-33 191q0 282 130 446.5t350 164.5z" />
    <glyph glyph-name="Oacute" unicode="&#xd3;" horiz-adv-x="1681"
d="M930 2003l362 418h-219l-313 -418h170zM842 1520q-315 0 -503.5 -211t-188.5 -564q0 -354 188 -564t504 -210q315 0 502.5 210.5t187.5 563.5t-187.5 564t-502.5 211zM842 1356q220 0 348.5 -164.5t128.5 -446.5q0 -113 -32.5 -191t-97.5 -121t-148 -61t-199 -18
t-199.5 18t-149 61t-98.5 121t-33 191q0 282 130 446.5t350 164.5z" />
    <glyph glyph-name="Ocircumflex" unicode="&#xd4;" horiz-adv-x="1681"
d="M662 1599l180 246l180 -246h139l-246 377h-147l-246 -377h140zM842 1520q-315 0 -503.5 -211t-188.5 -564q0 -354 188 -564t504 -210q315 0 502.5 210.5t187.5 563.5t-187.5 564t-502.5 211zM842 1356q220 0 348.5 -164.5t128.5 -446.5q0 -113 -32.5 -191t-97.5 -121
t-148 -61t-199 -18t-199.5 18t-149 61t-98.5 121t-33 191q0 282 130 446.5t350 164.5z" />
    <glyph glyph-name="Otilde" unicode="&#xd5;" horiz-adv-x="1681"
d="M782 2099l56 -55q68 -62 139 -62q91 0 142.5 74t54.5 209h-127q0 -79 -19 -119q-18 -37 -57 -37q-26 0 -68 39l-57 56q-66 61 -139 61q-91 0 -141.5 -74t-53.5 -209h125q3 84 20 119q18 37 56 37q24 0 69 -39zM842 1520q-315 0 -503.5 -211t-188.5 -564q0 -354 188 -564
t504 -210q315 0 502.5 210.5t187.5 563.5t-187.5 564t-502.5 211zM842 1356q220 0 348.5 -164.5t128.5 -446.5q0 -113 -32.5 -191t-97.5 -121t-148 -61t-199 -18t-199.5 18t-149 61t-98.5 121t-33 191q0 282 130 446.5t350 164.5z" />
    <glyph glyph-name="Odieresis" unicode="&#xd6;" horiz-adv-x="1681"
d="M741 1722v217h-219v-217h219zM1159 1722v217h-217v-217h217zM842 1520q-315 0 -503.5 -211t-188.5 -564q0 -354 188 -564t504 -210q315 0 502.5 210.5t187.5 563.5t-187.5 564t-502.5 211zM842 1356q220 0 348.5 -164.5t128.5 -446.5q0 -113 -32.5 -191t-97.5 -121
t-148 -61t-199 -18t-199.5 18t-149 61t-98.5 121t-33 191q0 282 130 446.5t350 164.5z" />
    <glyph glyph-name="multiply" unicode="&#xd7;" horiz-adv-x="1404"
d="M696 831l-358 361l-168 -172l356 -358l-376 -377l167 -172l379 379l379 -379l170 172l-377 377l387 389l-170 170z" />
    <glyph glyph-name="Oslash" unicode="&#xd8;" horiz-adv-x="1681"
d="M1241 1583l-45 -151q160 -93 248 -271.5t88 -415.5q0 -353 -187.5 -563.5t-502.5 -210.5q-30 0 -80 4l-19 -59l-231 8l37 105q-189 82 -294 268.5t-105 447.5q0 353 188.5 564t503.5 211q107 0 213 -29l35 98zM362 745q0 -174 77.5 -262t226.5 -116l333 962
q-70 27 -157 27q-220 0 -350 -164.5t-130 -446.5zM1141 1245l-267 -891q108 2 186 22t138.5 64t90.5 120t30 185q0 166 -46.5 294.5t-131.5 205.5z" />
    <glyph glyph-name="Ugrave" unicode="&#xd9;" horiz-adv-x="1443"
d="M598 2021h272l-282 375h-197zM150 1493v-932q0 -292 144.5 -441t428.5 -149q281 0 425 149t144 441v932h-213l21 -768q6 -236 -87 -343.5t-290 -107.5q-198 0 -291.5 107.5t-89.5 343.5l20 768h-212z" />
    <glyph glyph-name="Uacute" unicode="&#xda;" horiz-adv-x="1443"
d="M809 2003l362 418h-219l-313 -418h170zM150 1493v-932q0 -292 144.5 -441t428.5 -149q281 0 425 149t144 441v932h-213l21 -768q6 -236 -87 -343.5t-290 -107.5q-198 0 -291.5 107.5t-89.5 343.5l20 768h-212z" />
    <glyph glyph-name="Ucircumflex" unicode="&#xdb;" horiz-adv-x="1443"
d="M541 1599l180 246l180 -246h139l-245 377h-148l-246 -377h140zM150 1493v-932q0 -292 144.5 -441t428.5 -149q281 0 425 149t144 441v932h-213l21 -768q6 -236 -87 -343.5t-290 -107.5q-198 0 -291.5 107.5t-89.5 343.5l20 768h-212z" />
    <glyph glyph-name="Udieresis" unicode="&#xdc;" horiz-adv-x="1443"
d="M621 1722v217h-220v-217h220zM1038 1722v217h-217v-217h217zM150 1493v-932q0 -292 144.5 -441t428.5 -149q281 0 425 149t144 441v932h-213l21 -768q6 -236 -87 -343.5t-290 -107.5q-198 0 -291.5 107.5t-89.5 343.5l20 768h-212z" />
    <glyph glyph-name="Yacute" unicode="&#xdd;" horiz-adv-x="1558"
d="M866 2003l363 418h-219l-314 -418h170zM639 0h272v512l498 981h-217l-412 -764l-413 764h-217l489 -981v-512z" />
    <glyph glyph-name="Thorn" unicode="&#xde;" horiz-adv-x="1263"
d="M352 0v338h254q250 0 379 113t129 333t-128.5 332.5t-379.5 112.5h-254v264h-202v-1493h202zM352 1063h254q141 0 218 -73t77 -206q0 -135 -77 -207.5t-218 -72.5h-254v559z" />
    <glyph glyph-name="germandbls" unicode="&#xdf;" horiz-adv-x="1421"
d="M489 0l-49 1133q20 169 87 240t198 71q44 0 70 -2t57.5 -10t53 -24.5t46.5 -45t48 -71t49 -103.5q-98 -14 -164 -43t-101 -73.5t-49 -94.5t-14 -117q0 -43 10 -81.5t35.5 -80t38.5 -60t49 -63.5l82 -55q104 -64 131 -104q29 -47 29 -84q0 -62 -60.5 -94.5t-177.5 -32.5
q-128 0 -285 59v-244q146 -49 275 -49q211 0 322.5 91.5t111.5 263.5q0 104 -50.5 175t-209.5 173l-57 37q-66 42 -94.5 82t-28.5 88q0 97 83 154t234 65q-3 224 -112 340t-318 116q-218 0 -337.5 -109t-119.5 -310l-59 -1137h276z" />
    <glyph glyph-name="agrave" unicode="&#xe0;" horiz-adv-x="1245"
d="M528 1649h273l-283 374h-196zM1096 0v639q0 257 -120 382.5t-364 125.5q-175 0 -381 -78v-149q170 92 363 92q159 -10 238 -83.5t79 -203.5v-18h-258q-503 0 -503 -381q0 -161 102 -258t272 -97q258 0 387 189v-160h185zM809 571v-41q0 -90 -13 -144.5t-46.5 -84.5
t-78 -39.5t-118.5 -9.5q-46 0 -76 2t-63 9t-53.5 20t-36 36.5t-21.5 57.5q1 71 30 112t103 61.5t207 20.5h166z" />
    <glyph glyph-name="aacute" unicode="&#xe1;" horiz-adv-x="1245"
d="M739 1630l363 418h-219l-314 -418h170zM1096 0v639q0 257 -120 382.5t-364 125.5q-175 0 -381 -78v-149q170 92 363 92q159 -10 238 -83.5t79 -203.5v-18h-258q-503 0 -503 -381q0 -161 102 -258t272 -97q258 0 387 189v-160h185zM809 571v-41q0 -90 -13 -144.5
t-46.5 -84.5t-78 -39.5t-118.5 -9.5q-46 0 -76 2t-63 9t-53.5 20t-36 36.5t-21.5 57.5q1 71 30 112t103 61.5t207 20.5h166z" />
    <glyph glyph-name="acircumflex" unicode="&#xe2;" horiz-adv-x="1245"
d="M471 1227l180 246l180 -246h140l-246 377h-147l-246 -377h139zM1096 0v639q0 257 -120 382.5t-364 125.5q-175 0 -381 -78v-149q170 92 363 92q159 -10 238 -83.5t79 -203.5v-18h-258q-503 0 -503 -381q0 -161 102 -258t272 -97q258 0 387 189v-160h185zM809 571v-41
q0 -90 -13 -144.5t-46.5 -84.5t-78 -39.5t-118.5 -9.5q-46 0 -76 2t-63 9t-53.5 20t-36 36.5t-21.5 57.5q1 71 30 112t103 61.5t207 20.5h166z" />
    <glyph glyph-name="atilde" unicode="&#xe3;" horiz-adv-x="1245"
d="M592 1726l55 -55q66 -61 139 -61q91 0 142.5 73.5t54.5 208.5h-127q0 -80 -18 -118q-18 -37 -58 -37q-25 0 -67 39l-58 55q-66 61 -139 61q-91 0 -141 -73.5t-53 -208.5h124q3 81 21 119q17 36 55 36q25 0 70 -39zM1096 0v639q0 257 -120 382.5t-364 125.5
q-175 0 -381 -78v-149q170 92 363 92q159 -10 238 -83.5t79 -203.5v-18h-258q-503 0 -503 -381q0 -161 102 -258t272 -97q258 0 387 189v-160h185zM809 571v-41q0 -90 -13 -144.5t-46.5 -84.5t-78 -39.5t-118.5 -9.5q-46 0 -76 2t-63 9t-53.5 20t-36 36.5t-21.5 57.5
q1 71 30 112t103 61.5t207 20.5h166z" />
    <glyph glyph-name="adieresis" unicode="&#xe4;" horiz-adv-x="1245"
d="M551 1350v217h-219v-217h219zM969 1350v217h-217v-217h217zM1096 0v639q0 257 -120 382.5t-364 125.5q-175 0 -381 -78v-149q170 92 363 92q159 -10 238 -83.5t79 -203.5v-18h-258q-503 0 -503 -381q0 -161 102 -258t272 -97q258 0 387 189v-160h185zM809 571v-41
q0 -90 -13 -144.5t-46.5 -84.5t-78 -39.5t-118.5 -9.5q-46 0 -76 2t-63 9t-53.5 20t-36 36.5t-21.5 57.5q1 71 30 112t103 61.5t207 20.5h166z" />
    <glyph glyph-name="aring" unicode="&#xe5;" horiz-adv-x="1245"
d="M926 1524q0 115 -79.5 194.5t-195.5 79.5q-115 0 -194.5 -79t-79.5 -195t79.5 -195.5t194.5 -79.5t195 79.5t80 195.5zM803 1524q0 -63 -44 -107.5t-108 -44.5t-107.5 43.5t-43.5 108.5q0 64 43 107.5t108 43.5q64 0 108 -44t44 -107zM1096 0v639q0 257 -120 382.5
t-364 125.5q-175 0 -381 -78v-149q170 92 363 92q159 -10 238 -83.5t79 -203.5v-18h-258q-503 0 -503 -381q0 -161 102 -258t272 -97q258 0 387 189v-160h185zM809 571v-41q0 -90 -13 -144.5t-46.5 -84.5t-78 -39.5t-118.5 -9.5q-46 0 -76 2t-63 9t-53.5 20t-36 36.5
t-21.5 57.5q1 71 30 112t103 61.5t207 20.5h166z" />
    <glyph glyph-name="ae" unicode="&#xe6;" horiz-adv-x="2217"
d="M1096 963q-54 88 -161 136t-249 48q-175 0 -381 -78v-131q170 92 363 92q71 0 133.5 -25.5t101 -64t60.5 -80t22 -76.5v-16h-258q-259 0 -381.5 -100t-122.5 -342q0 -167 105.5 -261t294.5 -94q288 0 432 240q153 -240 491 -240q66 0 146.5 20t128.5 38.5t141 56.5v264
q-198 -104 -406 -104q-175 0 -280.5 95t-118.5 234h848v91q0 95 -35 182t-97.5 153.5t-156 106t-203.5 39.5q-268 0 -417 -184zM1819 721l-656 -2q16 127 113 226t240 99q87 0 158.5 -51.5t108 -124.5t36.5 -147zM985 623v-33q0 -186 -89 -275.5t-249 -89.5
q-110 0 -174.5 46t-64.5 124q0 59 13.5 98.5t39.5 65.5t75.5 40t110.5 19t156 5h182z" />
    <glyph glyph-name="ccedilla" unicode="&#xe7;" horiz-adv-x="1185"
d="M721 1001q-177 0 -272 -117.5t-95 -324.5q13 -142 94.5 -201.5t264.5 -68.5q15 0 61.5 -1t69 0t59.5 4.5t68 13.5t61 26l4 -289q-128 -61 -280 -70q86 -105 86 -188q0 -180 -238 -180q-90 0 -176 24v131q63 -32 156 -32q118 0 118 94q0 50 -69 153q-224 22 -353.5 177.5
t-129.5 406.5q0 273 151 430.5t412 157.5q174 0 323 -70v-162q-157 86 -315 86z" />
    <glyph glyph-name="egrave" unicode="&#xe8;" horiz-adv-x="1327"
d="M551 1649h272l-282 374h-197zM1178 606v70q-19 237 -135 349.5t-343 121.5q-251 0 -395 -160t-155 -438q0 -263 156 -416t425 -162q215 0 416 86l-4 254q-61 -33 -138.5 -48.5t-122.5 -17t-145 -1.5q-80 4 -135 13.5t-107.5 33t-83 62.5t-49.5 102t-20 151h836zM1018 768
l-656 -2q0 108 96 196.5t242 88.5q86 0 157.5 -45.5t110.5 -108.5t50 -129z" />
    <glyph glyph-name="eacute" unicode="&#xe9;" horiz-adv-x="1327"
d="M762 1630l362 418h-219l-313 -418h170zM1178 606v70q-19 237 -135 349.5t-343 121.5q-251 0 -395 -160t-155 -438q0 -263 156 -416t425 -162q215 0 416 86l-4 254q-61 -33 -138.5 -48.5t-122.5 -17t-145 -1.5q-80 4 -135 13.5t-107.5 33t-83 62.5t-49.5 102t-20 151h836z
M1018 768l-656 -2q0 108 96 196.5t242 88.5q86 0 157.5 -45.5t110.5 -108.5t50 -129z" />
    <glyph glyph-name="ecircumflex" unicode="&#xea;" horiz-adv-x="1327"
d="M494 1227l180 246l180 -246h139l-245 377h-148l-246 -377h140zM1178 606v70q-19 237 -135 349.5t-343 121.5q-251 0 -395 -160t-155 -438q0 -263 156 -416t425 -162q215 0 416 86l-4 254q-61 -33 -138.5 -48.5t-122.5 -17t-145 -1.5q-80 4 -135 13.5t-107.5 33t-83 62.5
t-49.5 102t-20 151h836zM1018 768l-656 -2q0 108 96 196.5t242 88.5q86 0 157.5 -45.5t110.5 -108.5t50 -129z" />
    <glyph glyph-name="edieresis" unicode="&#xeb;" horiz-adv-x="1327"
d="M573 1350v217h-219v-217h219zM991 1350v217h-217v-217h217zM1178 606v70q-19 237 -135 349.5t-343 121.5q-251 0 -395 -160t-155 -438q0 -263 156 -416t425 -162q215 0 416 86l-4 254q-61 -33 -138.5 -48.5t-122.5 -17t-145 -1.5q-80 4 -135 13.5t-107.5 33t-83 62.5
t-49.5 102t-20 151h836zM1018 768l-656 -2q0 108 96 196.5t242 88.5q86 0 157.5 -45.5t110.5 -108.5t50 -129z" />
    <glyph glyph-name="igrave" unicode="&#xec;" horiz-adv-x="784"
d="M356 1264h273l-283 374h-196zM635 0v1120h-184v-1120h184z" />
    <glyph glyph-name="iacute" unicode="&#xed;" horiz-adv-x="833"
d="M319 1221l363 417h-219l-313 -417h169zM442 0v1120h-184v-1120h184z" />
    <glyph glyph-name="icircumflex" unicode="&#xee;" horiz-adv-x="937"
d="M289 1262l180 245l180 -245h139l-245 376h-148l-245 -376h139zM616 0v1120h-184v-1120h184z" />
    <glyph glyph-name="idieresis" unicode="&#xef;" horiz-adv-x="937"
d="M369 1350v217h-219v-217h219zM786 1350v217h-217v-217h217zM559 0v1120h-184v-1120h184z" />
    <glyph glyph-name="eth" unicode="&#xf0;" horiz-adv-x="1327"
d="M1069 1425l-33 97l-334 -111l-127 145h-227l180 -204l-280 -92l33 -99l319 107l160 -181q-78 11 -113 11q-221 0 -359 -155.5t-138 -405.5q0 -255 141.5 -410.5t372.5 -155.5t372.5 155.5t141.5 410.5q0 174 -57 318t-183 286l-164 186zM874 915q109 -139 109 -378
q0 -53 -8 -93.5t-21 -68t-36.5 -47t-46.5 -30t-60 -16t-68 -7t-79 -1.5q-49 0 -80 1.5t-68.5 7t-60 16t-46.5 30t-36.5 47t-20.5 68t-8 93.5q0 195 92.5 303t259.5 108q83 0 178 -33z" />
    <glyph glyph-name="ntilde" unicode="&#xf1;" horiz-adv-x="1308"
d="M575 1726l56 -55q66 -61 139 -61q91 0 142.5 73.5t54.5 208.5h-127q0 -78 -19 -118q-18 -37 -57 -37q-26 0 -68 39l-57 55q-66 61 -139 61q-91 0 -141.5 -73.5t-53.5 -208.5h125q3 81 21 119q17 36 55 36q24 0 69 -39zM1157 0l-29 676q-21 471 -401 471q-104 0 -190 -42
t-172 -110v135h-185l-30 -1130h256l-31 643q0 168 83.5 261t248.5 93q121 0 174 -77t53 -240l-39 -680h262z" />
    <glyph glyph-name="ograve" unicode="&#xf2;" horiz-adv-x="1327"
d="M541 1649h272l-283 374h-196zM664 1147q-242 0 -378 -155.5t-136 -432.5q0 -275 136.5 -431.5t377.5 -156.5q240 0 377 156.5t137 431.5q0 276 -137 432t-377 156zM664 1012q147 0 233 -113.5t86 -306.5q0 -95 -21 -156.5t-66 -93t-98 -42.5t-134 -11q-65 0 -110.5 6.5
t-87.5 25t-67 51.5t-40 88t-15 132q0 195 86 307.5t234 112.5z" />
    <glyph glyph-name="oacute" unicode="&#xf3;" horiz-adv-x="1327"
d="M752 1630l362 418h-219l-313 -418h170zM664 1147q-242 0 -378 -155.5t-136 -432.5q0 -275 136.5 -431.5t377.5 -156.5q240 0 377 156.5t137 431.5q0 276 -137 432t-377 156zM664 1012q147 0 233 -113.5t86 -306.5q0 -95 -21 -156.5t-66 -93t-98 -42.5t-134 -11
q-65 0 -110.5 6.5t-87.5 25t-67 51.5t-40 88t-15 132q0 195 86 307.5t234 112.5z" />
    <glyph glyph-name="ocircumflex" unicode="&#xf4;" horiz-adv-x="1327"
d="M483 1227l181 246l180 -246h139l-246 377h-147l-246 -377h139zM664 1147q-242 0 -378 -155.5t-136 -432.5q0 -275 136.5 -431.5t377.5 -156.5q240 0 377 156.5t137 431.5q0 276 -137 432t-377 156zM664 1012q147 0 233 -113.5t86 -306.5q0 -95 -21 -156.5t-66 -93
t-98 -42.5t-134 -11q-65 0 -110.5 6.5t-87.5 25t-67 51.5t-40 88t-15 132q0 195 86 307.5t234 112.5z" />
    <glyph glyph-name="otilde" unicode="&#xf5;" horiz-adv-x="1327"
d="M604 1726l55 -55q66 -61 140 -61q91 0 142 73.5t54 208.5h-127q0 -80 -18 -118q-18 -37 -57 -37q-26 0 -68 39l-57 55q-66 61 -140 61q-91 0 -141 -73.5t-53 -208.5h125q3 84 20 119q17 36 56 36q24 0 69 -39zM664 1147q-242 0 -378 -155.5t-136 -432.5
q0 -275 136.5 -431.5t377.5 -156.5q240 0 377 156.5t137 431.5q0 276 -137 432t-377 156zM664 1012q147 0 233 -113.5t86 -306.5q0 -95 -21 -156.5t-66 -93t-98 -42.5t-134 -11q-65 0 -110.5 6.5t-87.5 25t-67 51.5t-40 88t-15 132q0 195 86 307.5t234 112.5z" />
    <glyph glyph-name="odieresis" unicode="&#xf6;" horiz-adv-x="1327"
d="M563 1350v217h-219v-217h219zM981 1350v217h-217v-217h217zM664 1147q-242 0 -378 -155.5t-136 -432.5q0 -275 136.5 -431.5t377.5 -156.5q240 0 377 156.5t137 431.5q0 276 -137 432t-377 156zM664 1012q147 0 233 -113.5t86 -306.5q0 -95 -21 -156.5t-66 -93t-98 -42.5
t-134 -11q-65 0 -110.5 6.5t-87.5 25t-67 51.5t-40 88t-15 132q0 195 86 307.5t234 112.5z" />
    <glyph glyph-name="divide" unicode="&#xf7;" horiz-adv-x="1632"
d="M965 889v297h-297v-297h297zM1483 508v219h-1333v-219h1333zM965 49v295h-297v-295h297z" />
    <glyph glyph-name="oslash" unicode="&#xf8;" horiz-adv-x="1409"
d="M246 -94l139 168q127 -103 320 -103q240 0 377 156.5t137 431.5q0 243 -107 395l145 179l-94 79l-139 -168q-133 103 -319 103q-240 0 -377.5 -156t-137.5 -432q0 -239 109 -393l-149 -182zM911 909l-487 -592q-39 88 -39 228q0 211 84.5 328.5t235.5 117.5
q124 0 206 -82zM496 209l487 592q41 -86 41 -242q0 -200 -85.5 -316t-233.5 -116q-127 0 -209 82z" />
    <glyph glyph-name="ugrave" unicode="&#xf9;" horiz-adv-x="1247"
d="M508 1649h272l-282 374h-197zM150 1120v-678q0 -231 100.5 -351t292.5 -120q229 0 360 201l-8 -172h182l21 1120h-203l-21 -475q-11 -167 -92.5 -260.5t-228.5 -93.5q-122 0 -180.5 77.5t-69.5 239.5v512h-153z" />
    <glyph glyph-name="uacute" unicode="&#xfa;" horiz-adv-x="1247"
d="M719 1630l362 418h-219l-313 -418h170zM150 1120v-678q0 -231 100.5 -351t292.5 -120q229 0 360 201l-8 -172h182l21 1120h-203l-21 -475q-11 -167 -92.5 -260.5t-228.5 -93.5q-122 0 -180.5 77.5t-69.5 239.5v512h-153z" />
    <glyph glyph-name="ucircumflex" unicode="&#xfb;" horiz-adv-x="1247"
d="M451 1227l180 246l180 -246h139l-245 377h-148l-246 -377h140zM150 1120v-678q0 -231 100.5 -351t292.5 -120q229 0 360 201l-8 -172h182l21 1120h-203l-21 -475q-11 -167 -92.5 -260.5t-228.5 -93.5q-122 0 -180.5 77.5t-69.5 239.5v512h-153z" />
    <glyph glyph-name="udieresis" unicode="&#xfc;" horiz-adv-x="1247"
d="M530 1350v217h-219v-217h219zM948 1350v217h-217v-217h217zM150 1120v-678q0 -231 100.5 -351t292.5 -120q229 0 360 201l-8 -172h182l21 1120h-203l-21 -475q-11 -167 -92.5 -260.5t-228.5 -93.5q-122 0 -180.5 77.5t-69.5 239.5v512h-153z" />
    <glyph glyph-name="yacute" unicode="&#xfd;" horiz-adv-x="1390"
d="M694 1630l363 418h-219l-314 -418h170zM1044 1120l-303 -651l-397 651h-194l479 -1028l-78 -158q-34 -41 -50 -59t-43 -40t-54.5 -30t-63.5 -8h-129v-243h168q66 0 112.5 12.5t94 48.5t90.5 104t92 177l471 1224h-195z" />
    <glyph glyph-name="thorn" unicode="&#xfe;" horiz-adv-x="1277"
d="M461 -426v594q113 -197 356 -197q205 0 333 162.5t128 425.5t-128 425.5t-333 162.5q-243 0 -356 -197v606h-187v-1982h187zM1085 559q0 -203 -83 -318.5t-230 -115.5q-146 0 -228.5 115.5t-82.5 318.5t82.5 318.5t228.5 115.5q147 0 230 -115.5t83 -318.5z" />
    <glyph glyph-name="ydieresis" unicode="&#xff;" horiz-adv-x="1390"
d="M506 1350v217h-219v-217h219zM924 1350v217h-217v-217h217zM1044 1120l-303 -651l-397 651h-194l479 -1028l-78 -158q-34 -41 -50 -59t-43 -40t-54.5 -30t-63.5 -8h-129v-243h168q66 0 112.5 12.5t94 48.5t90.5 104t92 177l471 1224h-195z" />
    <glyph glyph-name="Amacron" unicode="&#x100;" horiz-adv-x="1667"
d="M1145 1573v147h-598v-147h598zM424 0l76 244h671l58 -244h289l-588 1493h-191l-589 -1493h274zM559 481l275 828l276 -828h-551z" />
    <glyph glyph-name="amacron" unicode="&#x101;" horiz-adv-x="1245"
d="M950 1298v148h-598v-148h598zM1096 0v639q0 257 -120 382.5t-364 125.5q-175 0 -381 -78v-149q170 92 363 92q159 -10 238 -83.5t79 -203.5v-18h-258q-503 0 -503 -381q0 -161 102 -258t272 -97q258 0 387 189v-160h185zM809 571v-41q0 -90 -13 -144.5t-46.5 -84.5
t-78 -39.5t-118.5 -9.5q-46 0 -76 2t-63 9t-53.5 20t-36 36.5t-21.5 57.5q1 71 30 112t103 61.5t207 20.5h166z" />
    <glyph glyph-name="Abreve" unicode="&#x102;" horiz-adv-x="1667"
d="M651 1827h-119q21 -287 314 -287q145 0 224.5 72.5t88.5 214.5h-119q-24 -150 -194 -150q-174 0 -195 150zM424 0l76 244h671l58 -244h289l-588 1493h-191l-589 -1493h274zM559 481l275 828l276 -828h-551z" />
    <glyph glyph-name="abreve" unicode="&#x103;" horiz-adv-x="1245"
d="M457 1552h-119q21 -286 313 -286q145 0 225 72t89 214h-119q-24 -149 -195 -149q-173 0 -194 149zM1096 0v639q0 257 -120 382.5t-364 125.5q-175 0 -381 -78v-149q170 92 363 92q159 -10 238 -83.5t79 -203.5v-18h-258q-503 0 -503 -381q0 -161 102 -258t272 -97
q258 0 387 189v-160h185zM809 571v-41q0 -90 -13 -144.5t-46.5 -84.5t-78 -39.5t-118.5 -9.5q-46 0 -76 2t-63 9t-53.5 20t-36 36.5t-21.5 57.5q1 71 30 112t103 61.5t207 20.5h166z" />
    <glyph glyph-name="Aogonek" unicode="&#x104;" horiz-adv-x="1667"
d="M1282 -180q0 -92 109 -92q63 0 125 30v-133q-85 -20 -136 -20q-123 0 -180 43t-57 137q0 92 108 215h-22l-58 244h-671l-76 -244h-274l589 1493h191l588 -1493h-148q-88 -122 -88 -180zM1110 481l-276 828l-275 -828h551z" />
    <glyph glyph-name="aogonek" unicode="&#x105;" horiz-adv-x="1245"
d="M1092 -213q61 0 125 31v-133q-89 -21 -136 -21q-123 0 -180 43t-57 137q0 73 67 164v152q-129 -189 -387 -189q-170 0 -272 97t-102 258q0 381 503 381h258v18q0 130 -79 203.5t-238 83.5q-193 0 -363 -92v149q206 78 381 78q244 0 364 -125.5t120 -382.5v-639h-66
q-47 -77 -47 -121q0 -92 109 -92zM809 571h-166q-133 0 -207 -20.5t-103 -61.5t-30 -112q6 -34 21.5 -57.5t36 -36.5t53.5 -20t63 -9t76 -2q74 0 118.5 9.5t78 39.5t46.5 84.5t13 144.5v41z" />
    <glyph glyph-name="Cacute" unicode="&#x106;" horiz-adv-x="1503"
d="M870 2003l363 418h-219l-314 -418h170zM1354 1165v213q-210 142 -475 142q-339 0 -534 -207.5t-195 -567.5t195 -567t534 -207q263 0 475 144v352q-203 -191 -463 -191q-265 0 -395 107.5t-134 361.5q0 296 136.5 452.5t392.5 156.5q262 0 463 -189z" />
    <glyph glyph-name="cacute" unicode="&#x107;" horiz-adv-x="1185"
d="M723 1630l362 418h-219l-313 -418h170zM1036 915v162q-149 70 -323 70q-261 0 -412 -157.5t-151 -430.5q0 -270 149 -429t401 -159q180 0 336 72l-4 289q-30 -16 -61 -26t-68 -13.5t-59.5 -4.5t-69 0t-61.5 1q-183 9 -264.5 68.5t-94.5 201.5q0 207 95 324.5t272 117.5
q158 0 315 -86z" />
    <glyph glyph-name="Cdotaccent" unicode="&#x10a;" horiz-adv-x="1503"
d="M885 1720v205h-205v-205h205zM1354 1165v213q-210 142 -475 142q-339 0 -534 -207.5t-195 -567.5t195 -567t534 -207q263 0 475 144v352q-203 -191 -463 -191q-265 0 -395 107.5t-134 361.5q0 296 136.5 452.5t392.5 156.5q262 0 463 -189z" />
    <glyph glyph-name="cdotaccent" unicode="&#x10b;" horiz-adv-x="1185"
d="M737 1348v204h-205v-204h205zM1036 915v162q-149 70 -323 70q-261 0 -412 -157.5t-151 -430.5q0 -270 149 -429t401 -159q180 0 336 72l-4 289q-30 -16 -61 -26t-68 -13.5t-59.5 -4.5t-69 0t-61.5 1q-183 9 -264.5 68.5t-94.5 201.5q0 207 95 324.5t272 117.5
q158 0 315 -86z" />
    <glyph glyph-name="Ccaron" unicode="&#x10c;" horiz-adv-x="1503"
d="M1102 2011h-139l-181 -246l-180 246h-139l246 -377h147zM1354 1165v213q-210 142 -475 142q-339 0 -534 -207.5t-195 -567.5t195 -567t534 -207q263 0 475 144v352q-203 -191 -463 -191q-265 0 -395 107.5t-134 361.5q0 296 136.5 452.5t392.5 156.5q262 0 463 -189z" />
    <glyph glyph-name="ccaron" unicode="&#x10d;" horiz-adv-x="1185"
d="M954 1638h-139l-180 -245l-180 245h-140l246 -376h148zM1036 915v162q-149 70 -323 70q-261 0 -412 -157.5t-151 -430.5q0 -270 149 -429t401 -159q180 0 336 72l-4 289q-30 -16 -61 -26t-68 -13.5t-59.5 -4.5t-69 0t-61.5 1q-183 9 -264.5 68.5t-94.5 201.5
q0 207 95 324.5t272 117.5q158 0 315 -86z" />
    <glyph glyph-name="Dcaron" unicode="&#x10e;" horiz-adv-x="1554"
d="M1044 2011h-139l-180 -246l-180 246h-139l245 -377h148zM150 0h415q432 0 636 181.5t204 566.5q0 384 -203 564.5t-637 180.5h-415v-1493zM362 1327h244q306 0 449 -138t143 -421q-12 -116 -47 -190t-107 -119.5t-175.5 -63.5t-262.5 -18h-244v950z" />
    <glyph glyph-name="dcaron" unicode="&#x10f;" horiz-adv-x="1320"
d="M1243 1194h156l200 387v184h-256v-184zM987 1556l-20 -606q-113 197 -359 197q-203 0 -330.5 -162.5t-127.5 -425.5t127.5 -425.5t330.5 -162.5q246 0 359 197v-168h184l20 1556h-184zM283 580q0 203 83 318.5t230 115.5q280 0 289 -420q-2 -92 -20 -149.5t-57.5 -88
t-89 -41t-128.5 -10.5q-145 0 -214 63.5t-93 211.5z" />
    <glyph glyph-name="Dcroat" unicode="&#x110;" horiz-adv-x="1554"
d="M1024 1671v148h-598v-148h598zM150 0h415q432 0 636 181.5t204 566.5q0 384 -203 564.5t-637 180.5h-415v-1493zM362 1327h244q306 0 449 -138t143 -421q-12 -116 -47 -190t-107 -119.5t-175.5 -63.5t-262.5 -18h-244v950z" />
    <glyph glyph-name="dcroat" unicode="&#x111;" horiz-adv-x="1454"
d="M967 1284v-334q-113 197 -359 197q-203 0 -330.5 -162.5t-127.5 -425.5t127.5 -425.5t330.5 -162.5q246 0 359 197v-168h184v1284h154v125h-154v147h-184v-147h-326v-125h326zM340 602q0 183 83.5 287t229.5 104t230 -104t84 -287t-84 -287t-230 -104t-229.5 104
t-83.5 287z" />
    <glyph glyph-name="Emacron" unicode="&#x112;" horiz-adv-x="1261"
d="M897 1622v147h-598v-147h598zM1112 0v309h-760v402h711v170h-711v442h742v170h-944v-1493h962z" />
    <glyph glyph-name="emacron" unicode="&#x113;" horiz-adv-x="1327"
d="M973 1298v148h-598v-148h598zM1178 606v70q-19 237 -135 349.5t-343 121.5q-251 0 -395 -160t-155 -438q0 -263 156 -416t425 -162q215 0 416 86l-4 254q-61 -33 -138.5 -48.5t-122.5 -17t-145 -1.5q-80 4 -135 13.5t-107.5 33t-83 62.5t-49.5 102t-20 151h836zM1018 768
l-656 -2q0 108 96 196.5t242 88.5q86 0 157.5 -45.5t110.5 -108.5t50 -129z" />
    <glyph glyph-name="Edotaccent" unicode="&#x116;" horiz-adv-x="1261"
d="M700 1671v205h-204v-205h204zM1112 0v309h-760v402h711v170h-711v442h742v170h-944v-1493h962z" />
    <glyph glyph-name="edotaccent" unicode="&#x117;" horiz-adv-x="1327"
d="M776 1348v204h-205v-204h205zM1178 606v70q-19 237 -135 349.5t-343 121.5q-251 0 -395 -160t-155 -438q0 -263 156 -416t425 -162q215 0 416 86l-4 254q-61 -33 -138.5 -48.5t-122.5 -17t-145 -1.5q-80 4 -135 13.5t-107.5 33t-83 62.5t-49.5 102t-20 151h836zM1018 768
l-656 -2q0 108 96 196.5t242 88.5q86 0 157.5 -45.5t110.5 -108.5t50 -129z" />
    <glyph glyph-name="Eogonek" unicode="&#x118;" horiz-adv-x="1261"
d="M1112 0h-367q-88 -122 -88 -180q0 -92 109 -92q64 0 125 30v-133q-85 -20 -135 -20q-123 0 -180.5 43t-57.5 137q0 91 109 215h-477v1493h944v-170h-742v-442h711v-170h-711v-402h760v-309z" />
    <glyph glyph-name="eogonek" unicode="&#x119;" horiz-adv-x="1327"
d="M1178 606h-836q1 -88 20 -151t49.5 -102t83 -62.5t107.5 -33t135 -13.5q100 0 145 1.5t122.5 17t138.5 48.5l4 -254q-107 -48 -242 -71h37q-88 -122 -88 -181q0 -92 109 -92q60 0 124 31v-133q-89 -21 -135 -21q-123 0 -180 43.5t-57 137.5q0 85 98 204q-54 -4 -82 -4
q-269 9 -425 162t-156 416q11 278 155 438t395 160q227 -9 343 -121.5t135 -349.5v-70zM362 766l656 2q-11 66 -50 129t-110.5 108.5t-157.5 45.5q-146 0 -242 -88.5t-96 -196.5z" />
    <glyph glyph-name="Ecaron" unicode="&#x11a;" horiz-adv-x="1261"
d="M918 1962h-140l-180 -246l-180 246h-139l245 -377h148zM1112 0v309h-760v402h711v170h-711v442h742v170h-944v-1493h962z" />
    <glyph glyph-name="ecaron" unicode="&#x11b;" horiz-adv-x="1327"
d="M993 1638h-139l-180 -245l-180 245h-140l246 -376h148zM1178 606v70q-19 237 -135 349.5t-343 121.5q-251 0 -395 -160t-155 -438q0 -263 156 -416t425 -162q215 0 416 86l-4 254q-61 -33 -138.5 -48.5t-122.5 -17t-145 -1.5q-80 4 -135 13.5t-107.5 33t-83 62.5
t-49.5 102t-20 151h836zM1018 768l-656 -2q0 108 96 196.5t242 88.5q86 0 157.5 -45.5t110.5 -108.5t50 -129z" />
    <glyph glyph-name="Gbreve" unicode="&#x11e;" horiz-adv-x="1603"
d="M633 1925h-119q21 -287 313 -287q145 0 225 72.5t89 214.5h-119q-24 -149 -195 -149q-173 0 -194 149zM1225 535v-162q-36 -37 -119.5 -56.5t-194.5 -19.5q-142 0 -238.5 21.5t-166.5 74.5t-104.5 144t-39.5 229q0 608 549 608q280 0 504 -190v194q-227 142 -520 142
q-350 0 -547.5 -205t-197.5 -570t197 -569.5t548 -204.5q323 0 559 168v611h-551v-215h322z" />
    <glyph glyph-name="gbreve" unicode="&#x11f;" horiz-adv-x="1320"
d="M487 1552h-118q21 -286 313 -286q145 0 224.5 72t88.5 214h-118q-24 -149 -195 -149q-174 0 -195 149zM987 1120l-20 -170q-114 197 -359 197q-206 0 -332 -157.5t-126 -416.5t126 -416t332 -157q117 0 208 47t140 121v-62q-9 -44 -25.5 -87t-47 -90.5t-70 -83t-99 -58.5
t-128.5 -23q-163 0 -322 86v-327q168 -60 350 -60q135 0 228.5 33t160 111.5t99.5 208.5t39 323l30 981h-184zM887 584q0 -56 -8 -99t-21.5 -73t-37.5 -51t-48 -33t-61.5 -18.5t-70.5 -8.5t-81 -2q-55 0 -89 2.5t-69.5 12.5t-55.5 28.5t-38.5 50.5t-29 78.5t-17.5 112.5
q0 200 82.5 310t230.5 110q149 0 231.5 -109.5t82.5 -310.5z" />
    <glyph glyph-name="Gdotaccent" unicode="&#x120;" horiz-adv-x="1603"
d="M930 1720v205h-205v-205h205zM1225 535v-162q-36 -37 -119.5 -56.5t-194.5 -19.5q-142 0 -238.5 21.5t-166.5 74.5t-104.5 144t-39.5 229q0 608 549 608q280 0 504 -190v194q-227 142 -520 142q-350 0 -547.5 -205t-197.5 -570t197 -569.5t548 -204.5q323 0 559 168v611
h-551v-215h322z" />
    <glyph glyph-name="gdotaccent" unicode="&#x121;" horiz-adv-x="1320"
d="M784 1348v204h-204v-204h204zM987 1120l-20 -170q-114 197 -359 197q-206 0 -332 -157.5t-126 -416.5t126 -416t332 -157q117 0 208 47t140 121v-62q-9 -44 -25.5 -87t-47 -90.5t-70 -83t-99 -58.5t-128.5 -23q-163 0 -322 86v-327q168 -60 350 -60q135 0 228.5 33
t160 111.5t99.5 208.5t39 323l30 981h-184zM887 584q0 -56 -8 -99t-21.5 -73t-37.5 -51t-48 -33t-61.5 -18.5t-70.5 -8.5t-81 -2q-55 0 -89 2.5t-69.5 12.5t-55.5 28.5t-38.5 50.5t-29 78.5t-17.5 112.5q0 200 82.5 310t230.5 110q149 0 231.5 -109.5t82.5 -310.5z" />
    <glyph glyph-name="Gcommaaccent" unicode="&#x122;" horiz-adv-x="1603"
d="M1225 535v-162q-36 -37 -119.5 -56.5t-194.5 -19.5q-142 0 -238.5 21.5t-166.5 74.5t-104.5 144t-39.5 229q0 608 549 608q280 0 504 -190v194q-227 142 -520 142q-350 0 -547.5 -205t-197.5 -570t197 -569.5t548 -204.5q323 0 559 168v611h-551v-215h322zM633 -688h129
l225 321v211h-252v-211z" />
    <glyph glyph-name="gcommaaccent" unicode="&#x123;" horiz-adv-x="1320"
d="M987 1120l-20 -170q-114 197 -359 197q-206 0 -332 -157.5t-126 -416.5t126 -416t332 -157q117 0 208 47t140 121v-62q-9 -44 -25.5 -87t-47 -90.5t-70 -83t-99 -58.5t-128.5 -23q-163 0 -322 86v-327q168 -60 350 -60q135 0 228.5 33t160 111.5t99.5 208.5t39 323
l30 981h-184zM887 584q0 -56 -8 -99t-21.5 -73t-37.5 -51t-48 -33t-61.5 -18.5t-70.5 -8.5t-81 -2q-55 0 -89 2.5t-69.5 12.5t-55.5 28.5t-38.5 50.5t-29 78.5t-17.5 112.5q0 200 82.5 310t230.5 110q149 0 231.5 -109.5t82.5 -310.5zM383 -1069h129l225 321v211h-252v-211z
" />
    <glyph glyph-name="Hbar" unicode="&#x126;" horiz-adv-x="1458"
d="M1294 1110l15 -1110h-234v502h-692v-502h-233l14 1110h-127l8 143h121l4 240h213v-240h692v240h213l4 -240h117l10 -143h-125zM1075 1110h-692v-330h692v330z" />
    <glyph glyph-name="hbar" unicode="&#x127;" horiz-adv-x="1277"
d="M895 0l29 670q9 184 -54 261t-194 77q-147 0 -234.5 -104t-87.5 -271l21 -633h-225l32 1270h-139l31 123h112l4 163h185l-6 -163h360l21 -123h-385l-11 -324q131 201 363 201q193 0 292 -119.5t99 -351.5l20 -676h-233z" />
    <glyph glyph-name="Itilde" unicode="&#x128;" horiz-adv-x="542"
d="M221 2099l55 -55q68 -62 140 -62q91 0 142 74t54 209h-127q0 -81 -18 -119q-18 -37 -57 -37q-26 0 -68 39l-57 56q-66 61 -140 61q-90 0 -140.5 -74t-53.5 -209h125q3 84 20 119q18 37 56 37q24 0 69 -39zM150 0h241q-9 174 -15 382t-7.5 355.5t-3.5 391t-3 364.5h-172
q-2 -94 -7 -453t-12 -587t-21 -453z" />
    <glyph glyph-name="itilde" unicode="&#x129;" horiz-adv-x="534"
d="M180 1726l56 -55q66 -61 139 -61q91 0 142 73.5t54 208.5h-127q0 -80 -18 -118q-18 -37 -57 -37q-26 0 -68 39l-57 55q-66 61 -140 61q-91 0 -141 -73.5t-53 -208.5h125q3 84 20 119q17 36 56 36q24 0 69 -39zM150 0h235q-60 574 -41 1120h-164q4 -631 -30 -1120z" />
    <glyph glyph-name="Imacron" unicode="&#x12a;" horiz-adv-x="542"
d="M580 1671v148h-598v-148h598zM150 0h241q-9 174 -15 382t-7.5 355.5t-3.5 391t-3 364.5h-172q-2 -94 -7 -453t-12 -587t-21 -453z" />
    <glyph glyph-name="imacron" unicode="&#x12b;" horiz-adv-x="534"
d="M539 1298v148h-598v-148h598zM150 0h235q-60 574 -41 1120h-164q4 -631 -30 -1120z" />
    <glyph glyph-name="Iogonek" unicode="&#x12e;" horiz-adv-x="542"
d="M360 -272q64 0 125 30v-133q-85 -20 -135 -20q-123 0 -180 43t-57 137q0 92 108 215h-71q14 225 21 453t12 587t7 453h172q1 -121 3 -364.5t3.5 -391t7.5 -355.5t15 -382h-51q-88 -122 -88 -180q0 -92 108 -92z" />
    <glyph glyph-name="iogonek" unicode="&#x12f;" horiz-adv-x="534"
d="M342 1348h-205v204h205v-204zM358 -242q61 0 125 31v-133q-89 -21 -135 -21q-123 0 -180 43.5t-57 137.5q0 80 82 184h-43q34 489 30 1120h164q-19 -546 41 -1120h-70q-65 -100 -65 -150q0 -92 108 -92z" />
    <glyph glyph-name="Idotaccent" unicode="&#x130;" horiz-adv-x="542"
d="M383 1720v205h-205v-205h205zM150 0h241q-9 174 -15 382t-7.5 355.5t-3.5 391t-3 364.5h-172q-2 -94 -7 -453t-12 -587t-21 -453z" />
    <glyph glyph-name="dotlessi" unicode="&#x131;" horiz-adv-x="534"
d="M150 0h235q-60 574 -41 1120h-164q4 -631 -30 -1120z" />
    <glyph glyph-name="IJ" unicode="&#x132;" horiz-adv-x="1368"
d="M1006 1495l-54 -1419q-2 -71 -68 -127t-190 -62l-102 23l4 -330l117 -12q240 5 343 116t109 379l54 1418zM150 0h241q-9 174 -15 382t-7.5 355.5t-3.5 391t-3 364.5h-172q-2 -94 -7 -453t-12 -587t-21 -453z" />
    <glyph glyph-name="ij" unicode="&#x133;" horiz-adv-x="1267"
d="M354 1323l-10 233h-164l-10 -233h184zM1118 1323l-10 233h-164l-10 -233h184zM150 0h235q-60 574 -41 1120h-164q4 -631 -30 -1120zM901 1114l-47 -1020q-4 -72 -11 -117.5t-18.5 -76.5t-34 -46.5t-49.5 -23t-73 -10.5h-78l-6 -277l100 -2q180 7 263.5 111t88.5 319
l39 1141z" />
    <glyph glyph-name="Kcommaaccent" unicode="&#x136;" horiz-adv-x="1505"
d="M412 0l-39 719l506 -719h477l-795 797l742 696h-261l-669 -631l18 631h-201l-40 -1493h262zM406 -655h129l225 321v211h-252v-211z" />
    <glyph glyph-name="kcommaaccent" unicode="&#x137;" horiz-adv-x="1323"
d="M395 0l-30 526l430 -526h379l-619 596l424 524h-236l-378 -442l10 878h-185l-40 -1556h245zM346 -592h129l225 322v211h-251v-211z" />
    <glyph glyph-name="Lacute" unicode="&#x139;" horiz-adv-x="1239"
d="M395 2003l363 418h-219l-314 -418h170zM1069 0l21 309h-728l11 1184h-203l-20 -1493h919z" />
    <glyph glyph-name="lacute" unicode="&#x13a;" horiz-adv-x="700"
d="M377 1913l362 418h-219l-313 -418h170zM551 0v227h-217q6 612 41 1239h-174q-39 -703 -51 -1466h401z" />
    <glyph glyph-name="Lcommaaccent" unicode="&#x13b;" horiz-adv-x="1239"
d="M1069 0l21 309h-728l11 1184h-203l-20 -1493h919zM371 -649h129l225 321v211h-252v-211z" />
    <glyph glyph-name="lcommaaccent" unicode="&#x13c;" horiz-adv-x="700"
d="M551 0v227h-217q6 612 41 1239h-174q-39 -703 -51 -1466h401zM88 -608h129l225 321v211h-252v-211z" />
    <glyph glyph-name="Lcaron" unicode="&#x13d;" horiz-adv-x="1239"
d="M645 1047h156l200 387v184h-256v-184zM1069 0l21 309h-728l11 1184h-203l-20 -1493h919z" />
    <glyph glyph-name="lcaron" unicode="&#x13e;" horiz-adv-x="700"
d="M446 1198h156l201 387v184h-256v-184zM551 0v227h-217q6 612 41 1239h-174q-39 -703 -51 -1466h401z" />
    <glyph glyph-name="Ldot" unicode="&#x13f;" horiz-adv-x="1239"
d="M1069 0l21 309h-728l11 1184h-203l-20 -1493h919zM870 584v254h-211v-254h211z" />
    <glyph glyph-name="ldot" unicode="&#x140;" horiz-adv-x="700"
d="M551 0v227h-217q6 612 41 1239h-174q-39 -703 -51 -1466h401zM684 645v254h-211v-254h211z" />
    <glyph glyph-name="Lslash" unicode="&#x141;" horiz-adv-x="1454"
d="M150 575l77 -110l148 106v-571h930v170h-727v541l393 274l-80 111l-313 -219v616h-203v-760z" />
    <glyph glyph-name="lslash" unicode="&#x142;" horiz-adv-x="618"
d="M20 684l74 -106l123 88v-666h184v797l201 141l-76 106l-125 -90v602h-184v-731z" />
    <glyph glyph-name="Nacute" unicode="&#x143;" horiz-adv-x="1449"
d="M825 2003l363 418h-219l-314 -418h170zM406 0l-60 1249l662 -1249h292v1493h-186l-31 -1208l-641 1177h-252l-40 -1462h256z" />
    <glyph glyph-name="nacute" unicode="&#x144;" horiz-adv-x="1308"
d="M723 1630l362 418h-219l-313 -418h170zM1157 0l-29 676q-21 471 -401 471q-104 0 -190 -42t-172 -110v135h-185l-30 -1130h256l-31 643q0 168 83.5 261t248.5 93q121 0 174 -77t53 -240l-39 -680h262z" />
    <glyph glyph-name="Ncommaaccent" unicode="&#x145;" horiz-adv-x="1449"
d="M406 0l-60 1249l662 -1249h292v1493h-186l-31 -1208l-641 1177h-252l-40 -1462h256zM461 -604h129l225 321v211h-252v-211z" />
    <glyph glyph-name="ncommaaccent" unicode="&#x146;" horiz-adv-x="1308"
d="M1157 0l-29 676q-21 471 -401 471q-104 0 -190 -42t-172 -110v135h-185l-30 -1130h256l-31 643q0 168 83.5 261t248.5 93q121 0 174 -77t53 -240l-39 -680h262zM379 -592h129l225 322v211h-252v-211z" />
    <glyph glyph-name="Ncaron" unicode="&#x147;" horiz-adv-x="1449"
d="M1057 2011h-139l-181 -246l-180 246h-139l246 -377h147zM406 0l-60 1249l662 -1249h292v1493h-186l-31 -1208l-641 1177h-252l-40 -1462h256z" />
    <glyph glyph-name="ncaron" unicode="&#x148;" horiz-adv-x="1308"
d="M954 1638h-139l-180 -245l-180 245h-140l246 -376h148zM1157 0l-29 676q-21 471 -401 471q-104 0 -190 -42t-172 -110v135h-185l-30 -1130h256l-31 643q0 168 83.5 261t248.5 93q121 0 174 -77t53 -240l-39 -680h262z" />
    <glyph glyph-name="Eng" unicode="&#x14a;" horiz-adv-x="1449"
d="M1300 1493v-1493h-2l-104 -289l-107 -182q-25 14 -116 43.5t-171 64t-102 68.5q34 31 133.5 104.5t133.5 104.5q34 43 43 86l-662 1249l60 -1249h-256l40 1462h252l641 -1177l31 1208h186z" />
    <glyph glyph-name="eng" unicode="&#x14b;" horiz-adv-x="1308"
d="M1128 676q0 44 -3.5 84.5t-14.5 89t-29 89.5t-49 80.5t-71.5 66.5t-100.5 44t-133 17q-104 0 -190 -42t-172 -110v135h-185l-30 -1130h256l-31 643q0 168 83.5 261t248.5 93q121 0 174 -77t53 -240l-19 -655q0 -19 -63.5 -43t-133.5 -49t-79 -44q-16 -28 6 -81.5
t61.5 -95.5t69.5 -42q2 0 32 10.5t76.5 31t92.5 45t85 57.5t50 65q12 33 17 50.5t9.5 72t4.5 143.5q0 147 -15 531z" />
    <glyph glyph-name="Omacron" unicode="&#x14c;" horiz-adv-x="1681"
d="M1141 1671v148h-598v-148h598zM842 1520q-315 0 -503.5 -211t-188.5 -564q0 -354 188 -564t504 -210q315 0 502.5 210.5t187.5 563.5t-187.5 564t-502.5 211zM842 1356q220 0 348.5 -164.5t128.5 -446.5q0 -113 -32.5 -191t-97.5 -121t-148 -61t-199 -18t-199.5 18
t-149 61t-98.5 121t-33 191q0 282 130 446.5t350 164.5z" />
    <glyph glyph-name="omacron" unicode="&#x14d;" horiz-adv-x="1327"
d="M963 1298v148h-598v-148h598zM664 1147q-242 0 -378 -155.5t-136 -432.5q0 -275 136.5 -431.5t377.5 -156.5q240 0 377 156.5t137 431.5q0 276 -137 432t-377 156zM664 1012q147 0 233 -113.5t86 -306.5q0 -95 -21 -156.5t-66 -93t-98 -42.5t-134 -11q-65 0 -110.5 6.5
t-87.5 25t-67 51.5t-40 88t-15 132q0 195 86 307.5t234 112.5z" />
    <glyph glyph-name="Ohungarumlaut" unicode="&#x150;" horiz-adv-x="1681"
d="M627 1634l223 377h-170l-191 -377h138zM944 1634l248 377h-178l-205 -377h135zM842 1520q-315 0 -503.5 -211t-188.5 -564q0 -354 188 -564t504 -210q315 0 502.5 210.5t187.5 563.5t-187.5 564t-502.5 211zM842 1356q220 0 348.5 -164.5t128.5 -446.5q0 -113 -32.5 -191
t-97.5 -121t-148 -61t-199 -18t-199.5 18t-149 61t-98.5 121t-33 191q0 282 130 446.5t350 164.5z" />
    <glyph glyph-name="ohungarumlaut" unicode="&#x151;" horiz-adv-x="1327"
d="M449 1262l223 376h-170l-191 -376h138zM766 1262l248 376h-178l-205 -376h135zM664 1147q-242 0 -378 -155.5t-136 -432.5q0 -275 136.5 -431.5t377.5 -156.5q240 0 377 156.5t137 431.5q0 276 -137 432t-377 156zM664 1012q147 0 233 -113.5t86 -306.5q0 -95 -21 -156.5
t-66 -93t-98 -42.5t-134 -11q-65 0 -110.5 6.5t-87.5 25t-67 51.5t-40 88t-15 132q0 195 86 307.5t234 112.5z" />
    <glyph glyph-name="OE" unicode="&#x152;" horiz-adv-x="2334"
d="M2122 1493h-1049q-431 0 -654.5 -190t-223.5 -555q0 -369 223 -558.5t655 -189.5h1065v281h-760v499h731v170h-731v414h744v129zM1178 281h-129q-155 0 -280 39t-202 105.5t-118 149t-41 173.5q0 323 157.5 469.5t483.5 146.5h129v-1083z" />
    <glyph glyph-name="oe" unicode="&#x153;" horiz-adv-x="2306"
d="M2093 666v90q0 41 -21.5 92t-64.5 103.5t-100 96t-137 71.5t-166 28q-143 0 -259 -56t-194 -163q-135 219 -418 219q-240 0 -377 -156t-137 -432q0 -275 137 -431.5t377 -156.5q280 0 420 219q165 -219 483 -219q216 0 414 86v234q-194 -105 -403 -105q-46 0 -77.5 1.5
t-69 7t-62.5 15.5t-52.5 27t-45.5 42t-36 61t-28.5 82.5t-18 107.5t-10.5 136h846zM1909 801l-656 -2q8 36 36 76.5t71.5 78t108.5 62t137 24.5q65 0 124 -25.5t96.5 -63.5t59.5 -78t23 -72zM733 1022q148 0 234 -108t86 -291t-86 -290.5t-234 -107.5q-149 0 -234 106.5
t-85 291.5q0 186 85.5 292.5t233.5 106.5z" />
    <glyph glyph-name="Racute" unicode="&#x154;" horiz-adv-x="1462"
d="M729 2003l363 418h-220l-313 -418h170zM858 700q106 36 165.5 130t59.5 233q0 214 -124 322t-353 108h-456v-1493h241v631h152q122 0 190.5 -50t140.5 -198l152 -383h287l-205 408q-125 250 -250 292zM373 1386h254q49 0 92 -8.5t84.5 -31.5t71 -58.5t47.5 -93t18 -131.5
q0 -89 -97.5 -157t-215.5 -68h-254v548z" />
    <glyph glyph-name="racute" unicode="&#x155;" horiz-adv-x="978"
d="M489 1630l363 418h-219l-314 -418h170zM829 928l-2 188q-46 10 -82 10q-181 0 -348 -131v115h-170q12 -365 -1.5 -566.5t-75.5 -543.5h288l-41 559q0 393 293 393q39 0 55 -0.5t40.5 -6t43.5 -17.5z" />
    <glyph glyph-name="Rcommaaccent" unicode="&#x156;" horiz-adv-x="1462"
d="M858 700q106 36 165.5 130t59.5 233q0 214 -124 322t-353 108h-456v-1493h241v631h152q122 0 190.5 -50t140.5 -198l152 -383h287l-205 408q-125 250 -250 292zM373 1386h254q49 0 92 -8.5t84.5 -31.5t71 -58.5t47.5 -93t18 -131.5q0 -89 -97.5 -157t-215.5 -68h-254v548
zM428 -530h129l225 321v211h-252v-211z" />
    <glyph glyph-name="rcommaaccent" unicode="&#x157;" horiz-adv-x="978"
d="M829 928l-2 188q-46 10 -82 10q-181 0 -348 -131v115h-170q12 -365 -1.5 -566.5t-75.5 -543.5h288l-41 559q0 393 293 393q39 0 55 -0.5t40.5 -6t43.5 -17.5zM45 -586h129l225 322v211h-252v-211z" />
    <glyph glyph-name="Rcaron" unicode="&#x158;" horiz-adv-x="1462"
d="M961 2011h-140l-180 -246l-180 246h-139l245 -377h148zM858 700q106 36 165.5 130t59.5 233q0 214 -124 322t-353 108h-456v-1493h241v631h152q122 0 190.5 -50t140.5 -198l152 -383h287l-205 408q-125 250 -250 292zM373 1386h254q49 0 92 -8.5t84.5 -31.5t71 -58.5
t47.5 -93t18 -131.5q0 -89 -97.5 -157t-215.5 -68h-254v548z" />
    <glyph glyph-name="rcaron" unicode="&#x159;" horiz-adv-x="978"
d="M721 1638h-139l-181 -245l-180 245h-139l246 -376h147zM829 928l-2 188q-46 10 -82 10q-181 0 -348 -131v115h-170q12 -365 -1.5 -566.5t-75.5 -543.5h288l-41 559q0 393 293 393q39 0 55 -0.5t40.5 -6t43.5 -17.5z" />
    <glyph glyph-name="Sacute" unicode="&#x15a;" horiz-adv-x="1351"
d="M745 2003l363 418h-219l-314 -418h170zM1110 1247v197q-227 76 -436 76q-245 0 -384.5 -114t-139.5 -312q0 -170 101 -267t327 -141l122 -24q144 -29 216.5 -89.5t72.5 -126.5q0 -73 -99 -136.5t-261 -63.5q-225 0 -473 139v-319q259 -95 473 -95q281 0 426 112t145 329
q0 183 -107.5 291t-332.5 151l-121 25q-164 30 -225.5 81t-61.5 150q0 118 89.5 182t254.5 64q190 0 414 -109z" />
    <glyph glyph-name="sacute" unicode="&#x15b;" horiz-adv-x="1155"
d="M649 1630l363 418h-219l-314 -418h170zM946 934v153q-154 60 -358 60q-206 0 -318 -86t-112 -244q0 -128 74.5 -193.5t248.5 -101.5l64 -14q175 -41 194 -66q23 -26 58 -88q0 -149 -250 -149q-195 0 -397 106v-270q216 -70 393 -70q216 0 339.5 90.5t123.5 247.5
q0 136 -82.5 208t-278.5 114l-63 14q-146 32 -201 73.5t-55 117.5q0 84 73.5 131t210.5 47q173 0 336 -80z" />
    <glyph glyph-name="Scedilla" unicode="&#x15e;" horiz-adv-x="1351"
d="M1200 412q0 -376 -428 -432q92 -108 92 -195q0 -180 -237 -180q-91 0 -176 24v131q63 -32 155 -32q119 0 119 94q0 49 -68 149h-28q-214 0 -473 95v319q248 -139 473 -139q162 0 261 63.5t99 136.5q0 66 -72.5 126.5t-216.5 89.5l-122 24q-226 44 -327 141t-101 267
q0 198 139.5 312t384.5 114q209 0 436 -76v-197q-224 109 -414 109q-165 0 -254.5 -64t-89.5 -182q0 -99 61.5 -150t225.5 -81l121 -25q225 -43 332.5 -151t107.5 -291z" />
    <glyph glyph-name="scedilla" unicode="&#x15f;" horiz-adv-x="1155"
d="M1006 309q0 -130 -86.5 -215.5t-243.5 -111.5q92 -115 92 -197q0 -180 -238 -180q-90 0 -176 24v131q63 -32 156 -32q119 0 119 94q0 49 -68 149h-18q-177 0 -393 70v270q202 -106 397 -106q250 0 250 149q-35 62 -58 88q-19 25 -194 66l-64 14q-174 36 -248.5 101.5
t-74.5 193.5q0 158 112 244t318 86q204 0 358 -60v-153q-163 80 -336 80q-137 0 -210.5 -47t-73.5 -131q0 -76 55 -117.5t201 -73.5l63 -14q196 -42 278.5 -114t82.5 -208z" />
    <glyph glyph-name="Scaron" unicode="&#x160;" horiz-adv-x="1351"
d="M977 2011h-139l-181 -246l-180 246h-139l246 -377h147zM1110 1247v197q-227 76 -436 76q-245 0 -384.5 -114t-139.5 -312q0 -170 101 -267t327 -141l122 -24q144 -29 216.5 -89.5t72.5 -126.5q0 -73 -99 -136.5t-261 -63.5q-225 0 -473 139v-319q259 -95 473 -95
q281 0 426 112t145 329q0 183 -107.5 291t-332.5 151l-121 25q-164 30 -225.5 81t-61.5 150q0 118 89.5 182t254.5 64q190 0 414 -109z" />
    <glyph glyph-name="scaron" unicode="&#x161;" horiz-adv-x="1155"
d="M881 1638h-140l-180 -245l-180 245h-139l245 -376h148zM946 934v153q-154 60 -358 60q-206 0 -318 -86t-112 -244q0 -128 74.5 -193.5t248.5 -101.5l64 -14q175 -41 194 -66q23 -26 58 -88q0 -149 -250 -149q-195 0 -397 106v-270q216 -70 393 -70q216 0 339.5 90.5
t123.5 247.5q0 136 -82.5 208t-278.5 114l-63 14q-146 32 -201 73.5t-55 117.5q0 84 73.5 131t210.5 47q173 0 336 -80z" />
    <glyph glyph-name="Tcedilla" unicode="&#x162;" horiz-adv-x="1562"
d="M1413 1323l-530 20l41 -1343h-45q108 -123 108 -215q0 -180 -237 -180q-92 0 -177 24v131q63 -32 156 -32q119 0 119 94q0 56 -88 178h-119l39 1343l-530 -20v170h1263v-170z" />
    <glyph glyph-name="tcedilla" unicode="&#x163;" horiz-adv-x="999"
d="M850 0h-174q108 -123 108 -215q0 -180 -237 -180q-90 0 -176 24v131q63 -32 155 -32q119 0 119 94q0 56 -88 178h102q-214 0 -299.5 80t-85.5 289l11 608h-135v143h135l10 279h194l-10 -279h260v-143h-260l-10 -488q0 -71 7.5 -111.5t31 -64.5t57 -31.5t94.5 -7.5h191
v-274z" />
    <glyph glyph-name="Tcaron" unicode="&#x164;" horiz-adv-x="1562"
d="M1100 2011h-139l-181 -246l-180 246h-139l246 -377h147zM680 1343l-39 -1343h283l-41 1343l530 -20v170h-1263v-170z" />
    <glyph glyph-name="tcaron" unicode="&#x165;" horiz-adv-x="999"
d="M559 1321h156l200 387v184h-256v-184zM285 1120h-135v-143h135l-11 -608q0 -209 85.5 -289t299.5 -80h191v274h-191q-61 0 -94.5 7.5t-57 31.5t-31 64.5t-7.5 111.5l10 488h260v143h-260l10 279h-194z" />
    <glyph glyph-name="Tbar" unicode="&#x166;" horiz-adv-x="1562"
d="M1079 1671v148h-598v-148h598zM680 1343l-39 -1343h283l-41 1343l530 -20v170h-1263v-170z" />
    <glyph glyph-name="tbar" unicode="&#x167;" horiz-adv-x="999"
d="M688 1532v147h-598v-147h598zM285 1120h-135v-143h135l-11 -608q0 -209 85.5 -289t299.5 -80h191v274h-191q-61 0 -94.5 7.5t-57 31.5t-31 64.5t-7.5 111.5l10 488h260v143h-260l10 279h-194z" />
    <glyph glyph-name="Utilde" unicode="&#x168;" horiz-adv-x="1443"
d="M662 2099l55 -55q68 -62 139 -62q91 0 142.5 74t54.5 209h-127q0 -79 -19 -119q-18 -37 -57 -37q-26 0 -68 39l-57 56q-66 61 -139 61q-91 0 -141.5 -74t-53.5 -209h125q3 81 21 119q18 37 55 37q25 0 70 -39zM150 1493v-932q0 -292 144.5 -441t428.5 -149q281 0 425 149
t144 441v932h-213l21 -768q6 -236 -87 -343.5t-290 -107.5q-198 0 -291.5 107.5t-89.5 343.5l20 768h-212z" />
    <glyph glyph-name="utilde" unicode="&#x169;" horiz-adv-x="1247"
d="M571 1726l56 -55q66 -61 139 -61q91 0 142.5 73.5t54.5 208.5h-127q0 -78 -19 -118q-18 -37 -57 -37q-26 0 -68 39l-57 55q-66 61 -139 61q-91 0 -141.5 -73.5t-53.5 -208.5h125q3 84 20 119q17 36 56 36q24 0 69 -39zM150 1120v-678q0 -231 100.5 -351t292.5 -120
q229 0 360 201l-8 -172h182l21 1120h-203l-21 -475q-11 -167 -92.5 -260.5t-228.5 -93.5q-122 0 -180.5 77.5t-69.5 239.5v512h-153z" />
    <glyph glyph-name="Umacron" unicode="&#x16a;" horiz-adv-x="1443"
d="M1020 1671v148h-598v-148h598zM150 1493v-932q0 -292 144.5 -441t428.5 -149q281 0 425 149t144 441v932h-213l21 -768q6 -236 -87 -343.5t-290 -107.5q-198 0 -291.5 107.5t-89.5 343.5l20 768h-212z" />
    <glyph glyph-name="umacron" unicode="&#x16b;" horiz-adv-x="1247"
d="M930 1298v148h-598v-148h598zM150 1120v-678q0 -231 100.5 -351t292.5 -120q229 0 360 201l-8 -172h182l21 1120h-203l-21 -475q-11 -167 -92.5 -260.5t-228.5 -93.5q-122 0 -180.5 77.5t-69.5 239.5v512h-153z" />
    <glyph glyph-name="Uring" unicode="&#x16e;" horiz-adv-x="1443"
d="M995 1896q0 116 -79.5 195.5t-194.5 79.5t-195 -79.5t-80 -195.5q0 -115 79.5 -194.5t195.5 -79.5q115 0 194.5 79t79.5 195zM872 1896q0 -63 -43.5 -107t-107.5 -44q-65 0 -108.5 43.5t-43.5 107.5t43.5 108t108.5 44q64 0 107.5 -44.5t43.5 -107.5zM150 1493v-932
q0 -292 144.5 -441t428.5 -149q281 0 425 149t144 441v932h-213l21 -768q6 -236 -87 -343.5t-290 -107.5q-198 0 -291.5 107.5t-89.5 343.5l20 768h-212z" />
    <glyph glyph-name="uring" unicode="&#x16f;" horiz-adv-x="1247"
d="M905 1524q0 116 -79.5 195t-194.5 79q-116 0 -195.5 -79.5t-79.5 -194.5q0 -116 80 -195.5t195 -79.5t194.5 79.5t79.5 195.5zM782 1524q0 -63 -43.5 -107.5t-107.5 -44.5q-65 0 -108.5 44t-43.5 108t43.5 107.5t108.5 43.5q64 0 107.5 -44t43.5 -107zM150 1120v-678
q0 -231 100.5 -351t292.5 -120q229 0 360 201l-8 -172h182l21 1120h-203l-21 -475q-11 -167 -92.5 -260.5t-228.5 -93.5q-122 0 -180.5 77.5t-69.5 239.5v512h-153z" />
    <glyph glyph-name="Uhungarumlaut" unicode="&#x170;" horiz-adv-x="1443"
d="M506 1634l223 377h-170l-190 -377h137zM823 1634l248 377h-178l-205 -377h135zM150 1493v-932q0 -292 144.5 -441t428.5 -149q281 0 425 149t144 441v932h-213l21 -768q6 -236 -87 -343.5t-290 -107.5q-198 0 -291.5 107.5t-89.5 343.5l20 768h-212z" />
    <glyph glyph-name="uhungarumlaut" unicode="&#x171;" horiz-adv-x="1247"
d="M416 1262l223 376h-170l-190 -376h137zM733 1262l248 376h-178l-205 -376h135zM150 1120v-678q0 -231 100.5 -351t292.5 -120q229 0 360 201l-8 -172h182l21 1120h-203l-21 -475q-11 -167 -92.5 -260.5t-228.5 -93.5q-122 0 -180.5 77.5t-69.5 239.5v512h-153z" />
    <glyph glyph-name="Uogonek" unicode="&#x172;" horiz-adv-x="1443"
d="M1292 1493v-932q0 -275 -127.5 -423t-378.5 -165q-69 -100 -69 -153q0 -92 108 -92q63 0 125 30v-133q-85 -20 -135 -20q-123 0 -180 43t-57 137q0 83 86 188q-255 15 -384.5 163t-129.5 425v932h212l-20 -768q-4 -236 89.5 -343.5t291.5 -107.5q197 0 290 107.5
t87 343.5l-21 768h213z" />
    <glyph glyph-name="uogonek" unicode="&#x173;" horiz-adv-x="1247"
d="M1079 -262q61 0 125 31v-134q-85 -20 -135 -20q-123 0 -180.5 43t-57.5 137q0 86 101 205h-37l8 172q-131 -201 -360 -201q-192 0 -292.5 120t-100.5 351v678h153v-512q11 -162 69.5 -239.5t180.5 -77.5q147 0 228.5 93.5t92.5 260.5l21 475h203l-21 -1120h-26
q-80 -115 -80 -170q0 -92 108 -92z" />
    <glyph glyph-name="Wcircumflex" unicode="&#x174;" horiz-adv-x="2189"
d="M909 1599l181 246l180 -246h139l-246 377h-147l-246 -377h139zM799 0l297 807l274 -807h295l375 1493h-195l-344 -1092l-323 711h-177l-354 -690l-303 1071h-194l333 -1493h316z" />
    <glyph glyph-name="wcircumflex" unicode="&#x175;" horiz-adv-x="1802"
d="M721 1227l180 246l180 -246h140l-246 377h-148l-245 -377h139zM690 0l211 508l203 -508h256l293 1120h-185l-229 -784l-209 414h-258l-209 -414l-229 784h-184l292 -1120h248z" />
    <glyph glyph-name="Ycircumflex" unicode="&#x176;" horiz-adv-x="1558"
d="M598 1599l180 246l180 -246h140l-246 377h-147l-246 -377h139zM639 0h272v512l498 981h-217l-412 -764l-413 764h-217l489 -981v-512z" />
    <glyph glyph-name="ycircumflex" unicode="&#x177;" horiz-adv-x="1390"
d="M426 1227l180 246l180 -246h140l-246 377h-148l-245 -377h139zM1044 1120l-303 -651l-397 651h-194l479 -1028l-78 -158q-34 -41 -50 -59t-43 -40t-54.5 -30t-63.5 -8h-129v-243h168q66 0 112.5 12.5t94 48.5t90.5 104t92 177l471 1224h-195z" />
    <glyph glyph-name="Ydieresis" unicode="&#x178;" horiz-adv-x="1558"
d="M678 1722v217h-219v-217h219zM1096 1722v217h-217v-217h217zM639 0h272v512l498 981h-217l-412 -764l-413 764h-217l489 -981v-512z" />
    <glyph glyph-name="Zacute" unicode="&#x179;" horiz-adv-x="1519"
d="M893 2003l362 418h-219l-313 -418h170zM1094 1323l-944 -1038v-285h1218v299h-967l945 1040v154h-1174v-170h922z" />
    <glyph glyph-name="zacute" unicode="&#x17a;" horiz-adv-x="1208"
d="M739 1630l363 418h-219l-314 -418h170zM862 983l-712 -715v-268h899v248h-623l633 704v168h-864v-137h667z" />
    <glyph glyph-name="Zdotaccent" unicode="&#x17b;" horiz-adv-x="1519"
d="M907 1720v205h-205v-205h205zM1094 1323l-944 -1038v-285h1218v299h-967l945 1040v154h-1174v-170h922z" />
    <glyph glyph-name="zdotaccent" unicode="&#x17c;" horiz-adv-x="1208"
d="M754 1348v204h-205v-204h205zM862 983l-712 -715v-268h899v248h-623l633 704v168h-864v-137h667z" />
    <glyph glyph-name="Zcaron" unicode="&#x17d;" horiz-adv-x="1519"
d="M1124 2011h-139l-180 -246l-180 246h-140l246 -377h148zM1094 1323l-944 -1038v-285h1218v299h-967l945 1040v154h-1174v-170h922z" />
    <glyph glyph-name="zcaron" unicode="&#x17e;" horiz-adv-x="1208"
d="M971 1638h-140l-180 -245l-180 245h-139l246 -376h147zM862 983l-712 -715v-268h899v248h-623l633 704v168h-864v-137h667z" />
    <glyph glyph-name="florin" unicode="&#x192;" horiz-adv-x="1550"
d="M1401 1376v144q-88 36 -199 36q-151 0 -250.5 -97.5t-134.5 -280.5l-63 -330l-279 -21v-143l248 21l-78 -535q-34 -166 -88 -234.5t-151 -68.5q-92 0 -195 65l-61 -315q93 -43 204 -43q66 0 102 2.5t88 15t82 37t68 71t62 115t48.5 169.5t43.5 235l65 486l318 20v143
l-287 -20l60 332q25 132 81.5 193t153.5 61q86 0 162 -58z" />
    <glyph glyph-name="Ohorn" unicode="&#x1a0;" horiz-adv-x="1681"
d="M1513 1407l99 -12q10 -42 10 -66q0 -67 -20.5 -131t-63.5 -102q-9 -8 -20 -17t-18 -14.5t-13 -9.5q45 -143 45 -310q0 -353 -187.5 -563.5t-502.5 -210.5q-316 0 -504 210t-188 564q0 353 188.5 564t503.5 211q208 0 365 -97t241 -272q29 16 39 25q7 6 12.5 14t9.5 16
t7 18.5t5 18.5t3.5 20.5t2 19t1 19t0.5 17v15.5v12q0 24 -15 61zM842 354q116 0 199 18t148 61t97.5 121t32.5 191q0 282 -128.5 446.5t-348.5 164.5t-350 -164.5t-130 -446.5q0 -113 33 -191t98.5 -121t149 -61t199.5 -18z" />
    <glyph glyph-name="ohorn" unicode="&#x1a1;" horiz-adv-x="1327"
d="M1171 1090l99 -13q10 -42 10 -65q0 -67 -20.5 -131.5t-63.5 -102.5l-37 -30q19 -90 19 -189q0 -275 -137 -431.5t-377 -156.5q-241 0 -377.5 156.5t-136.5 431.5q0 277 136 432.5t378 155.5q168 0 286.5 -77.5t177.5 -223.5l17 12q7 6 12.5 14t9.5 16t7 18.5t5 18.5
t3.5 20.5t2 19t1 19t0.5 17v15.5v12q0 24 -15 62zM664 289q81 0 134 11t98 42.5t66 93t21 156.5q0 193 -86 306.5t-233 113.5q-148 0 -234 -112.5t-86 -307.5q0 -77 15 -132t40 -88t67 -51.5t87.5 -25t110.5 -6.5z" />
    <glyph glyph-name="Uhorn" unicode="&#x1af;" horiz-adv-x="1443"
d="M1362 1544l98 -12q10 -42 10 -66q0 -67 -20.5 -131t-63.5 -102q-10 -8 -25.5 -21t-21.5 -18t-18.5 -13t-28.5 -16v-604q0 -292 -144 -441t-425 -149q-284 0 -428.5 149t-144.5 441v932h212l-20 -768q-4 -236 89.5 -343.5t291.5 -107.5q197 0 290 107.5t87 343.5l-21 768
h213v-207q28 14 43 27q7 6 12.5 14t9.5 16t7 18.5t5 18.5t3.5 20.5t2 19t1 19t0.5 17v15.5v12q0 26 -14 61z" />
    <glyph glyph-name="uhorn" unicode="&#x1b0;" horiz-adv-x="1247"
d="M1167 1200l99 -12q10 -42 10 -66q0 -67 -20.5 -131t-63.5 -102q-9 -7 -22 -18.5t-18.5 -15.5t-15 -11t-19.5 -12.5t-25 -12.5l-15 -819h-182l8 172q-131 -201 -360 -201q-192 0 -292.5 120t-100.5 351v678h153v-512q11 -162 69.5 -239.5t180.5 -77.5q147 0 228.5 93.5
t92.5 260.5l21 475h203l-4 -180q37 21 47 29q7 6 12.5 14t9.5 16t7 18.5t5 18.5t3.5 20.5t2 19t1 19t0.5 17v15.5v12q0 23 -15 61z" />
    <glyph glyph-name="Acaron" unicode="&#x1cd;" horiz-adv-x="1667"
d="M1165 1913h-139l-180 -246l-180 246h-140l246 -377h148zM424 0l76 244h671l58 -244h289l-588 1493h-191l-589 -1493h274zM559 481l275 828l276 -828h-551z" />
    <glyph glyph-name="acaron" unicode="&#x1ce;" horiz-adv-x="1245"
d="M971 1638h-140l-180 -245l-180 245h-139l246 -376h147zM1096 0v639q0 257 -120 382.5t-364 125.5q-175 0 -381 -78v-149q170 92 363 92q159 -10 238 -83.5t79 -203.5v-18h-258q-503 0 -503 -381q0 -161 102 -258t272 -97q258 0 387 189v-160h185zM809 571v-41
q0 -90 -13 -144.5t-46.5 -84.5t-78 -39.5t-118.5 -9.5q-46 0 -76 2t-63 9t-53.5 20t-36 36.5t-21.5 57.5q1 71 30 112t103 61.5t207 20.5h166z" />
    <glyph glyph-name="Icaron" unicode="&#x1cf;" horiz-adv-x="542"
d="M600 2011h-139l-180 -246l-181 246h-139l246 -377h147zM150 0h241q-9 174 -15 382t-7.5 355.5t-3.5 391t-3 364.5h-172q-2 -94 -7 -453t-12 -587t-21 -453z" />
    <glyph glyph-name="icaron" unicode="&#x1d0;" horiz-adv-x="534"
d="M559 1638h-139l-180 -245l-181 245h-139l246 -376h147zM150 0h235q-60 574 -41 1120h-164q4 -631 -30 -1120z" />
    <glyph glyph-name="Ocaron" unicode="&#x1d1;" horiz-adv-x="1681"
d="M1161 2011h-139l-180 -246l-180 246h-140l246 -377h147zM842 1520q-315 0 -503.5 -211t-188.5 -564q0 -354 188 -564t504 -210q315 0 502.5 210.5t187.5 563.5t-187.5 564t-502.5 211zM842 1356q220 0 348.5 -164.5t128.5 -446.5q0 -113 -32.5 -191t-97.5 -121t-148 -61
t-199 -18t-199.5 18t-149 61t-98.5 121t-33 191q0 282 130 446.5t350 164.5z" />
    <glyph glyph-name="ocaron" unicode="&#x1d2;" horiz-adv-x="1327"
d="M983 1638h-139l-180 -245l-181 245h-139l246 -376h147zM664 1147q-242 0 -378 -155.5t-136 -432.5q0 -275 136.5 -431.5t377.5 -156.5q240 0 377 156.5t137 431.5q0 276 -137 432t-377 156zM664 1012q147 0 233 -113.5t86 -306.5q0 -95 -21 -156.5t-66 -93t-98 -42.5
t-134 -11q-65 0 -110.5 6.5t-87.5 25t-67 51.5t-40 88t-15 132q0 195 86 307.5t234 112.5z" />
    <glyph glyph-name="Ucaron" unicode="&#x1d3;" horiz-adv-x="1443"
d="M1040 2011h-139l-180 -246l-180 246h-140l246 -377h148zM150 1493v-932q0 -292 144.5 -441t428.5 -149q281 0 425 149t144 441v932h-213l21 -768q6 -236 -87 -343.5t-290 -107.5q-198 0 -291.5 107.5t-89.5 343.5l20 768h-212z" />
    <glyph glyph-name="ucaron" unicode="&#x1d4;" horiz-adv-x="1247"
d="M950 1638h-139l-180 -245l-180 245h-140l246 -376h148zM150 1120v-678q0 -231 100.5 -351t292.5 -120q229 0 360 201l-8 -172h182l21 1120h-203l-21 -475q-11 -167 -92.5 -260.5t-228.5 -93.5q-122 0 -180.5 77.5t-69.5 239.5v512h-153z" />
    <glyph glyph-name="Udieresismacron" unicode="&#x1d5;" horiz-adv-x="1443"
d="M422 1722h-21v217h220v-120h200v120h217v-217h-18v-51h-598v51zM1292 1493v-932q0 -292 -144 -441t-425 -149q-284 0 -428.5 149t-144.5 441v932h212l-20 -768q-4 -236 89.5 -343.5t291.5 -107.5q197 0 290 107.5t87 343.5l-21 768h213z" />
    <glyph glyph-name="udieresismacron" unicode="&#x1d6;" horiz-adv-x="1247"
d="M332 1350h-21v217h219v-121h201v121h217v-217h-18v-52h-598v52zM1098 1120l-21 -1120h-182l8 172q-131 -201 -360 -201q-192 0 -292.5 120t-100.5 351v678h153v-512q11 -162 69.5 -239.5t180.5 -77.5q147 0 228.5 93.5t92.5 260.5l21 475h203z" />
    <glyph glyph-name="Udieresisacute" unicode="&#x1d7;" horiz-adv-x="1443"
d="M809 2003l362 418h-219l-313 -418h170zM621 1722v217h-220v-217h220zM1038 1722v217h-217v-217h217zM150 1493v-932q0 -292 144.5 -441t428.5 -149q281 0 425 149t144 441v932h-213l21 -768q6 -236 -87 -343.5t-290 -107.5q-198 0 -291.5 107.5t-89.5 343.5l20 768h-212z
" />
    <glyph glyph-name="udieresisacute" unicode="&#x1d8;" horiz-adv-x="1247"
d="M719 1630l362 418h-219l-313 -418h170zM530 1350v217h-219v-217h219zM948 1350v217h-217v-217h217zM150 1120v-678q0 -231 100.5 -351t292.5 -120q229 0 360 201l-8 -172h182l21 1120h-203l-21 -475q-11 -167 -92.5 -260.5t-228.5 -93.5q-122 0 -180.5 77.5t-69.5 239.5
v512h-153z" />
    <glyph glyph-name="Udieresiscaron" unicode="&#x1d9;" horiz-adv-x="1443"
d="M590 1722h-189v217h48l-48 72h140l53 -72h27v-36l100 -138l100 138v36h27l53 72h139l-47 -72h45v-217h-186l-57 -88h-148zM1292 1493v-932q0 -292 -144 -441t-425 -149q-284 0 -428.5 149t-144.5 441v932h212l-20 -768q-4 -236 89.5 -343.5t291.5 -107.5q197 0 290 107.5
t87 343.5l-21 768h213z" />
    <glyph glyph-name="udieresiscaron" unicode="&#x1da;" horiz-adv-x="1247"
d="M500 1350h-189v217h47l-47 71h140l53 -71h26v-37l101 -137l100 137v37h27l53 71h139l-47 -71h45v-217h-186l-57 -88h-148zM1098 1120l-21 -1120h-182l8 172q-131 -201 -360 -201q-192 0 -292.5 120t-100.5 351v678h153v-512q11 -162 69.5 -239.5t180.5 -77.5
q147 0 228.5 93.5t92.5 260.5l21 475h203z" />
    <glyph glyph-name="Udieresisgrave" unicode="&#x1db;" horiz-adv-x="1443"
d="M598 2021h272l-282 375h-197zM621 1722v217h-220v-217h220zM1038 1722v217h-217v-217h217zM150 1493v-932q0 -292 144.5 -441t428.5 -149q281 0 425 149t144 441v932h-213l21 -768q6 -236 -87 -343.5t-290 -107.5q-198 0 -291.5 107.5t-89.5 343.5l20 768h-212z" />
    <glyph glyph-name="udieresisgrave" unicode="&#x1dc;" horiz-adv-x="1247"
d="M508 1649h272l-282 374h-197zM530 1350v217h-219v-217h219zM948 1350v217h-217v-217h217zM150 1120v-678q0 -231 100.5 -351t292.5 -120q229 0 360 201l-8 -172h182l21 1120h-203l-21 -475q-11 -167 -92.5 -260.5t-228.5 -93.5q-122 0 -180.5 77.5t-69.5 239.5v512h-153z
" />
    <glyph glyph-name="Adieresismacron" unicode="&#x1de;" horiz-adv-x="1667"
d="M547 1624h-21v217h219v-121h201v121h217v-217h-18v-51h-598v51zM1518 0h-289l-58 244h-671l-76 -244h-274l589 1493h191zM1110 481l-276 828l-275 -828h551z" />
    <glyph glyph-name="adieresismacron" unicode="&#x1df;" horiz-adv-x="1245"
d="M352 1350h-20v217h219v-121h201v121h217v-217h-19v-52h-598v52zM612 1147q244 0 364 -125.5t120 -382.5v-639h-185v160q-129 -189 -387 -189q-170 0 -272 97t-102 258q0 381 503 381h258v18q0 130 -79 203.5t-238 83.5q-193 0 -363 -92v149q206 78 381 78zM809 571h-166
q-133 0 -207 -20.5t-103 -61.5t-30 -112q6 -34 21.5 -57.5t36 -36.5t53.5 -20t63 -9t76 -2q74 0 118.5 9.5t78 39.5t46.5 84.5t13 144.5v41z" />
    <glyph glyph-name="Gcaron" unicode="&#x1e6;" horiz-adv-x="1603"
d="M1147 2011h-139l-181 -246l-180 246h-139l246 -377h147zM1225 535v-162q-36 -37 -119.5 -56.5t-194.5 -19.5q-142 0 -238.5 21.5t-166.5 74.5t-104.5 144t-39.5 229q0 608 549 608q280 0 504 -190v194q-227 142 -520 142q-350 0 -547.5 -205t-197.5 -570t197 -569.5
t548 -204.5q323 0 559 168v611h-551v-215h322z" />
    <glyph glyph-name="gcaron" unicode="&#x1e7;" horiz-adv-x="1320"
d="M1001 1638h-139l-180 -245l-180 245h-140l246 -376h148zM987 1120l-20 -170q-114 197 -359 197q-206 0 -332 -157.5t-126 -416.5t126 -416t332 -157q117 0 208 47t140 121v-62q-9 -44 -25.5 -87t-47 -90.5t-70 -83t-99 -58.5t-128.5 -23q-163 0 -322 86v-327
q168 -60 350 -60q135 0 228.5 33t160 111.5t99.5 208.5t39 323l30 981h-184zM887 584q0 -56 -8 -99t-21.5 -73t-37.5 -51t-48 -33t-61.5 -18.5t-70.5 -8.5t-81 -2q-55 0 -89 2.5t-69.5 12.5t-55.5 28.5t-38.5 50.5t-29 78.5t-17.5 112.5q0 200 82.5 310t230.5 110
q149 0 231.5 -109.5t82.5 -310.5z" />
    <glyph glyph-name="Oslashacute" unicode="&#x1fe;" horiz-adv-x="1681"
d="M973 2003h-170l313 418h219zM1241 1583l-45 -151q160 -93 248 -271.5t88 -415.5q0 -353 -187.5 -563.5t-502.5 -210.5q-30 0 -80 4l-19 -59l-231 8l37 105q-189 82 -294 268.5t-105 447.5q0 353 188.5 564t503.5 211q107 0 213 -29l35 98zM362 745q0 -174 77.5 -262
t226.5 -116l333 962q-70 27 -157 27q-220 0 -350 -164.5t-130 -446.5zM1141 1245l-267 -891q108 2 186 22t138.5 64t90.5 120t30 185q0 166 -46.5 294.5t-131.5 205.5z" />
    <glyph glyph-name="oslashacute" unicode="&#x1ff;" horiz-adv-x="1409"
d="M793 1630l362 418h-219l-313 -418h170zM246 -94l139 168q127 -103 320 -103q240 0 377 156.5t137 431.5q0 243 -107 395l145 179l-94 79l-139 -168q-133 103 -319 103q-240 0 -377.5 -156t-137.5 -432q0 -239 109 -393l-149 -182zM911 909l-487 -592q-39 88 -39 228
q0 211 84.5 328.5t235.5 117.5q124 0 206 -82zM496 209l487 592q41 -86 41 -242q0 -200 -85.5 -316t-233.5 -116q-127 0 -209 82z" />
    <glyph glyph-name="Scommaaccent" unicode="&#x218;" horiz-adv-x="1351"
d="M1110 1247v197q-227 76 -436 76q-245 0 -384.5 -114t-139.5 -312q0 -170 101 -267t327 -141l122 -24q144 -29 216.5 -89.5t72.5 -126.5q0 -73 -99 -136.5t-261 -63.5q-225 0 -473 139v-319q259 -95 473 -95q281 0 426 112t145 329q0 183 -107.5 291t-332.5 151l-121 25
q-164 30 -225.5 81t-61.5 150q0 118 89.5 182t254.5 64q190 0 414 -109zM418 -602h129l225 321v211h-252v-211z" />
    <glyph glyph-name="scommaaccent" unicode="&#x219;" horiz-adv-x="1155"
d="M946 934v153q-154 60 -358 60q-206 0 -318 -86t-112 -244q0 -128 74.5 -193.5t248.5 -101.5l64 -14q175 -41 194 -66q23 -26 58 -88q0 -149 -250 -149q-195 0 -397 106v-270q216 -70 393 -70q216 0 339.5 90.5t123.5 247.5q0 136 -82.5 208t-278.5 114l-63 14
q-146 32 -201 73.5t-55 117.5q0 84 73.5 131t210.5 47q173 0 336 -80zM297 -608h129l225 321v211h-252v-211z" />
    <glyph glyph-name="uni021A" unicode="&#x21a;" horiz-adv-x="1562"
d="M680 1343l-39 -1343h283l-41 1343l530 -20v170h-1263v-170zM549 -586h129l225 322v211h-252v-211z" />
    <glyph glyph-name="uni021B" unicode="&#x21b;" horiz-adv-x="999"
d="M285 1120h-135v-143h135l-11 -608q0 -209 85.5 -289t299.5 -80h191v274h-191q-61 0 -94.5 7.5t-57 31.5t-31 64.5t-7.5 111.5l10 488h260v143h-260l10 279h-194zM270 -567h129l226 321v211h-252v-211z" />
    <glyph glyph-name="uni0228" unicode="&#x228;" horiz-adv-x="1261"
d="M1112 0h-334q109 -124 109 -215q0 -180 -238 -180q-91 0 -176 24v131q63 -32 156 -32q119 0 119 94q0 54 -89 178h-509v1493h944v-170h-742v-442h711v-170h-711v-402h760v-309z" />
    <glyph glyph-name="uni0229" unicode="&#x229;" horiz-adv-x="1327"
d="M1178 606h-836q1 -88 20 -151t49.5 -102t83 -62.5t107.5 -33t135 -13.5q100 0 145 1.5t122.5 17t138.5 48.5l4 -254q-173 -75 -352 -84q86 -109 86 -188q0 -180 -238 -180q-91 0 -176 24v131q63 -32 156 -32q118 0 118 94q0 50 -69 153q-244 25 -383 175.5t-139 398.5
q11 278 155 438t395 160q227 -9 343 -121.5t135 -349.5v-70zM362 766l656 2q-11 66 -50 129t-110.5 108.5t-157.5 45.5q-146 0 -242 -88.5t-96 -196.5z" />
    <glyph glyph-name="uni022A" unicode="&#x22a;" horiz-adv-x="1681"
d="M543 1722h-21v217h219v-120h201v120h217v-217h-18v-51h-598v51zM842 1520q315 0 502.5 -211t187.5 -564t-187.5 -563.5t-502.5 -210.5q-316 0 -504 210t-188 564q0 353 188.5 564t503.5 211zM842 354q116 0 199 18t148 61t97.5 121t32.5 191q0 282 -128.5 446.5
t-348.5 164.5t-350 -164.5t-130 -446.5q0 -113 33 -191t98.5 -121t149 -61t199.5 -18z" />
    <glyph glyph-name="uni022B" unicode="&#x22b;" horiz-adv-x="1327"
d="M365 1350h-21v217h219v-121h201v121h217v-217h-18v-52h-598v52zM664 1147q240 0 377 -156t137 -432q0 -275 -137 -431.5t-377 -156.5q-241 0 -377.5 156.5t-136.5 431.5q0 277 136 432.5t378 155.5zM664 289q81 0 134 11t98 42.5t66 93t21 156.5q0 193 -86 306.5
t-233 113.5q-148 0 -234 -112.5t-86 -307.5q0 -77 15 -132t40 -88t67 -51.5t87.5 -25t110.5 -6.5z" />
    <glyph glyph-name="circumflex" unicode="&#x2c6;" horiz-adv-x="937"
d="M289 1262l180 245l180 -245h139l-245 376h-148l-245 -376h139z" />
    <glyph glyph-name="caron" unicode="&#x2c7;" horiz-adv-x="937"
d="M788 1638h-139l-180 -245l-180 245h-139l245 -376h148z" />
    <glyph glyph-name="breve" unicode="&#x2d8;" horiz-adv-x="925"
d="M268 1608h-118q21 -287 313 -287q145 0 224.5 72.5t88.5 214.5h-119q-24 -150 -194 -150q-174 0 -195 150z" />
    <glyph glyph-name="dotaccent" unicode="&#x2d9;" horiz-adv-x="503"
d="M354 1348v204h-204v-204h204z" />
    <glyph glyph-name="ring" unicode="&#x2da;" horiz-adv-x="847"
d="M698 1524q0 116 -79 195t-195 79t-195 -79t-79 -195t79.5 -195.5t194.5 -79.5t194.5 79.5t79.5 195.5zM575 1524q0 -63 -43.5 -107.5t-107.5 -44.5t-108 44t-44 108t43.5 107.5t108.5 43.5q64 0 107.5 -44t43.5 -107z" />
    <glyph glyph-name="ogonek" unicode="&#x2db;" horiz-adv-x="673"
d="M377 0h-119q-108 -123 -108 -215q0 -94 57 -137t180 -43q50 0 135 20v133q-62 -30 -125 -30q-108 0 -108 92q0 58 88 180z" />
    <glyph glyph-name="tilde" unicode="&#x2dc;" horiz-adv-x="960"
d="M420 1425l55 -55q66 -61 139 -61q91 0 142.5 73.5t54.5 208.5h-127q0 -81 -18 -118t-58 -37q-25 0 -67 39l-58 55q-66 61 -139 61q-91 0 -141 -73.5t-53 -208.5h124q3 80 21 118q18 37 55 37q25 0 70 -39z" />
    <glyph glyph-name="hungarumlaut" unicode="&#x2dd;" horiz-adv-x="1001"
d="M287 1262l223 376h-170l-190 -376h137zM604 1262l248 376h-178l-205 -376h135z" />
    <glyph glyph-name="hookabovecomb" unicode="&#x309;" horiz-adv-x="0"
d="M201 1186v-43q54 26 92 26q32 0 48.5 -8.5t16.5 -19.5q0 -19 -22 -35l-23 -19q-25 -19 -32 -30q-7 -14 -7 -33v-6h58q0 12 4 24q15 15 18 17l23 14q43 34 43 64t-33 53q-33 20 -82 20t-104 -24z" />
    <glyph glyph-name="uni031B" unicode="&#x31b;" horiz-adv-x="0"
d="M135 985l45 -94q15 7 25 12.5t20.5 13t14.5 10.5t18.5 15.5t22.5 18.5q43 38 63.5 102t20.5 131q0 20 -11 66l-98 12q14 -35 14 -62v-12v-15.5t-0.5 -17t-1 -19t-2 -19t-3.5 -20.5t-5 -18.5t-7 -18.5t-9.5 -16t-12.5 -14q-13 -11 -42 -25.5t-52 -29.5z" />
    <glyph glyph-name="dotbelowcomb" unicode="&#x323;" horiz-adv-x="0"
d="M391 0v221h-205v-221h205z" />
    <glyph glyph-name="uni0326" unicode="&#x326;" horiz-adv-x="0"
d="M150 -289h129l225 322v211h-252v-211z" />
    <glyph glyph-name="uni032D" unicode="&#x32d;" horiz-adv-x="0"
d="M123 -451l180 246l180 -246h140l-246 377h-148l-245 -377h139z" />
    <glyph glyph-name="uni0331" unicode="&#x331;" horiz-adv-x="0"
d="M567 -256l8 166l-538 -10l-8 -164z" />
    <glyph glyph-name="pi" unicode="&#x3c0;" horiz-adv-x="1525"
d="M1374 1071h-889q-164 0 -235.5 -62.5t-99.5 -228.5h159q9 77 38.5 110.5t84.5 33.5h41l-274 -924h290l164 924h328l-111 -387q-53 -152 -63 -234q-12 -71 -12 -117q0 -102 87 -187t201 -85q59 0 111 16l31 211q-61 -10 -101 -10q-54 0 -77 25t-23 82q0 20 6 67
q14 76 23 121l104 498h182z" />
    <glyph glyph-name="uni0401" unicode="&#x401;" horiz-adv-x="1261"
d="M498 1673v217h-219v-217h219zM915 1673v217h-217v-217h217zM1112 0v309h-760v402h711v170h-711v442h742v170h-944v-1493h962z" />
    <glyph glyph-name="uni0402" unicode="&#x402;"
 />
    <glyph glyph-name="uni0403" unicode="&#x403;"
d="M319 1321l363 418h-219l-313 -418h169z" />
    <glyph glyph-name="uni0404" unicode="&#x404;"
 />
    <glyph glyph-name="uni0405" unicode="&#x405;" horiz-adv-x="1351"
d="M1110 1247v197q-227 76 -436 76q-245 0 -384.5 -114t-139.5 -312q0 -170 101 -267t327 -141l122 -24q144 -29 216.5 -89.5t72.5 -126.5q0 -73 -99 -136.5t-261 -63.5q-225 0 -473 139v-319q259 -95 473 -95q281 0 426 112t145 329q0 183 -107.5 291t-332.5 151l-121 25
q-164 30 -225.5 81t-61.5 150q0 118 89.5 182t254.5 64q190 0 414 -109z" />
    <glyph glyph-name="uni0406" unicode="&#x406;" horiz-adv-x="542"
d="M150 0h241q-9 174 -15 382t-7.5 355.5t-3.5 391t-3 364.5h-172q-2 -94 -7 -453t-12 -587t-21 -453z" />
    <glyph glyph-name="uni0407" unicode="&#x407;" horiz-adv-x="542"
d="M180 1722v217h-219v-217h219zM598 1722v217h-217v-217h217zM150 0h241q-9 174 -15 382t-7.5 355.5t-3.5 391t-3 364.5h-172q-2 -94 -7 -453t-12 -587t-21 -453z" />
    <glyph glyph-name="uni0408" unicode="&#x408;" horiz-adv-x="925"
d="M563 1495l-53 -1419q-2 -71 -68 -127t-190 -62l-102 23l4 -330l116 -12q240 5 343.5 116t109.5 379l53 1418z" />
    <glyph glyph-name="uni0409" unicode="&#x409;"
 />
    <glyph glyph-name="uni040A" unicode="&#x40a;"
 />
    <glyph glyph-name="uni040B" unicode="&#x40b;"
 />
    <glyph glyph-name="uni040C" unicode="&#x40c;"
d="M319 1321l363 418h-219l-313 -418h169z" />
    <glyph glyph-name="uni040E" unicode="&#x40e;"
d="M268 1608h-118q21 -287 313 -287q145 0 224.5 72.5t88.5 214.5h-119q-24 -150 -194 -150q-174 0 -195 150z" />
    <glyph glyph-name="uni040F" unicode="&#x40f;"
 />
    <glyph glyph-name="uni0410" unicode="&#x410;" horiz-adv-x="1667"
d="M424 0l76 244h671l58 -244h289l-588 1493h-191l-589 -1493h274zM559 481l275 828l276 -828h-551z" />
    <glyph glyph-name="uni0411" unicode="&#x411;"
 />
    <glyph glyph-name="uni0412" unicode="&#x412;" horiz-adv-x="1378"
d="M150 0h536q254 0 398.5 110t144.5 308q0 156 -94.5 255.5t-288.5 131.5q124 20 188 101t64 218q0 177 -126 273t-356 96h-466v-1493zM352 1358h299q144 0 218.5 -69t74.5 -187q0 -225 -293 -225h-299v481zM352 713h324q161 0 242 -66q77 -65 77 -117q0 -134 -74 -183.5
t-245 -49.5h-324v416z" />
    <glyph glyph-name="uni0413" unicode="&#x413;"
 />
    <glyph glyph-name="uni0414" unicode="&#x414;"
 />
    <glyph glyph-name="uni0415" unicode="&#x415;" horiz-adv-x="1261"
d="M1112 0v309h-760v402h711v170h-711v442h742v170h-944v-1493h962z" />
    <glyph glyph-name="uni0416" unicode="&#x416;"
 />
    <glyph glyph-name="uni0417" unicode="&#x417;"
 />
    <glyph glyph-name="uni0418" unicode="&#x418;"
 />
    <glyph glyph-name="uni0419" unicode="&#x419;"
 />
    <glyph glyph-name="uni041A" unicode="&#x41a;"
 />
    <glyph glyph-name="uni041B" unicode="&#x41b;"
 />
    <glyph glyph-name="uni041C" unicode="&#x41c;" horiz-adv-x="1705"
d="M406 0l-39 1311l364 -1073h244l364 1073l-41 -1311h258l-30 1493h-281l-393 -887l-371 887h-301l-30 -1493h256z" />
    <glyph glyph-name="uni041D" unicode="&#x41d;" horiz-adv-x="1458"
d="M383 0v502h692v-502h234l-21 1493h-213v-713h-692v713h-213l-20 -1493h233z" />
    <glyph glyph-name="uni041E" unicode="&#x41e;" horiz-adv-x="1681"
d="M842 1520q-315 0 -503.5 -211t-188.5 -564q0 -354 188 -564t504 -210q315 0 502.5 210.5t187.5 563.5t-187.5 564t-502.5 211zM842 1356q220 0 348.5 -164.5t128.5 -446.5q0 -113 -32.5 -191t-97.5 -121t-148 -61t-199 -18t-199.5 18t-149 61t-98.5 121t-33 191
q0 282 130 446.5t350 164.5z" />
    <glyph glyph-name="uni041F" unicode="&#x41f;"
 />
    <glyph glyph-name="uni0420" unicode="&#x420;" horiz-adv-x="1314"
d="M391 0l21 580h243q249 0 378.5 121.5t129.5 345.5q0 220 -128 333t-380 113h-444l-61 -1493h241zM422 1407h254q151 0 233 -73t82 -208t-82 -207.5t-233 -72.5h-275z" />
    <glyph glyph-name="uni0421" unicode="&#x421;" horiz-adv-x="1503"
d="M1354 1165v213q-210 142 -475 142q-339 0 -534 -207.5t-195 -567.5t195 -567t534 -207q263 0 475 144v352q-203 -191 -463 -191q-265 0 -395 107.5t-134 361.5q0 296 136.5 452.5t392.5 156.5q262 0 463 -189z" />
    <glyph glyph-name="uni0422" unicode="&#x422;" horiz-adv-x="1562"
d="M680 1343l-39 -1343h283l-41 1343l530 -20v170h-1263v-170z" />
    <glyph glyph-name="uni0423" unicode="&#x423;"
 />
    <glyph glyph-name="uni0424" unicode="&#x424;"
 />
    <glyph glyph-name="uni0425" unicode="&#x425;" horiz-adv-x="1579"
d="M150 0h327l314 535l311 -535h325l-491 696l461 797h-217l-373 -635l-373 635h-217l447 -797z" />
    <glyph glyph-name="uni0426" unicode="&#x426;"
 />
    <glyph glyph-name="uni0427" unicode="&#x427;"
 />
    <glyph glyph-name="uni0428" unicode="&#x428;"
 />
    <glyph glyph-name="uni0429" unicode="&#x429;"
 />
    <glyph glyph-name="uni042A" unicode="&#x42a;"
 />
    <glyph glyph-name="uni042B" unicode="&#x42b;"
 />
    <glyph glyph-name="uni042C" unicode="&#x42c;"
 />
    <glyph glyph-name="uni042D" unicode="&#x42d;"
 />
    <glyph glyph-name="uni042E" unicode="&#x42e;"
 />
    <glyph glyph-name="uni042F" unicode="&#x42f;"
 />
    <glyph glyph-name="uni0430" unicode="&#x430;" horiz-adv-x="1245"
d="M1096 0v639q0 257 -120 382.5t-364 125.5q-175 0 -381 -78v-149q170 92 363 92q159 -10 238 -83.5t79 -203.5v-18h-258q-503 0 -503 -381q0 -161 102 -258t272 -97q258 0 387 189v-160h185zM809 571v-41q0 -90 -13 -144.5t-46.5 -84.5t-78 -39.5t-118.5 -9.5q-46 0 -76 2
t-63 9t-53.5 20t-36 36.5t-21.5 57.5q1 71 30 112t103 61.5t207 20.5h166z" />
    <glyph glyph-name="uni0431" unicode="&#x431;"
 />
    <glyph glyph-name="uni0432" unicode="&#x432;"
 />
    <glyph glyph-name="uni0433" unicode="&#x433;"
 />
    <glyph glyph-name="uni0434" unicode="&#x434;"
 />
    <glyph glyph-name="uni0435" unicode="&#x435;" horiz-adv-x="1327"
d="M1178 606v70q-19 237 -135 349.5t-343 121.5q-251 0 -395 -160t-155 -438q0 -263 156 -416t425 -162q215 0 416 86l-4 254q-61 -33 -138.5 -48.5t-122.5 -17t-145 -1.5q-80 4 -135 13.5t-107.5 33t-83 62.5t-49.5 102t-20 151h836zM1018 768l-656 -2q0 108 96 196.5
t242 88.5q86 0 157.5 -45.5t110.5 -108.5t50 -129z" />
    <glyph glyph-name="uni0436" unicode="&#x436;"
 />
    <glyph glyph-name="uni0437" unicode="&#x437;"
 />
    <glyph glyph-name="uni0438" unicode="&#x438;"
 />
    <glyph glyph-name="uni0439" unicode="&#x439;"
d="M268 1608h-118q21 -287 313 -287q145 0 224.5 72.5t88.5 214.5h-119q-24 -150 -194 -150q-174 0 -195 150z" />
    <glyph glyph-name="uni043A" unicode="&#x43a;"
 />
    <glyph glyph-name="uni043B" unicode="&#x43b;"
 />
    <glyph glyph-name="uni043C" unicode="&#x43c;"
 />
    <glyph glyph-name="uni043D" unicode="&#x43d;"
 />
    <glyph glyph-name="uni043E" unicode="&#x43e;" horiz-adv-x="1327"
d="M664 1147q-242 0 -378 -155.5t-136 -432.5q0 -275 136.5 -431.5t377.5 -156.5q240 0 377 156.5t137 431.5q0 276 -137 432t-377 156zM664 1012q147 0 233 -113.5t86 -306.5q0 -95 -21 -156.5t-66 -93t-98 -42.5t-134 -11q-65 0 -110.5 6.5t-87.5 25t-67 51.5t-40 88
t-15 132q0 195 86 307.5t234 112.5z" />
    <glyph glyph-name="uni043F" unicode="&#x43f;"
 />
    <glyph glyph-name="uni0440" unicode="&#x440;" horiz-adv-x="1359"
d="M385 -426l8 594q113 -197 359 -197q204 0 331 162t127 426t-127 426t-331 162q-246 0 -359 -197l31 154h-184v-844l-90 -686h235zM1092 592q0 -80 -13.5 -137t-37 -92.5t-63 -55t-83.5 -26.5t-107 -7t-108.5 7t-88 27t-68.5 54.5t-41 92t-15 137.5q0 203 82.5 317.5
t228.5 114.5q148 0 231 -114.5t83 -317.5z" />
    <glyph glyph-name="uni0441" unicode="&#x441;" horiz-adv-x="1185"
d="M1036 915v162q-149 70 -323 70q-261 0 -412 -157.5t-151 -430.5q0 -270 149 -429t401 -159q180 0 336 72l-4 289q-30 -16 -61 -26t-68 -13.5t-59.5 -4.5t-69 0t-61.5 1q-183 9 -264.5 68.5t-94.5 201.5q0 207 95 324.5t272 117.5q158 0 315 -86z" />
    <glyph glyph-name="uni0442" unicode="&#x442;"
 />
    <glyph glyph-name="uni0443" unicode="&#x443;" horiz-adv-x="1390"
d="M1044 1120l-303 -651l-397 651h-194l479 -1028l-78 -158q-34 -41 -50 -59t-43 -40t-54.5 -30t-63.5 -8h-129v-243h168q66 0 112.5 12.5t94 48.5t90.5 104t92 177l471 1224h-195z" />
    <glyph glyph-name="uni0444" unicode="&#x444;"
 />
    <glyph glyph-name="uni0445" unicode="&#x445;" horiz-adv-x="1425"
d="M711 662l-308 458h-196l389 -583l-446 -537h296l277 389l256 -389h297l-436 524l395 596h-186z" />
    <glyph glyph-name="uni0446" unicode="&#x446;"
 />
    <glyph glyph-name="uni0447" unicode="&#x447;"
 />
    <glyph glyph-name="uni0448" unicode="&#x448;"
 />
    <glyph glyph-name="uni0449" unicode="&#x449;"
 />
    <glyph glyph-name="uni044A" unicode="&#x44a;"
 />
    <glyph glyph-name="uni044B" unicode="&#x44b;"
 />
    <glyph glyph-name="uni044C" unicode="&#x44c;"
 />
    <glyph glyph-name="uni044D" unicode="&#x44d;"
 />
    <glyph glyph-name="uni044E" unicode="&#x44e;"
 />
    <glyph glyph-name="uni044F" unicode="&#x44f;"
 />
    <glyph glyph-name="uni0451" unicode="&#x451;" horiz-adv-x="1327"
d="M573 1350v217h-219v-217h219zM991 1350v217h-217v-217h217zM1178 606v70q-19 237 -135 349.5t-343 121.5q-251 0 -395 -160t-155 -438q0 -263 156 -416t425 -162q215 0 416 86l-4 254q-61 -33 -138.5 -48.5t-122.5 -17t-145 -1.5q-80 4 -135 13.5t-107.5 33t-83 62.5
t-49.5 102t-20 151h836zM1018 768l-656 -2q0 108 96 196.5t242 88.5q86 0 157.5 -45.5t110.5 -108.5t50 -129z" />
    <glyph glyph-name="uni0452" unicode="&#x452;"
 />
    <glyph glyph-name="uni0453" unicode="&#x453;"
d="M319 1321l363 418h-219l-313 -418h169z" />
    <glyph glyph-name="uni0454" unicode="&#x454;"
 />
    <glyph glyph-name="uni0455" unicode="&#x455;" horiz-adv-x="1155"
d="M946 934v153q-154 60 -358 60q-206 0 -318 -86t-112 -244q0 -128 74.5 -193.5t248.5 -101.5l64 -14q175 -41 194 -66q23 -26 58 -88q0 -149 -250 -149q-195 0 -397 106v-270q216 -70 393 -70q216 0 339.5 90.5t123.5 247.5q0 136 -82.5 208t-278.5 114l-63 14
q-146 32 -201 73.5t-55 117.5q0 84 73.5 131t210.5 47q173 0 336 -80z" />
    <glyph glyph-name="uni0456" unicode="&#x456;" horiz-adv-x="534"
d="M354 1323l-10 233h-164l-10 -233h184zM150 0h235q-60 574 -41 1120h-164q4 -631 -30 -1120z" />
    <glyph glyph-name="uni0457" unicode="&#x457;" horiz-adv-x="534"
d="M139 1350v217h-219v-217h219zM557 1350v217h-217v-217h217zM150 0h235q-60 574 -41 1120h-164q4 -631 -30 -1120z" />
    <glyph glyph-name="uni0458" unicode="&#x458;" horiz-adv-x="733"
d="M584 1323l-11 233h-163l-11 -233h185zM367 1114l-48 -1020q-4 -72 -11 -117.5t-18.5 -76.5t-34 -46.5t-49.5 -23t-73 -10.5h-78l-6 -277l101 -2q180 7 263.5 111t88.5 319l39 1141z" />
    <glyph glyph-name="uni0459" unicode="&#x459;"
 />
    <glyph glyph-name="uni045A" unicode="&#x45a;"
 />
    <glyph glyph-name="uni045B" unicode="&#x45b;"
 />
    <glyph glyph-name="uni045C" unicode="&#x45c;"
d="M319 1321l363 418h-219l-313 -418h169z" />
    <glyph glyph-name="uni045E" unicode="&#x45e;" horiz-adv-x="1390"
d="M412 1552h-119q21 -286 313 -286q145 0 225 72t89 214h-119q-24 -149 -195 -149q-173 0 -194 149zM1044 1120l-303 -651l-397 651h-194l479 -1028l-78 -158q-34 -41 -50 -59t-43 -40t-54.5 -30t-63.5 -8h-129v-243h168q66 0 112.5 12.5t94 48.5t90.5 104t92 177l471 1224
h-195z" />
    <glyph glyph-name="uni045F" unicode="&#x45f;"
 />
    <glyph glyph-name="uni0462" unicode="&#x462;"
 />
    <glyph glyph-name="uni0463" unicode="&#x463;"
 />
    <glyph glyph-name="uni0472" unicode="&#x472;"
 />
    <glyph glyph-name="uni0473" unicode="&#x473;"
 />
    <glyph glyph-name="uni0474" unicode="&#x474;"
 />
    <glyph glyph-name="uni0475" unicode="&#x475;"
 />
    <glyph glyph-name="uni0490" unicode="&#x490;"
 />
    <glyph glyph-name="uni0491" unicode="&#x491;"
 />
    <glyph glyph-name="uni0492" unicode="&#x492;"
 />
    <glyph glyph-name="uni0493" unicode="&#x493;"
 />
    <glyph glyph-name="uni0494" unicode="&#x494;"
 />
    <glyph glyph-name="uni0495" unicode="&#x495;"
 />
    <glyph glyph-name="uni0496" unicode="&#x496;"
 />
    <glyph glyph-name="uni0497" unicode="&#x497;"
 />
    <glyph glyph-name="uni0498" unicode="&#x498;"
d="M455 0h-119q88 -122 88 -178q0 -94 -119 -94q-92 0 -155 32v-131q86 -24 176 -24q237 0 237 180q0 92 -108 215z" />
    <glyph glyph-name="uni0499" unicode="&#x499;"
d="M455 0h-119q88 -122 88 -178q0 -94 -119 -94q-92 0 -155 32v-131q86 -24 176 -24q237 0 237 180q0 92 -108 215z" />
    <glyph glyph-name="uni049A" unicode="&#x49a;"
 />
    <glyph glyph-name="uni049B" unicode="&#x49b;"
 />
    <glyph glyph-name="uni049C" unicode="&#x49c;"
 />
    <glyph glyph-name="uni049D" unicode="&#x49d;"
 />
    <glyph glyph-name="uni049E" unicode="&#x49e;"
 />
    <glyph glyph-name="uni049F" unicode="&#x49f;"
 />
    <glyph glyph-name="uni04A0" unicode="&#x4a0;"
 />
    <glyph glyph-name="uni04A1" unicode="&#x4a1;"
 />
    <glyph glyph-name="uni04A2" unicode="&#x4a2;"
 />
    <glyph glyph-name="uni04A3" unicode="&#x4a3;"
 />
    <glyph glyph-name="uni04A4" unicode="&#x4a4;"
 />
    <glyph glyph-name="uni04A5" unicode="&#x4a5;"
 />
    <glyph glyph-name="uni04A6" unicode="&#x4a6;"
 />
    <glyph glyph-name="uni04A7" unicode="&#x4a7;"
 />
    <glyph glyph-name="uni04A8" unicode="&#x4a8;"
 />
    <glyph glyph-name="uni04A9" unicode="&#x4a9;"
 />
    <glyph glyph-name="uni04AA" unicode="&#x4aa;"
 />
    <glyph glyph-name="uni04AB" unicode="&#x4ab;"
 />
    <glyph glyph-name="uni04AC" unicode="&#x4ac;"
 />
    <glyph glyph-name="uni04AD" unicode="&#x4ad;"
 />
    <glyph glyph-name="uni04AE" unicode="&#x4ae;"
 />
    <glyph glyph-name="uni04AF" unicode="&#x4af;"
 />
    <glyph glyph-name="uni04B0" unicode="&#x4b0;"
 />
    <glyph glyph-name="uni04B1" unicode="&#x4b1;"
 />
    <glyph glyph-name="uni04B2" unicode="&#x4b2;"
 />
    <glyph glyph-name="uni04B3" unicode="&#x4b3;"
 />
    <glyph glyph-name="uni04B4" unicode="&#x4b4;"
 />
    <glyph glyph-name="uni04B5" unicode="&#x4b5;"
 />
    <glyph glyph-name="uni04B6" unicode="&#x4b6;"
 />
    <glyph glyph-name="uni04B7" unicode="&#x4b7;"
 />
    <glyph glyph-name="uni04B8" unicode="&#x4b8;"
 />
    <glyph glyph-name="uni04B9" unicode="&#x4b9;"
 />
    <glyph glyph-name="uni04BA" unicode="&#x4ba;"
 />
    <glyph glyph-name="uni04BB" unicode="&#x4bb;"
 />
    <glyph glyph-name="uni04BC" unicode="&#x4bc;"
 />
    <glyph glyph-name="uni04BD" unicode="&#x4bd;"
 />
    <glyph glyph-name="uni04BE" unicode="&#x4be;"
 />
    <glyph glyph-name="uni04BF" unicode="&#x4bf;"
 />
    <glyph glyph-name="uni04C0" unicode="&#x4c0;" horiz-adv-x="542"
d="M150 0h241q-9 174 -15 382t-7.5 355.5t-3.5 391t-3 364.5h-172q-2 -94 -7 -453t-12 -587t-21 -453z" />
    <glyph glyph-name="uni04C1" unicode="&#x4c1;"
 />
    <glyph glyph-name="uni04C2" unicode="&#x4c2;"
 />
    <glyph glyph-name="uni04C3" unicode="&#x4c3;"
 />
    <glyph glyph-name="uni04C4" unicode="&#x4c4;"
 />
    <glyph glyph-name="uni04C5" unicode="&#x4c5;"
 />
    <glyph glyph-name="uni04C6" unicode="&#x4c6;"
 />
    <glyph glyph-name="uni04C7" unicode="&#x4c7;"
 />
    <glyph glyph-name="uni04C8" unicode="&#x4c8;"
 />
    <glyph glyph-name="uni04C9" unicode="&#x4c9;"
 />
    <glyph glyph-name="uni04CA" unicode="&#x4ca;"
 />
    <glyph glyph-name="uni04CB" unicode="&#x4cb;"
 />
    <glyph glyph-name="uni04CC" unicode="&#x4cc;"
 />
    <glyph glyph-name="uni04CD" unicode="&#x4cd;"
 />
    <glyph glyph-name="uni04CE" unicode="&#x4ce;"
 />
    <glyph glyph-name="uni04CF" unicode="&#x4cf;"
 />
    <glyph glyph-name="uni04D0" unicode="&#x4d0;"
 />
    <glyph glyph-name="uni04D1" unicode="&#x4d1;"
 />
    <glyph glyph-name="uni04D2" unicode="&#x4d2;" horiz-adv-x="1667"
d="M745 1624v217h-219v-217h219zM1163 1624v217h-217v-217h217zM424 0l76 244h671l58 -244h289l-588 1493h-191l-589 -1493h274zM559 481l275 828l276 -828h-551z" />
    <glyph glyph-name="uni04D3" unicode="&#x4d3;" horiz-adv-x="1245"
d="M551 1350v217h-219v-217h219zM969 1350v217h-217v-217h217zM1096 0v639q0 257 -120 382.5t-364 125.5q-175 0 -381 -78v-149q170 92 363 92q159 -10 238 -83.5t79 -203.5v-18h-258q-503 0 -503 -381q0 -161 102 -258t272 -97q258 0 387 189v-160h185zM809 571v-41
q0 -90 -13 -144.5t-46.5 -84.5t-78 -39.5t-118.5 -9.5q-46 0 -76 2t-63 9t-53.5 20t-36 36.5t-21.5 57.5q1 71 30 112t103 61.5t207 20.5h166z" />
    <glyph glyph-name="uni04D4" unicode="&#x4d4;" horiz-adv-x="2172"
d="M102 0h375l-8 262h526v-262h965v260h-762v281h713v170h-713v612h741v170h-1212zM995 430h-458l329 905h129v-905z" />
    <glyph glyph-name="uni04D5" unicode="&#x4d5;" horiz-adv-x="2217"
d="M1096 963q-54 88 -161 136t-249 48q-175 0 -381 -78v-131q170 92 363 92q71 0 133.5 -25.5t101 -64t60.5 -80t22 -76.5v-16h-258q-259 0 -381.5 -100t-122.5 -342q0 -167 105.5 -261t294.5 -94q288 0 432 240q153 -240 491 -240q66 0 146.5 20t128.5 38.5t141 56.5v264
q-198 -104 -406 -104q-175 0 -280.5 95t-118.5 234h848v91q0 95 -35 182t-97.5 153.5t-156 106t-203.5 39.5q-268 0 -417 -184zM1819 721l-656 -2q16 127 113 226t240 99q87 0 158.5 -51.5t108 -124.5t36.5 -147zM985 623v-33q0 -186 -89 -275.5t-249 -89.5
q-110 0 -174.5 46t-64.5 124q0 59 13.5 98.5t39.5 65.5t75.5 40t110.5 19t156 5h182z" />
    <glyph glyph-name="uni04D6" unicode="&#x4d6;" horiz-adv-x="1261"
d="M1112 0v309h-760v402h711v170h-711v442h742v170h-944v-1493h962z" />
    <glyph glyph-name="uni04D7" unicode="&#x4d7;" horiz-adv-x="1327"
d="M1178 606v70q-19 237 -135 349.5t-343 121.5q-251 0 -395 -160t-155 -438q0 -263 156 -416t425 -162q215 0 416 86l-4 254q-61 -33 -138.5 -48.5t-122.5 -17t-145 -1.5q-80 4 -135 13.5t-107.5 33t-83 62.5t-49.5 102t-20 151h836zM1018 768l-656 -2q0 108 96 196.5
t242 88.5q86 0 157.5 -45.5t110.5 -108.5t50 -129z" />
    <glyph glyph-name="uni04D8" unicode="&#x4d8;"
 />
    <glyph glyph-name="uni04D9" unicode="&#x4d9;"
 />
    <glyph glyph-name="uni04DA" unicode="&#x4da;"
d="M369 1350v217h-219v-217h219zM786 1350v217h-217v-217h217z" />
    <glyph glyph-name="uni04DB" unicode="&#x4db;"
d="M369 1350v217h-219v-217h219zM786 1350v217h-217v-217h217z" />
    <glyph glyph-name="uni04DC" unicode="&#x4dc;"
d="M369 1350v217h-219v-217h219zM786 1350v217h-217v-217h217z" />
    <glyph glyph-name="uni04DD" unicode="&#x4dd;"
d="M369 1350v217h-219v-217h219zM786 1350v217h-217v-217h217z" />
    <glyph glyph-name="uni04DE" unicode="&#x4de;"
d="M369 1350v217h-219v-217h219zM786 1350v217h-217v-217h217z" />
    <glyph glyph-name="uni04DF" unicode="&#x4df;"
d="M369 1350v217h-219v-217h219zM786 1350v217h-217v-217h217z" />
    <glyph glyph-name="uni04E0" unicode="&#x4e0;"
 />
    <glyph glyph-name="uni04E1" unicode="&#x4e1;"
 />
    <glyph glyph-name="uni04E2" unicode="&#x4e2;"
d="M748 1378v148h-598v-148h598z" />
    <glyph glyph-name="uni04E3" unicode="&#x4e3;"
d="M748 1378v148h-598v-148h598z" />
    <glyph glyph-name="uni04E4" unicode="&#x4e4;"
d="M369 1350v217h-219v-217h219zM786 1350v217h-217v-217h217z" />
    <glyph glyph-name="uni04E5" unicode="&#x4e5;"
d="M369 1350v217h-219v-217h219zM786 1350v217h-217v-217h217z" />
    <glyph glyph-name="uni04E6" unicode="&#x4e6;" horiz-adv-x="1681"
d="M741 1722v217h-219v-217h219zM1159 1722v217h-217v-217h217zM842 1520q-315 0 -503.5 -211t-188.5 -564q0 -354 188 -564t504 -210q315 0 502.5 210.5t187.5 563.5t-187.5 564t-502.5 211zM842 1356q220 0 348.5 -164.5t128.5 -446.5q0 -113 -32.5 -191t-97.5 -121
t-148 -61t-199 -18t-199.5 18t-149 61t-98.5 121t-33 191q0 282 130 446.5t350 164.5z" />
    <glyph glyph-name="uni04E7" unicode="&#x4e7;" horiz-adv-x="1327"
d="M563 1350v217h-219v-217h219zM981 1350v217h-217v-217h217zM664 1147q-242 0 -378 -155.5t-136 -432.5q0 -275 136.5 -431.5t377.5 -156.5q240 0 377 156.5t137 431.5q0 276 -137 432t-377 156zM664 1012q147 0 233 -113.5t86 -306.5q0 -95 -21 -156.5t-66 -93t-98 -42.5
t-134 -11q-65 0 -110.5 6.5t-87.5 25t-67 51.5t-40 88t-15 132q0 195 86 307.5t234 112.5z" />
    <glyph glyph-name="uni04E8" unicode="&#x4e8;"
 />
    <glyph glyph-name="uni04E9" unicode="&#x4e9;"
 />
    <glyph glyph-name="uni04EA" unicode="&#x4ea;"
d="M369 1350v217h-219v-217h219zM786 1350v217h-217v-217h217z" />
    <glyph glyph-name="uni04EB" unicode="&#x4eb;"
d="M369 1350v217h-219v-217h219zM786 1350v217h-217v-217h217z" />
    <glyph glyph-name="uni04EC" unicode="&#x4ec;"
d="M369 1350v217h-219v-217h219zM786 1350v217h-217v-217h217z" />
    <glyph glyph-name="uni04ED" unicode="&#x4ed;"
d="M369 1350v217h-219v-217h219zM786 1350v217h-217v-217h217z" />
    <glyph glyph-name="uni04EE" unicode="&#x4ee;"
d="M748 1378v148h-598v-148h598z" />
    <glyph glyph-name="uni04EF" unicode="&#x4ef;" horiz-adv-x="1390"
d="M905 1298v148h-598v-148h598zM1044 1120l-303 -651l-397 651h-194l479 -1028l-78 -158q-34 -41 -50 -59t-43 -40t-54.5 -30t-63.5 -8h-129v-243h168q66 0 112.5 12.5t94 48.5t90.5 104t92 177l471 1224h-195z" />
    <glyph glyph-name="uni04F0" unicode="&#x4f0;"
d="M369 1350v217h-219v-217h219zM786 1350v217h-217v-217h217z" />
    <glyph glyph-name="uni04F1" unicode="&#x4f1;" horiz-adv-x="1390"
d="M506 1350v217h-219v-217h219zM924 1350v217h-217v-217h217zM1044 1120l-303 -651l-397 651h-194l479 -1028l-78 -158q-34 -41 -50 -59t-43 -40t-54.5 -30t-63.5 -8h-129v-243h168q66 0 112.5 12.5t94 48.5t90.5 104t92 177l471 1224h-195z" />
    <glyph glyph-name="uni04F2" unicode="&#x4f2;"
d="M287 1262l223 376h-170l-190 -376h137zM604 1262l248 376h-178l-205 -376h135z" />
    <glyph glyph-name="uni04F3" unicode="&#x4f3;" horiz-adv-x="1390"
d="M391 1262l223 376h-170l-190 -376h137zM709 1262l247 376h-178l-205 -376h136zM1044 1120l-303 -651l-397 651h-194l479 -1028l-78 -158q-34 -41 -50 -59t-43 -40t-54.5 -30t-63.5 -8h-129v-243h168q66 0 112.5 12.5t94 48.5t90.5 104t92 177l471 1224h-195z" />
    <glyph glyph-name="uni04F4" unicode="&#x4f4;"
d="M369 1350v217h-219v-217h219zM786 1350v217h-217v-217h217z" />
    <glyph glyph-name="uni04F5" unicode="&#x4f5;"
d="M369 1350v217h-219v-217h219zM786 1350v217h-217v-217h217z" />
    <glyph glyph-name="uni04F6" unicode="&#x4f6;"
 />
    <glyph glyph-name="uni04F7" unicode="&#x4f7;"
 />
    <glyph glyph-name="uni04F8" unicode="&#x4f8;"
d="M369 1350v217h-219v-217h219zM786 1350v217h-217v-217h217z" />
    <glyph glyph-name="uni04F9" unicode="&#x4f9;"
d="M369 1350v217h-219v-217h219zM786 1350v217h-217v-217h217z" />
    <glyph glyph-name="uni04FC" unicode="&#x4fc;"
 />
    <glyph glyph-name="uni04FD" unicode="&#x4fd;"
 />
    <glyph glyph-name="uni0510" unicode="&#x510;"
 />
    <glyph glyph-name="uni0511" unicode="&#x511;"
 />
    <glyph glyph-name="uni0512" unicode="&#x512;"
 />
    <glyph glyph-name="uni0513" unicode="&#x513;"
 />
    <glyph glyph-name="uni051C" unicode="&#x51c;"
 />
    <glyph glyph-name="uni051D" unicode="&#x51d;"
 />
    <glyph glyph-name="uni0524" unicode="&#x524;"
 />
    <glyph glyph-name="uni0525" unicode="&#x525;"
 />
    <glyph glyph-name="uni0526" unicode="&#x526;"
 />
    <glyph glyph-name="uni0527" unicode="&#x527;"
 />
    <glyph glyph-name="Bdotbelow" unicode="&#x1e04;" horiz-adv-x="1378"
d="M150 0h536q254 0 398.5 110t144.5 308q0 156 -94.5 255.5t-288.5 131.5q124 20 188 101t64 218q0 177 -126 273t-356 96h-466v-1493zM352 1358h299q144 0 218.5 -69t74.5 -187q0 -225 -293 -225h-299v481zM352 713h324q161 0 242 -66q77 -65 77 -117q0 -134 -74 -183.5
t-245 -49.5h-324v416zM711 -299v221h-205v-221h205z" />
    <glyph glyph-name="bdotbelow" unicode="&#x1e05;" horiz-adv-x="1302"
d="M258 203q-18 39 -30.5 217.5t-28.5 546t-29 589.5h184l-18 -585q55 96 141 136t215 40q205 0 333 -162.5t128 -425.5t-128 -425.5t-333 -162.5q-108 0 -183.5 15t-124 46.5t-77 71.5t-49.5 99zM1034 600q-6 200 -80.5 308t-218.5 108q-147 0 -229 -111t-82 -313
q6 -47 10 -73t12.5 -59.5t18 -51.5t25.5 -39.5t37 -32t51 -20.5t68.5 -13.5t88.5 -3.5q66 5 112.5 20t86 48t64.5 90.5t36 142.5zM575 -299h205v221h-205v-221z" />
    <glyph glyph-name="Ddotbelow" unicode="&#x1e0c;" horiz-adv-x="1554"
d="M150 0h415q432 0 636 181.5t204 566.5q0 384 -203 564.5t-637 180.5h-415v-1493zM362 1327h244q306 0 449 -138t143 -421q-12 -116 -47 -190t-107 -119.5t-175.5 -63.5t-262.5 -18h-244v950zM791 -299v221h-205v-221h205z" />
    <glyph glyph-name="ddotbelow" unicode="&#x1e0d;" horiz-adv-x="1320"
d="M987 1556l-20 -606q-113 197 -359 197q-203 0 -330.5 -162.5t-127.5 -425.5t127.5 -425.5t330.5 -162.5q246 0 359 197v-168h184l20 1556h-184zM283 580q0 203 83 318.5t230 115.5q280 0 289 -420q-2 -92 -20 -149.5t-57.5 -88t-89 -41t-128.5 -10.5q-145 0 -214 63.5
t-93 211.5zM700 -299v221h-204v-221h204z" />
    <glyph glyph-name="Dlinebelow" unicode="&#x1e0e;" horiz-adv-x="1554"
d="M150 0h415q432 0 636 181.5t204 566.5q0 384 -203 564.5t-637 180.5h-415v-1493zM362 1327h244q306 0 449 -138t143 -421q-12 -116 -47 -190t-107 -119.5t-175.5 -63.5t-262.5 -18h-244v950zM850 -248l8 166l-539 -10l-8 -164z" />
    <glyph glyph-name="dlinebelow" unicode="&#x1e0f;" horiz-adv-x="1320"
d="M987 1556l-20 -606q-113 197 -359 197q-203 0 -330.5 -162.5t-127.5 -425.5t127.5 -425.5t330.5 -162.5q246 0 359 197v-168h184l20 1556h-184zM283 580q0 203 83 318.5t230 115.5q280 0 289 -420q-2 -92 -20 -149.5t-57.5 -88t-89 -41t-128.5 -10.5q-145 0 -214 63.5
t-93 211.5zM920 -256l8 166l-539 -10l-8 -164z" />
    <glyph glyph-name="Dcircumflexbelow" unicode="&#x1e12;" horiz-adv-x="1554"
d="M150 0h415q432 0 636 181.5t204 566.5q0 384 -203 564.5t-637 180.5h-415v-1493zM362 1327h244q306 0 449 -138t143 -421q-12 -116 -47 -190t-107 -119.5t-175.5 -63.5t-262.5 -18h-244v950zM461 -451l180 246l180 -246h140l-246 377h-148l-245 -377h139z" />
    <glyph glyph-name="dcircumflexbelow" unicode="&#x1e13;" horiz-adv-x="1320"
d="M987 1556l-20 -606q-113 197 -359 197q-203 0 -330.5 -162.5t-127.5 -425.5t127.5 -425.5t330.5 -162.5q246 0 359 197v-168h184l20 1556h-184zM283 580q0 203 83 318.5t230 115.5q280 0 289 -420q-2 -92 -20 -149.5t-57.5 -88t-89 -41t-128.5 -10.5q-145 0 -214 63.5
t-93 211.5zM449 -451l180 246l180 -246h139l-246 377h-147l-246 -377h140z" />
    <glyph glyph-name="Hdotbelow" unicode="&#x1e24;" horiz-adv-x="1458"
d="M383 0v502h692v-502h234l-21 1493h-213v-713h-692v713h-213l-20 -1493h233zM805 -299v221h-205v-221h205z" />
    <glyph glyph-name="hdotbelow" unicode="&#x1e25;" horiz-adv-x="1277"
d="M1128 0l-20 676q0 232 -99 351.5t-292 119.5q-232 0 -363 -201l21 610h-185l-40 -1556h225l-21 633q0 167 87.5 271t234.5 104q131 0 194 -77t54 -261l-29 -670h233zM748 -299v221h-205v-221h205z" />
    <glyph glyph-name="Idieresisacute" unicode="&#x1e2e;" horiz-adv-x="542"
d="M369 2003l362 418h-219l-313 -418h170zM180 1722v217h-219v-217h219zM598 1722v217h-217v-217h217zM150 0h241q-9 174 -15 382t-7.5 355.5t-3.5 391t-3 364.5h-172q-2 -94 -7 -453t-12 -587t-21 -453z" />
    <glyph glyph-name="idieresisacute" unicode="&#x1e2f;" horiz-adv-x="534"
d="M328 1630l362 418h-219l-313 -418h170zM139 1350v217h-219v-217h219zM557 1350v217h-217v-217h217zM150 0h235q-60 574 -41 1120h-164q4 -631 -30 -1120z" />
    <glyph glyph-name="Ldotbelow" unicode="&#x1e36;" horiz-adv-x="1239"
d="M1069 0l21 309h-728l11 1184h-203l-20 -1493h919zM690 -299v221h-205v-221h205z" />
    <glyph glyph-name="ldotbelow" unicode="&#x1e37;" horiz-adv-x="700"
d="M551 0v227h-217q6 612 41 1239h-174q-39 -703 -51 -1466h401zM391 -299v221h-205v-221h205z" />
    <glyph glyph-name="Lcircumflexbelow" unicode="&#x1e3c;" horiz-adv-x="1239"
d="M1069 0l21 309h-728l11 1184h-203l-20 -1493h919zM449 -451l180 246l180 -246h139l-246 377h-147l-246 -377h140z" />
    <glyph glyph-name="lcircumflexbelow" unicode="&#x1e3d;" horiz-adv-x="700"
d="M551 0v227h-217q6 612 41 1239h-174q-39 -703 -51 -1466h401zM123 -451l180 246l180 -246h140l-246 377h-148l-245 -377h139z" />
    <glyph glyph-name="Macute" unicode="&#x1e3e;" horiz-adv-x="1705"
d="M932 1507l362 418h-219l-313 -418h170zM406 0l-39 1311l364 -1073h244l364 1073l-41 -1311h258l-30 1493h-281l-393 -887l-371 887h-301l-30 -1493h256z" />
    <glyph glyph-name="macute" unicode="&#x1e3f;" horiz-adv-x="1984"
d="M319 1321l363 418h-219l-313 -418h169zM1079 905q-41 117 -135 179.5t-219 62.5q-121 0 -209 -49t-151 -152l20 174h-184l-51 -1120h256l-21 633q0 166 89 279.5t228 113.5q119 0 176.5 -77t57.5 -238l-90 -711h254l30 633q8 173 84.5 279t215.5 106q113 0 156.5 -75
t43.5 -243l-69 -700h274l-20 676q0 226 -95 348.5t-270 122.5q-127 0 -214 -58t-157 -184z" />
    <glyph glyph-name="Ndotaccent" unicode="&#x1e44;" horiz-adv-x="1449"
d="M840 1720v205h-205v-205h205zM406 0l-60 1249l662 -1249h292v1493h-186l-31 -1208l-641 1177h-252l-40 -1462h256z" />
    <glyph glyph-name="ndotaccent" unicode="&#x1e45;" horiz-adv-x="1308"
d="M737 1348v204h-205v-204h205zM1157 0l-29 676q-21 471 -401 471q-104 0 -190 -42t-172 -110v135h-185l-30 -1130h256l-31 643q0 168 83.5 261t248.5 93q121 0 174 -77t53 -240l-39 -680h262z" />
    <glyph glyph-name="Ndotbelow" unicode="&#x1e46;" horiz-adv-x="1449"
d="M406 0l-60 1249l662 -1249h292v1493h-186l-31 -1208l-641 1177h-252l-40 -1462h256zM791 -299v221h-205v-221h205z" />
    <glyph glyph-name="ndotbelow" unicode="&#x1e47;" horiz-adv-x="1308"
d="M1157 0l-29 676q-21 471 -401 471q-104 0 -190 -42t-172 -110v135h-185l-30 -1130h256l-31 643q0 168 83.5 261t248.5 93q121 0 174 -77t53 -240l-39 -680h262zM723 -299v221h-205v-221h205z" />
    <glyph glyph-name="Ncircumflexbelow" unicode="&#x1e4a;" horiz-adv-x="1449"
d="M406 0l-60 1249l662 -1249h292v1493h-186l-31 -1208l-641 1177h-252l-40 -1462h256zM580 -451l180 246l180 -246h139l-245 377h-148l-246 -377h140z" />
    <glyph glyph-name="ncircumflexbelow" unicode="&#x1e4b;" horiz-adv-x="1308"
d="M1157 0l-29 676q-21 471 -401 471q-104 0 -190 -42t-172 -110v135h-185l-30 -1130h256l-31 643q0 168 83.5 261t248.5 93q121 0 174 -77t53 -240l-39 -680h262zM123 -451l180 246l180 -246h140l-246 377h-148l-245 -377h139z" />
    <glyph glyph-name="Otildeacute" unicode="&#x1e4c;" horiz-adv-x="1681"
d="M928 2003l362 418h-219l-313 -418h170zM780 1772l56 -56q66 -61 139 -61q91 0 142 73.5t54 208.5h-127q0 -81 -18 -118t-57 -37q-26 0 -68 39l-57 55q-66 61 -139 61q-91 0 -141.5 -73.5t-53.5 -208.5h125q3 84 20 119q17 36 56 36q25 0 69 -38zM842 1520
q-315 0 -503.5 -211t-188.5 -564q0 -354 188 -564t504 -210q315 0 502.5 210.5t187.5 563.5t-187.5 564t-502.5 211zM842 1356q220 0 348.5 -164.5t128.5 -446.5q0 -113 -32.5 -191t-97.5 -121t-148 -61t-199 -18t-199.5 18t-149 61t-98.5 121t-33 191q0 282 130 446.5
t350 164.5z" />
    <glyph glyph-name="otildeacute" unicode="&#x1e4d;" horiz-adv-x="1327"
d="M479 1729q-17 -35 -20 -119h-125q3 135 53 208.5t141 73.5q74 0 140 -61l37 -37l190 254h219l-135 -156h16q-3 -135 -54 -208.5t-142 -73.5q-45 0 -84 20h-133l51 68l-29 28q-45 39 -69 39q-39 0 -56 -36zM664 1147q240 0 377 -156t137 -432q0 -275 -137 -431.5
t-377 -156.5q-241 0 -377.5 156.5t-136.5 431.5q0 277 136 432.5t378 155.5zM664 289q81 0 134 11t98 42.5t66 93t21 156.5q0 193 -86 306.5t-233 113.5q-148 0 -234 -112.5t-86 -307.5q0 -77 15 -132t40 -88t67 -51.5t87.5 -25t110.5 -6.5z" />
    <glyph glyph-name="Omacrongrave" unicode="&#x1e50;" horiz-adv-x="1681"
d="M717 2021h272l-282 375h-197zM1139 1739v147h-598v-147h598zM842 1520q-315 0 -503.5 -211t-188.5 -564q0 -354 188 -564t504 -210q315 0 502.5 210.5t187.5 563.5t-187.5 564t-502.5 211zM842 1356q220 0 348.5 -164.5t128.5 -446.5q0 -113 -32.5 -191t-97.5 -121
t-148 -61t-199 -18t-199.5 18t-149 61t-98.5 121t-33 191q0 282 130 446.5t350 164.5z" />
    <glyph glyph-name="omacrongrave" unicode="&#x1e51;" horiz-adv-x="1327"
d="M541 1649h272l-283 374h-196zM963 1298v148h-598v-148h598zM664 1147q-242 0 -378 -155.5t-136 -432.5q0 -275 136.5 -431.5t377.5 -156.5q240 0 377 156.5t137 431.5q0 276 -137 432t-377 156zM664 1012q147 0 233 -113.5t86 -306.5q0 -95 -21 -156.5t-66 -93t-98 -42.5
t-134 -11q-65 0 -110.5 6.5t-87.5 25t-67 51.5t-40 88t-15 132q0 195 86 307.5t234 112.5z" />
    <glyph glyph-name="Omacronacute" unicode="&#x1e52;" horiz-adv-x="1681"
d="M928 2003l362 418h-219l-313 -418h170zM1151 1731v147h-598v-147h598zM842 1520q-315 0 -503.5 -211t-188.5 -564q0 -354 188 -564t504 -210q315 0 502.5 210.5t187.5 563.5t-187.5 564t-502.5 211zM842 1356q220 0 348.5 -164.5t128.5 -446.5q0 -113 -32.5 -191
t-97.5 -121t-148 -61t-199 -18t-199.5 18t-149 61t-98.5 121t-33 191q0 282 130 446.5t350 164.5z" />
    <glyph glyph-name="omacronacute" unicode="&#x1e53;" horiz-adv-x="1327"
d="M752 1630l362 418h-219l-313 -418h170zM963 1298v148h-598v-148h598zM664 1147q-242 0 -378 -155.5t-136 -432.5q0 -275 136.5 -431.5t377.5 -156.5q240 0 377 156.5t137 431.5q0 276 -137 432t-377 156zM664 1012q147 0 233 -113.5t86 -306.5q0 -95 -21 -156.5t-66 -93
t-98 -42.5t-134 -11q-65 0 -110.5 6.5t-87.5 25t-67 51.5t-40 88t-15 132q0 195 86 307.5t234 112.5z" />
    <glyph glyph-name="Sdotbelow" unicode="&#x1e62;" horiz-adv-x="1351"
d="M1110 1247v197q-227 76 -436 76q-245 0 -384.5 -114t-139.5 -312q0 -170 101 -267t327 -141l122 -24q144 -29 216.5 -89.5t72.5 -126.5q0 -73 -99 -136.5t-261 -63.5q-225 0 -473 139v-319q259 -95 473 -95q281 0 426 112t145 329q0 183 -107.5 291t-332.5 151l-121 25
q-164 30 -225.5 81t-61.5 150q0 118 89.5 182t254.5 64q190 0 414 -109zM752 -299v221h-205v-221h205z" />
    <glyph glyph-name="sdotbelow" unicode="&#x1e63;" horiz-adv-x="1155"
d="M946 934v153q-154 60 -358 60q-206 0 -318 -86t-112 -244q0 -128 74.5 -193.5t248.5 -101.5l64 -14q175 -41 194 -66q23 -26 58 -88q0 -149 -250 -149q-195 0 -397 106v-270q216 -70 393 -70q216 0 339.5 90.5t123.5 247.5q0 136 -82.5 208t-278.5 114l-63 14
q-146 32 -201 73.5t-55 117.5q0 84 73.5 131t210.5 47q173 0 336 -80zM641 -299v221h-205v-221h205z" />
    <glyph glyph-name="Tdotbelow" unicode="&#x1e6c;" horiz-adv-x="1562"
d="M680 1343l-39 -1343h283l-41 1343l530 -20v170h-1263v-170zM870 -299v221h-204v-221h204z" />
    <glyph glyph-name="tdotbelow" unicode="&#x1e6d;" horiz-adv-x="999"
d="M285 1120h-135v-143h135l-11 -608q0 -209 85.5 -289t299.5 -80h191v274h-191q-61 0 -94.5 7.5t-57 31.5t-31 64.5t-7.5 111.5l10 488h260v143h-260l10 279h-194zM651 -299v221h-205v-221h205z" />
    <glyph glyph-name="Tlinebelow" unicode="&#x1e6e;" horiz-adv-x="1562"
d="M680 1343l-39 -1343h283l-41 1343l530 -20v170h-1263v-170zM1047 -256l8 166l-539 -10l-8 -164z" />
    <glyph glyph-name="tlinebelow" unicode="&#x1e6f;" horiz-adv-x="999"
d="M285 1120h-135v-143h135l-11 -608q0 -209 85.5 -289t299.5 -80h191v274h-191q-61 0 -94.5 7.5t-57 31.5t-31 64.5t-7.5 111.5l10 488h260v143h-260l10 279h-194zM737 -256l8 166l-538 -10l-8 -164z" />
    <glyph glyph-name="Tcircumflexbelow" unicode="&#x1e70;" horiz-adv-x="1562"
d="M680 1343l-39 -1343h283l-41 1343l530 -20v170h-1263v-170zM608 -451l180 246l181 -246h139l-246 377h-147l-246 -377h139z" />
    <glyph glyph-name="tcircumflexbelow" unicode="&#x1e71;" horiz-adv-x="999"
d="M285 1120h-135v-143h135l-11 -608q0 -209 85.5 -289t299.5 -80h191v274h-191q-61 0 -94.5 7.5t-57 31.5t-31 64.5t-7.5 111.5l10 488h260v143h-260l10 279h-194zM438 -502l180 246l181 -246h139l-246 377h-147l-246 -377h139z" />
    <glyph glyph-name="Wgrave" unicode="&#x1e80;" horiz-adv-x="2189"
d="M967 2021h272l-283 375h-196zM799 0l297 807l274 -807h295l375 1493h-195l-344 -1092l-323 711h-177l-354 -690l-303 1071h-194l333 -1493h316z" />
    <glyph glyph-name="wgrave" unicode="&#x1e81;" horiz-adv-x="1802"
d="M778 1649h273l-283 374h-197zM690 0l211 508l203 -508h256l293 1120h-185l-229 -784l-209 414h-258l-209 -414l-229 784h-184l292 -1120h248z" />
    <glyph glyph-name="Wacute" unicode="&#x1e82;" horiz-adv-x="2189"
d="M1178 2003l362 418h-219l-313 -418h170zM799 0l297 807l274 -807h295l375 1493h-195l-344 -1092l-323 711h-177l-354 -690l-303 1071h-194l333 -1493h316z" />
    <glyph glyph-name="wacute" unicode="&#x1e83;" horiz-adv-x="1802"
d="M989 1630l363 418h-219l-314 -418h170zM690 0l211 508l203 -508h256l293 1120h-185l-229 -784l-209 414h-258l-209 -414l-229 784h-184l292 -1120h248z" />
    <glyph glyph-name="Wdieresis" unicode="&#x1e84;" horiz-adv-x="2189"
d="M989 1722v217h-219v-217h219zM1407 1722v217h-217v-217h217zM799 0l297 807l274 -807h295l375 1493h-195l-344 -1092l-323 711h-177l-354 -690l-303 1071h-194l333 -1493h316z" />
    <glyph glyph-name="wdieresis" unicode="&#x1e85;" horiz-adv-x="1802"
d="M801 1350v217h-219v-217h219zM1219 1350v217h-218v-217h218zM690 0l211 508l203 -508h256l293 1120h-185l-229 -784l-209 414h-258l-209 -414l-229 784h-184l292 -1120h248z" />
    <glyph glyph-name="Zdotbelow" unicode="&#x1e92;" horiz-adv-x="1519"
d="M1094 1323l-944 -1038v-285h1218v299h-967l945 1040v154h-1174v-170h922zM881 -299v221h-205v-221h205z" />
    <glyph glyph-name="zdotbelow" unicode="&#x1e93;" horiz-adv-x="1208"
d="M862 983l-712 -715v-268h899v248h-623l633 704v168h-864v-137h667zM690 -299v221h-205v-221h205z" />
    <glyph glyph-name="Adotbelow" unicode="&#x1ea0;" horiz-adv-x="1667"
d="M424 0l76 244h671l58 -244h289l-588 1493h-191l-589 -1493h274zM559 481l275 828l276 -828h-551zM924 -299v221h-205v-221h205z" />
    <glyph glyph-name="adotbelow" unicode="&#x1ea1;" horiz-adv-x="1245"
d="M1096 0v639q0 257 -120 382.5t-364 125.5q-175 0 -381 -78v-149q170 92 363 92q159 -10 238 -83.5t79 -203.5v-18h-258q-503 0 -503 -381q0 -161 102 -258t272 -97q258 0 387 189v-160h185zM809 571v-41q0 -90 -13 -144.5t-46.5 -84.5t-78 -39.5t-118.5 -9.5q-46 0 -76 2
t-63 9t-53.5 20t-36 36.5t-21.5 57.5q1 71 30 112t103 61.5t207 20.5h166zM621 -299v221h-205v-221h205z" />
    <glyph glyph-name="Ahookabove" unicode="&#x1ea2;" horiz-adv-x="1667"
d="M727 1724v-43q56 27 92 27q32 0 49 -9t17 -20q0 -18 -23 -34l-22 -19q-26 -20 -33 -31q-6 -12 -6 -32v-7h57q0 13 4 25q10 10 19 16l22 15q43 34 43 63q0 31 -33 54q-33 20 -82 20q-46 0 -104 -25zM424 0l76 244h671l58 -244h289l-588 1493h-191l-589 -1493h274zM559 481
l275 828l276 -828h-551z" />
    <glyph glyph-name="ahookabove" unicode="&#x1ea3;" horiz-adv-x="1245"
d="M492 1411v-43q56 27 92 27q32 0 48.5 -9t16.5 -20q0 -19 -22 -35l-23 -18q-26 -20 -33 -31q-6 -12 -6 -33v-6h58q0 13 4 25q12 12 18 16l23 14q43 34 43 64t-33 53q-35 21 -82 21q-46 0 -104 -25zM1096 0v639q0 257 -120 382.5t-364 125.5q-175 0 -381 -78v-149
q170 92 363 92q159 -10 238 -83.5t79 -203.5v-18h-258q-503 0 -503 -381q0 -161 102 -258t272 -97q258 0 387 189v-160h185zM809 571v-41q0 -90 -13 -144.5t-46.5 -84.5t-78 -39.5t-118.5 -9.5q-46 0 -76 2t-63 9t-53.5 20t-36 36.5t-21.5 57.5q1 71 30 112t103 61.5
t207 20.5h166z" />
    <glyph glyph-name="Acircumflexacute" unicode="&#x1ea4;" horiz-adv-x="1667"
d="M934 1905l362 417h-219l-313 -417h170zM666 1501l180 246l180 -246h139l-245 377h-148l-246 -377h140zM424 0l76 244h671l58 -244h289l-588 1493h-191l-589 -1493h274zM559 481l275 828l276 -828h-551z" />
    <glyph glyph-name="acircumflexacute" unicode="&#x1ea5;" horiz-adv-x="1245"
d="M739 1630l363 418h-219l-314 -418h170zM471 1227l180 246l180 -246h140l-246 377h-147l-246 -377h139zM1096 0v639q0 257 -120 382.5t-364 125.5q-175 0 -381 -78v-149q170 92 363 92q159 -10 238 -83.5t79 -203.5v-18h-258q-503 0 -503 -381q0 -161 102 -258t272 -97
q258 0 387 189v-160h185zM809 571v-41q0 -90 -13 -144.5t-46.5 -84.5t-78 -39.5t-118.5 -9.5q-46 0 -76 2t-63 9t-53.5 20t-36 36.5t-21.5 57.5q1 71 30 112t103 61.5t207 20.5h166z" />
    <glyph glyph-name="Acircumflexgrave" unicode="&#x1ea6;" horiz-adv-x="1667"
d="M723 1923h272l-282 375h-197zM666 1501l180 246l180 -246h139l-245 377h-148l-246 -377h140zM424 0l76 244h671l58 -244h289l-588 1493h-191l-589 -1493h274zM559 481l275 828l276 -828h-551z" />
    <glyph glyph-name="acircumflexgrave" unicode="&#x1ea7;" horiz-adv-x="1245"
d="M528 1649h273l-283 374h-196zM471 1227l180 246l180 -246h140l-246 377h-147l-246 -377h139zM1096 0v639q0 257 -120 382.5t-364 125.5q-175 0 -381 -78v-149q170 92 363 92q159 -10 238 -83.5t79 -203.5v-18h-258q-503 0 -503 -381q0 -161 102 -258t272 -97
q258 0 387 189v-160h185zM809 571v-41q0 -90 -13 -144.5t-46.5 -84.5t-78 -39.5t-118.5 -9.5q-46 0 -76 2t-63 9t-53.5 20t-36 36.5t-21.5 57.5q1 71 30 112t103 61.5t207 20.5h166z" />
    <glyph glyph-name="Acircumflexhookabove" unicode="&#x1ea8;" horiz-adv-x="1667"
d="M666 1501l180 246l180 -246h139l-245 377h-148l-246 -377h140zM1139 1794v-43q56 27 92 27q32 0 48.5 -9t16.5 -20q0 -19 -22 -35l-23 -18q-24 -18 -32 -31q-7 -14 -7 -33v-6h58q0 13 4 25q12 12 18 16l23 14q43 34 43 64t-33 53q-35 21 -82 21q-46 0 -104 -25zM424 0
l76 244h671l58 -244h289l-588 1493h-191l-589 -1493h274zM559 481l275 828l276 -828h-551z" />
    <glyph glyph-name="acircumflexhookabove" unicode="&#x1ea9;" horiz-adv-x="1245"
d="M471 1227l180 246l180 -246h140l-246 377h-147l-246 -377h139zM907 1556v-43q56 27 92 27q32 0 49 -9t17 -20q0 -18 -23 -34l-22 -19q-26 -20 -33 -31q-6 -12 -6 -32v-6h57q0 12 4 24q13 13 19 17l22 14q43 34 43 63q0 32 -32 54q-33 20 -82 20q-47 0 -105 -25zM1096 0
v639q0 257 -120 382.5t-364 125.5q-175 0 -381 -78v-149q170 92 363 92q159 -10 238 -83.5t79 -203.5v-18h-258q-503 0 -503 -381q0 -161 102 -258t272 -97q258 0 387 189v-160h185zM809 571v-41q0 -90 -13 -144.5t-46.5 -84.5t-78 -39.5t-118.5 -9.5q-46 0 -76 2t-63 9
t-53.5 20t-36 36.5t-21.5 57.5q1 71 30 112t103 61.5t207 20.5h166z" />
    <glyph glyph-name="Acircumflextilde" unicode="&#x1eaa;" horiz-adv-x="1667"
d="M786 2001l56 -55q68 -62 139 -62q91 0 142.5 74t54.5 209h-127q0 -79 -19 -119q-18 -37 -57 -37q-26 0 -68 39l-57 55q-68 62 -139 62q-91 0 -141.5 -74t-53.5 -209h125q3 81 21 119q18 37 55 37q24 0 69 -39zM666 1501l180 246l180 -246h139l-245 377h-148l-246 -377
h140zM424 0l76 244h671l58 -244h289l-588 1493h-191l-589 -1493h274zM559 481l275 828l276 -828h-551z" />
    <glyph glyph-name="acircumflextilde" unicode="&#x1eab;" horiz-adv-x="1245"
d="M592 1726l55 -55q66 -61 139 -61q91 0 142.5 73.5t54.5 208.5h-127q0 -80 -18 -118q-18 -37 -58 -37q-25 0 -67 39l-58 55q-66 61 -139 61q-91 0 -141 -73.5t-53 -208.5h124q3 81 21 119q17 36 55 36q25 0 70 -39zM471 1227l180 246l180 -246h140l-246 377h-147
l-246 -377h139zM1096 0v639q0 257 -120 382.5t-364 125.5q-175 0 -381 -78v-149q170 92 363 92q159 -10 238 -83.5t79 -203.5v-18h-258q-503 0 -503 -381q0 -161 102 -258t272 -97q258 0 387 189v-160h185zM809 571v-41q0 -90 -13 -144.5t-46.5 -84.5t-78 -39.5t-118.5 -9.5
q-46 0 -76 2t-63 9t-53.5 20t-36 36.5t-21.5 57.5q1 71 30 112t103 61.5t207 20.5h166z" />
    <glyph glyph-name="Acircumflexdotbelow" unicode="&#x1eac;" horiz-adv-x="1667"
d="M666 1501l180 246l180 -246h139l-245 377h-148l-246 -377h140zM424 0l76 244h671l58 -244h289l-588 1493h-191l-589 -1493h274zM559 481l275 828l276 -828h-551zM924 -299v221h-205v-221h205z" />
    <glyph glyph-name="acircumflexdotbelow" unicode="&#x1ead;" horiz-adv-x="1245"
d="M471 1227l180 246l180 -246h140l-246 377h-147l-246 -377h139zM1096 0v639q0 257 -120 382.5t-364 125.5q-175 0 -381 -78v-149q170 92 363 92q159 -10 238 -83.5t79 -203.5v-18h-258q-503 0 -503 -381q0 -161 102 -258t272 -97q258 0 387 189v-160h185zM809 571v-41
q0 -90 -13 -144.5t-46.5 -84.5t-78 -39.5t-118.5 -9.5q-46 0 -76 2t-63 9t-53.5 20t-36 36.5t-21.5 57.5q1 71 30 112t103 61.5t207 20.5h166zM621 -299v221h-205v-221h205z" />
    <glyph glyph-name="Abreveacute" unicode="&#x1eae;" horiz-adv-x="1667"
d="M934 1905l362 417h-219l-313 -417h170zM651 1827h-119q21 -287 314 -287q145 0 224.5 72.5t88.5 214.5h-119q-24 -150 -194 -150q-174 0 -195 150zM424 0l76 244h671l58 -244h289l-588 1493h-191l-589 -1493h274zM559 481l275 828l276 -828h-551z" />
    <glyph glyph-name="abreveacute" unicode="&#x1eaf;" horiz-adv-x="1245"
d="M739 1630l363 418h-219l-314 -418h170zM457 1552h-119q21 -286 313 -286q145 0 225 72t89 214h-119q-24 -149 -195 -149q-173 0 -194 149zM1096 0v639q0 257 -120 382.5t-364 125.5q-175 0 -381 -78v-149q170 92 363 92q159 -10 238 -83.5t79 -203.5v-18h-258
q-503 0 -503 -381q0 -161 102 -258t272 -97q258 0 387 189v-160h185zM809 571v-41q0 -90 -13 -144.5t-46.5 -84.5t-78 -39.5t-118.5 -9.5q-46 0 -76 2t-63 9t-53.5 20t-36 36.5t-21.5 57.5q1 71 30 112t103 61.5t207 20.5h166z" />
    <glyph glyph-name="Abrevegrave" unicode="&#x1eb0;" horiz-adv-x="1667"
d="M723 1923h272l-282 375h-197zM651 1827h-119q21 -287 314 -287q145 0 224.5 72.5t88.5 214.5h-119q-24 -150 -194 -150q-174 0 -195 150zM424 0l76 244h671l58 -244h289l-588 1493h-191l-589 -1493h274zM559 481l275 828l276 -828h-551z" />
    <glyph glyph-name="abrevegrave" unicode="&#x1eb1;" horiz-adv-x="1245"
d="M528 1649h273l-283 374h-196zM457 1552h-119q21 -286 313 -286q145 0 225 72t89 214h-119q-24 -149 -195 -149q-173 0 -194 149zM1096 0v639q0 257 -120 382.5t-364 125.5q-175 0 -381 -78v-149q170 92 363 92q159 -10 238 -83.5t79 -203.5v-18h-258q-503 0 -503 -381
q0 -161 102 -258t272 -97q258 0 387 189v-160h185zM809 571v-41q0 -90 -13 -144.5t-46.5 -84.5t-78 -39.5t-118.5 -9.5q-46 0 -76 2t-63 9t-53.5 20t-36 36.5t-21.5 57.5q1 71 30 112t103 61.5t207 20.5h166z" />
    <glyph glyph-name="Abrevehookabove" unicode="&#x1eb2;" horiz-adv-x="1667"
d="M733 1946v-43q54 26 92 26q32 0 49 -8.5t17 -19.5q0 -19 -23 -35l-22 -19q-27 -20 -33 -30q-6 -12 -6 -33v-6h57q0 12 4 24q13 13 19 17l22 14q43 34 43 63q0 32 -32 54q-33 20 -82 20q-50 0 -105 -24zM651 1827h-119q21 -287 314 -287q145 0 224.5 72.5t88.5 214.5h-119
q-24 -150 -194 -150q-174 0 -195 150zM424 0l76 244h671l58 -244h289l-588 1493h-191l-589 -1493h274zM559 481l275 828l276 -828h-551z" />
    <glyph glyph-name="abrevehookabove" unicode="&#x1eb3;" horiz-adv-x="1245"
d="M549 1675v-43q56 27 92 27q32 0 49 -9t17 -20q0 -19 -23 -35l-22 -18q-26 -20 -33 -31q-6 -12 -6 -33v-6h57q0 13 4 25q12 12 18 16l23 15q43 34 43 63q0 30 -33 53q-35 21 -82 21q-46 0 -104 -25zM457 1552h-119q21 -286 313 -286q145 0 225 72t89 214h-119
q-24 -149 -195 -149q-173 0 -194 149zM1096 0v639q0 257 -120 382.5t-364 125.5q-175 0 -381 -78v-149q170 92 363 92q159 -10 238 -83.5t79 -203.5v-18h-258q-503 0 -503 -381q0 -161 102 -258t272 -97q258 0 387 189v-160h185zM809 571v-41q0 -90 -13 -144.5t-46.5 -84.5
t-78 -39.5t-118.5 -9.5q-46 0 -76 2t-63 9t-53.5 20t-36 36.5t-21.5 57.5q1 71 30 112t103 61.5t207 20.5h166z" />
    <glyph glyph-name="Abrevetilde" unicode="&#x1eb4;" horiz-adv-x="1667"
d="M786 2001l56 -55q68 -62 139 -62q91 0 142.5 74t54.5 209h-127q0 -79 -19 -119q-18 -37 -57 -37q-26 0 -68 39l-57 55q-68 62 -139 62q-91 0 -141.5 -74t-53.5 -209h125q3 81 21 119q18 37 55 37q24 0 69 -39zM651 1827h-119q21 -287 314 -287q145 0 224.5 72.5
t88.5 214.5h-119q-24 -150 -194 -150q-174 0 -195 150zM424 0l76 244h671l58 -244h289l-588 1493h-191l-589 -1493h274zM559 481l275 828l276 -828h-551z" />
    <glyph glyph-name="abrevetilde" unicode="&#x1eb5;" horiz-adv-x="1245"
d="M592 1726l55 -55q66 -61 139 -61q91 0 142.5 73.5t54.5 208.5h-127q0 -80 -18 -118q-18 -37 -58 -37q-25 0 -67 39l-58 55q-66 61 -139 61q-91 0 -141 -73.5t-53 -208.5h124q3 81 21 119q17 36 55 36q25 0 70 -39zM457 1552h-119q21 -286 313 -286q145 0 225 72t89 214
h-119q-24 -149 -195 -149q-173 0 -194 149zM1096 0v639q0 257 -120 382.5t-364 125.5q-175 0 -381 -78v-149q170 92 363 92q159 -10 238 -83.5t79 -203.5v-18h-258q-503 0 -503 -381q0 -161 102 -258t272 -97q258 0 387 189v-160h185zM809 571v-41q0 -90 -13 -144.5
t-46.5 -84.5t-78 -39.5t-118.5 -9.5q-46 0 -76 2t-63 9t-53.5 20t-36 36.5t-21.5 57.5q1 71 30 112t103 61.5t207 20.5h166z" />
    <glyph glyph-name="Abrevedotbelow" unicode="&#x1eb6;" horiz-adv-x="1667"
d="M651 1827h-119q21 -287 314 -287q145 0 224.5 72.5t88.5 214.5h-119q-24 -150 -194 -150q-174 0 -195 150zM424 0l76 244h671l58 -244h289l-588 1493h-191l-589 -1493h274zM559 481l275 828l276 -828h-551zM924 -299v221h-205v-221h205z" />
    <glyph glyph-name="abrevedotbelow" unicode="&#x1eb7;" horiz-adv-x="1245"
d="M457 1552h-119q21 -286 313 -286q145 0 225 72t89 214h-119q-24 -149 -195 -149q-173 0 -194 149zM1096 0v639q0 257 -120 382.5t-364 125.5q-175 0 -381 -78v-149q170 92 363 92q159 -10 238 -83.5t79 -203.5v-18h-258q-503 0 -503 -381q0 -161 102 -258t272 -97
q258 0 387 189v-160h185zM809 571v-41q0 -90 -13 -144.5t-46.5 -84.5t-78 -39.5t-118.5 -9.5q-46 0 -76 2t-63 9t-53.5 20t-36 36.5t-21.5 57.5q1 71 30 112t103 61.5t207 20.5h166zM690 -299v221h-205v-221h205z" />
    <glyph glyph-name="Edotbelow" unicode="&#x1eb8;" horiz-adv-x="1261"
d="M1112 0v309h-760v402h711v170h-711v442h742v170h-944v-1493h962zM741 -299v221h-204v-221h204z" />
    <glyph glyph-name="edotbelow" unicode="&#x1eb9;" horiz-adv-x="1327"
d="M1178 606v70q-19 237 -135 349.5t-343 121.5q-251 0 -395 -160t-155 -438q0 -263 156 -416t425 -162q215 0 416 86l-4 254q-61 -33 -138.5 -48.5t-122.5 -17t-145 -1.5q-80 4 -135 13.5t-107.5 33t-83 62.5t-49.5 102t-20 151h836zM1018 768l-656 -2q0 108 96 196.5
t242 88.5q86 0 157.5 -45.5t110.5 -108.5t50 -129zM831 -299v221h-204v-221h204z" />
    <glyph glyph-name="Ehookabove" unicode="&#x1eba;" horiz-adv-x="1261"
d="M520 1741v-43q54 26 92 26q32 0 49 -8.5t17 -19.5q0 -19 -23 -35l-22 -19q-27 -20 -33 -30q-6 -12 -6 -33v-6h57q0 12 4 24q13 13 19 17l22 14q43 34 43 64q0 31 -32 53q-33 20 -82 20t-105 -24zM1112 0v309h-760v402h711v170h-711v442h742v170h-944v-1493h962z" />
    <glyph glyph-name="ehookabove" unicode="&#x1ebb;" horiz-adv-x="1327"
d="M557 1360v-43q54 26 92 26q32 0 49 -8.5t17 -19.5q0 -19 -23 -35l-22 -18q-26 -20 -33 -31q-6 -12 -6 -33v-6h57q0 13 4 25q10 10 19 16l22 14q43 34 43 64t-33 53q-33 20 -81 20q-50 0 -105 -24zM1178 606v70q-19 237 -135 349.5t-343 121.5q-251 0 -395 -160t-155 -438
q0 -263 156 -416t425 -162q215 0 416 86l-4 254q-61 -33 -138.5 -48.5t-122.5 -17t-145 -1.5q-80 4 -135 13.5t-107.5 33t-83 62.5t-49.5 102t-20 151h836zM1018 768l-656 -2q0 108 96 196.5t242 88.5q86 0 157.5 -45.5t110.5 -108.5t50 -129z" />
    <glyph glyph-name="Etilde" unicode="&#x1ebc;" horiz-adv-x="1261"
d="M539 2050l55 -55q68 -62 139 -62q91 0 142.5 74t54.5 209h-127q0 -79 -19 -119q-18 -37 -57 -37q-26 0 -68 39l-57 55q-68 62 -139 62q-91 0 -141.5 -74t-53.5 -209h125q3 81 21 119q18 37 55 37q25 0 70 -39zM1112 0v309h-760v402h711v170h-711v442h742v170h-944v-1493
h962z" />
    <glyph glyph-name="etilde" unicode="&#x1ebd;" horiz-adv-x="1327"
d="M614 1726l56 -55q66 -61 139 -61q91 0 142.5 73.5t54.5 208.5h-127q0 -78 -19 -118q-18 -37 -57 -37q-26 0 -68 39l-57 55q-66 61 -139 61q-91 0 -141.5 -73.5t-53.5 -208.5h125q3 84 20 119q17 36 56 36q24 0 69 -39zM1178 606v70q-19 237 -135 349.5t-343 121.5
q-251 0 -395 -160t-155 -438q0 -263 156 -416t425 -162q215 0 416 86l-4 254q-61 -33 -138.5 -48.5t-122.5 -17t-145 -1.5q-80 4 -135 13.5t-107.5 33t-83 62.5t-49.5 102t-20 151h836zM1018 768l-656 -2q0 108 96 196.5t242 88.5q86 0 157.5 -45.5t110.5 -108.5t50 -129z
" />
    <glyph glyph-name="Ecircumflexacute" unicode="&#x1ebe;" horiz-adv-x="1261"
d="M686 1954l363 418h-220l-313 -418h170zM418 1550l180 246l180 -246h140l-246 377h-148l-245 -377h139zM1112 0v309h-760v402h711v170h-711v442h742v170h-944v-1493h962z" />
    <glyph glyph-name="ecircumflexacute" unicode="&#x1ebf;" horiz-adv-x="1327"
d="M762 1630l362 418h-219l-313 -418h170zM494 1227l180 246l180 -246h139l-245 377h-148l-246 -377h140zM1178 606v70q-19 237 -135 349.5t-343 121.5q-251 0 -395 -160t-155 -438q0 -263 156 -416t425 -162q215 0 416 86l-4 254q-61 -33 -138.5 -48.5t-122.5 -17
t-145 -1.5q-80 4 -135 13.5t-107.5 33t-83 62.5t-49.5 102t-20 151h836zM1018 768l-656 -2q0 108 96 196.5t242 88.5q86 0 157.5 -45.5t110.5 -108.5t50 -129z" />
    <glyph glyph-name="Ecircumflexgrave" unicode="&#x1ec0;" horiz-adv-x="1261"
d="M475 1972h273l-283 375h-197zM418 1550l180 246l180 -246h140l-246 377h-148l-245 -377h139zM1112 0v309h-760v402h711v170h-711v442h742v170h-944v-1493h962z" />
    <glyph glyph-name="ecircumflexgrave" unicode="&#x1ec1;" horiz-adv-x="1327"
d="M551 1649h272l-282 374h-197zM494 1227l180 246l180 -246h139l-245 377h-148l-246 -377h140zM1178 606v70q-19 237 -135 349.5t-343 121.5q-251 0 -395 -160t-155 -438q0 -263 156 -416t425 -162q215 0 416 86l-4 254q-61 -33 -138.5 -48.5t-122.5 -17t-145 -1.5
q-80 4 -135 13.5t-107.5 33t-83 62.5t-49.5 102t-20 151h836zM1018 768l-656 -2q0 108 96 196.5t242 88.5q86 0 157.5 -45.5t110.5 -108.5t50 -129z" />
    <glyph glyph-name="Ecircumflexhookabove" unicode="&#x1ec2;" horiz-adv-x="1261"
d="M418 1550l180 246l180 -246h140l-246 377h-148l-245 -377h139zM870 1833v-43q56 27 93 27q32 0 48.5 -9t16.5 -20q0 -19 -22 -35l-23 -18q-26 -20 -33 -31q-6 -12 -6 -33v-6h57q0 10 5 25q12 12 18 16l23 14q43 34 43 64t-33 53q-35 21 -82 21t-105 -25zM1112 0v309h-760
v402h711v170h-711v442h742v170h-944v-1493h962z" />
    <glyph glyph-name="ecircumflexhookabove" unicode="&#x1ec3;" horiz-adv-x="1327"
d="M494 1227l180 246l180 -246h139l-245 377h-148l-246 -377h140zM1016 1395v-43q54 26 92 26q32 0 49 -8.5t17 -19.5q0 -19 -23 -35l-23 -19q-25 -19 -32 -30q-6 -12 -6 -33v-6h57q0 12 4 24q15 15 18 17l23 14q43 34 43 64t-33 53q-33 20 -82 20q-48 0 -104 -24zM1178 606
v70q-19 237 -135 349.5t-343 121.5q-251 0 -395 -160t-155 -438q0 -263 156 -416t425 -162q215 0 416 86l-4 254q-61 -33 -138.5 -48.5t-122.5 -17t-145 -1.5q-80 4 -135 13.5t-107.5 33t-83 62.5t-49.5 102t-20 151h836zM1018 768l-656 -2q0 108 96 196.5t242 88.5
q86 0 157.5 -45.5t110.5 -108.5t50 -129z" />
    <glyph glyph-name="Ecircumflextilde" unicode="&#x1ec4;" horiz-adv-x="1261"
d="M539 2050l55 -55q68 -62 139 -62q91 0 142.5 74t54.5 209h-127q0 -79 -19 -119q-18 -37 -57 -37q-26 0 -68 39l-57 55q-68 62 -139 62q-91 0 -141.5 -74t-53.5 -209h125q3 81 21 119q18 37 55 37q25 0 70 -39zM418 1550l180 246l180 -246h140l-246 377h-148l-245 -377
h139zM1112 0v309h-760v402h711v170h-711v442h742v170h-944v-1493h962z" />
    <glyph glyph-name="ecircumflextilde" unicode="&#x1ec5;" horiz-adv-x="1327"
d="M614 1726l56 -55q66 -61 139 -61q91 0 142.5 73.5t54.5 208.5h-127q0 -78 -19 -118q-18 -37 -57 -37q-26 0 -68 39l-57 55q-66 61 -139 61q-91 0 -141.5 -73.5t-53.5 -208.5h125q3 84 20 119q17 36 56 36q24 0 69 -39zM494 1227l180 246l180 -246h139l-245 377h-148
l-246 -377h140zM1178 606v70q-19 237 -135 349.5t-343 121.5q-251 0 -395 -160t-155 -438q0 -263 156 -416t425 -162q215 0 416 86l-4 254q-61 -33 -138.5 -48.5t-122.5 -17t-145 -1.5q-80 4 -135 13.5t-107.5 33t-83 62.5t-49.5 102t-20 151h836zM1018 768l-656 -2
q0 108 96 196.5t242 88.5q86 0 157.5 -45.5t110.5 -108.5t50 -129z" />
    <glyph glyph-name="Ecircumflexdotbelow" unicode="&#x1ec6;" horiz-adv-x="1261"
d="M418 1550l180 246l180 -246h140l-246 377h-148l-245 -377h139zM1112 0v309h-760v402h711v170h-711v442h742v170h-944v-1493h962zM741 -299v221h-204v-221h204z" />
    <glyph glyph-name="ecircumflexdotbelow" unicode="&#x1ec7;" horiz-adv-x="1327"
d="M494 1227l180 246l180 -246h139l-245 377h-148l-246 -377h140zM1178 606v70q-19 237 -135 349.5t-343 121.5q-251 0 -395 -160t-155 -438q0 -263 156 -416t425 -162q215 0 416 86l-4 254q-61 -33 -138.5 -48.5t-122.5 -17t-145 -1.5q-80 4 -135 13.5t-107.5 33t-83 62.5
t-49.5 102t-20 151h836zM1018 768l-656 -2q0 108 96 196.5t242 88.5q86 0 157.5 -45.5t110.5 -108.5t50 -129zM831 -299v221h-204v-221h204z" />
    <glyph glyph-name="Ihookabove" unicode="&#x1ec8;" horiz-adv-x="542"
d="M168 1741v-43q54 26 92 26q32 0 49 -8.5t17 -19.5q0 -19 -23 -35l-22 -19q-27 -20 -33 -30q-6 -12 -6 -33v-6h57q0 12 4 24q13 13 19 17l22 14q43 34 43 64t-33 53q-33 20 -82 20t-104 -24zM150 0h241q-9 174 -15 382t-7.5 355.5t-3.5 391t-3 364.5h-172q-2 -94 -7 -453
t-12 -587t-21 -453z" />
    <glyph glyph-name="ihookabove" unicode="&#x1ec9;" horiz-adv-x="534"
d="M164 1362v-43q56 27 92 27q32 0 49 -9t17 -20q0 -19 -23 -35l-23 -18q-24 -18 -32 -31q-6 -12 -6 -33v-6h57q0 13 4 25q12 12 18 16l23 14q43 34 43 64t-33 53q-33 20 -82 20q-48 0 -104 -24zM150 0h235q-60 574 -41 1120h-164q4 -631 -30 -1120z" />
    <glyph glyph-name="Idotbelow" unicode="&#x1eca;" horiz-adv-x="542"
d="M150 0h241q-9 174 -15 382t-7.5 355.5t-3.5 391t-3 364.5h-172q-2 -94 -7 -453t-12 -587t-21 -453zM371 -299v221h-205v-221h205z" />
    <glyph glyph-name="idotbelow" unicode="&#x1ecb;" horiz-adv-x="534"
d="M354 1323l-10 233h-164l-10 -233h184zM150 0h235q-60 574 -41 1120h-164q4 -631 -30 -1120zM369 -299v221h-205v-221h205z" />
    <glyph glyph-name="Odotbelow" unicode="&#x1ecc;" horiz-adv-x="1681"
d="M842 1520q-315 0 -503.5 -211t-188.5 -564q0 -354 188 -564t504 -210q315 0 502.5 210.5t187.5 563.5t-187.5 564t-502.5 211zM842 1356q220 0 348.5 -164.5t128.5 -446.5q0 -113 -32.5 -191t-97.5 -121t-148 -61t-199 -18t-199.5 18t-149 61t-98.5 121t-33 191
q0 282 130 446.5t350 164.5zM930 -299v221h-205v-221h205z" />
    <glyph glyph-name="odotbelow" unicode="&#x1ecd;" horiz-adv-x="1327"
d="M664 1147q-242 0 -378 -155.5t-136 -432.5q0 -275 136.5 -431.5t377.5 -156.5q240 0 377 156.5t137 431.5q0 276 -137 432t-377 156zM664 1012q147 0 233 -113.5t86 -306.5q0 -95 -21 -156.5t-66 -93t-98 -42.5t-134 -11q-65 0 -110.5 6.5t-87.5 25t-67 51.5t-40 88
t-15 132q0 195 86 307.5t234 112.5zM752 -299v221h-205v-221h205z" />
    <glyph glyph-name="Ohookabove" unicode="&#x1ece;" horiz-adv-x="1681"
d="M711 1749v-43q56 27 92 27q32 0 48.5 -9t16.5 -20q0 -19 -22 -35l-23 -18q-24 -18 -32 -31q-7 -14 -7 -33v-6h58q0 13 4 25q12 12 18 16l23 14q43 34 43 64t-33 53q-35 21 -82 21q-46 0 -104 -25zM842 1520q-315 0 -503.5 -211t-188.5 -564q0 -354 188 -564t504 -210
q315 0 502.5 210.5t187.5 563.5t-187.5 564t-502.5 211zM842 1356q220 0 348.5 -164.5t128.5 -446.5q0 -113 -32.5 -191t-97.5 -121t-148 -61t-199 -18t-199.5 18t-149 61t-98.5 121t-33 191q0 282 130 446.5t350 164.5z" />
    <glyph glyph-name="ohookabove" unicode="&#x1ecf;" horiz-adv-x="1327"
d="M565 1382v-43q56 27 92 27q32 0 49 -9t17 -20q0 -18 -23 -34l-22 -19q-26 -20 -33 -31q-6 -12 -6 -32v-7h57q0 13 4 25q10 10 19 16l22 15q43 34 43 63q0 31 -32 53q-35 21 -82 21t-105 -25zM664 1147q-242 0 -378 -155.5t-136 -432.5q0 -275 136.5 -431.5t377.5 -156.5
q240 0 377 156.5t137 431.5q0 276 -137 432t-377 156zM664 1012q147 0 233 -113.5t86 -306.5q0 -95 -21 -156.5t-66 -93t-98 -42.5t-134 -11q-65 0 -110.5 6.5t-87.5 25t-67 51.5t-40 88t-15 132q0 195 86 307.5t234 112.5z" />
    <glyph glyph-name="Ocircumflexacute" unicode="&#x1ed0;" horiz-adv-x="1681"
d="M930 2003l362 418h-219l-313 -418h170zM662 1599l180 246l180 -246h139l-246 377h-147l-246 -377h140zM842 1520q-315 0 -503.5 -211t-188.5 -564q0 -354 188 -564t504 -210q315 0 502.5 210.5t187.5 563.5t-187.5 564t-502.5 211zM842 1356q220 0 348.5 -164.5
t128.5 -446.5q0 -113 -32.5 -191t-97.5 -121t-148 -61t-199 -18t-199.5 18t-149 61t-98.5 121t-33 191q0 282 130 446.5t350 164.5z" />
    <glyph glyph-name="ocircumflexacute" unicode="&#x1ed1;" horiz-adv-x="1327"
d="M752 1630l362 418h-219l-313 -418h170zM483 1227l181 246l180 -246h139l-246 377h-147l-246 -377h139zM664 1147q-242 0 -378 -155.5t-136 -432.5q0 -275 136.5 -431.5t377.5 -156.5q240 0 377 156.5t137 431.5q0 276 -137 432t-377 156zM664 1012q147 0 233 -113.5
t86 -306.5q0 -95 -21 -156.5t-66 -93t-98 -42.5t-134 -11q-65 0 -110.5 6.5t-87.5 25t-67 51.5t-40 88t-15 132q0 195 86 307.5t234 112.5z" />
    <glyph glyph-name="Ocircumflexgrave" unicode="&#x1ed2;" horiz-adv-x="1681"
d="M719 2021h272l-282 375h-197zM662 1599l180 246l180 -246h139l-246 377h-147l-246 -377h140zM842 1520q-315 0 -503.5 -211t-188.5 -564q0 -354 188 -564t504 -210q315 0 502.5 210.5t187.5 563.5t-187.5 564t-502.5 211zM842 1356q220 0 348.5 -164.5t128.5 -446.5
q0 -113 -32.5 -191t-97.5 -121t-148 -61t-199 -18t-199.5 18t-149 61t-98.5 121t-33 191q0 282 130 446.5t350 164.5z" />
    <glyph glyph-name="ocircumflexgrave" unicode="&#x1ed3;" horiz-adv-x="1327"
d="M541 1649h272l-283 374h-196zM483 1227l181 246l180 -246h139l-246 377h-147l-246 -377h139zM664 1147q-242 0 -378 -155.5t-136 -432.5q0 -275 136.5 -431.5t377.5 -156.5q240 0 377 156.5t137 431.5q0 276 -137 432t-377 156zM664 1012q147 0 233 -113.5t86 -306.5
q0 -95 -21 -156.5t-66 -93t-98 -42.5t-134 -11q-65 0 -110.5 6.5t-87.5 25t-67 51.5t-40 88t-15 132q0 195 86 307.5t234 112.5z" />
    <glyph glyph-name="Ocircumflexhookabove" unicode="&#x1ed4;" horiz-adv-x="1681"
d="M662 1599l180 246l180 -246h139l-246 377h-147l-246 -377h140zM1137 1903v-43q54 26 92 26q32 0 48.5 -8.5t16.5 -19.5q0 -19 -22 -35l-23 -19q-25 -19 -32 -30q-7 -14 -7 -33v-6h58q0 12 4 24q15 15 18 17l23 14q43 34 43 63q0 31 -33 54q-33 20 -82 20t-104 -24z
M842 1520q-315 0 -503.5 -211t-188.5 -564q0 -354 188 -564t504 -210q315 0 502.5 210.5t187.5 563.5t-187.5 564t-502.5 211zM842 1356q220 0 348.5 -164.5t128.5 -446.5q0 -113 -32.5 -191t-97.5 -121t-148 -61t-199 -18t-199.5 18t-149 61t-98.5 121t-33 191
q0 282 130 446.5t350 164.5z" />
    <glyph glyph-name="ocircumflexhookabove" unicode="&#x1ed5;" horiz-adv-x="1327"
d="M483 1227l181 246l180 -246h139l-246 377h-147l-246 -377h139zM1034 1305v-43q54 26 92 26q32 0 49 -8.5t17 -19.5q0 -19 -23 -35l-22 -19q-27 -20 -33 -30q-6 -12 -6 -33v-6h57q0 12 4 24q13 13 19 17l22 14q43 34 43 63q0 32 -32 54q-33 20 -82 20t-105 -24zM664 1147
q-242 0 -378 -155.5t-136 -432.5q0 -275 136.5 -431.5t377.5 -156.5q240 0 377 156.5t137 431.5q0 276 -137 432t-377 156zM664 1012q147 0 233 -113.5t86 -306.5q0 -95 -21 -156.5t-66 -93t-98 -42.5t-134 -11q-65 0 -110.5 6.5t-87.5 25t-67 51.5t-40 88t-15 132
q0 195 86 307.5t234 112.5z" />
    <glyph glyph-name="Ocircumflextilde" unicode="&#x1ed6;" horiz-adv-x="1681"
d="M782 2099l56 -55q68 -62 139 -62q91 0 142.5 74t54.5 209h-127q0 -79 -19 -119q-18 -37 -57 -37q-26 0 -68 39l-57 56q-66 61 -139 61q-91 0 -141.5 -74t-53.5 -209h125q3 84 20 119q18 37 56 37q24 0 69 -39zM662 1599l180 246l180 -246h139l-246 377h-147l-246 -377
h140zM842 1520q-315 0 -503.5 -211t-188.5 -564q0 -354 188 -564t504 -210q315 0 502.5 210.5t187.5 563.5t-187.5 564t-502.5 211zM842 1356q220 0 348.5 -164.5t128.5 -446.5q0 -113 -32.5 -191t-97.5 -121t-148 -61t-199 -18t-199.5 18t-149 61t-98.5 121t-33 191
q0 282 130 446.5t350 164.5z" />
    <glyph glyph-name="ocircumflextilde" unicode="&#x1ed7;" horiz-adv-x="1327"
d="M604 1726l55 -55q66 -61 140 -61q91 0 142 73.5t54 208.5h-127q0 -80 -18 -118q-18 -37 -57 -37q-26 0 -68 39l-57 55q-66 61 -140 61q-91 0 -141 -73.5t-53 -208.5h125q3 84 20 119q17 36 56 36q24 0 69 -39zM483 1227l181 246l180 -246h139l-246 377h-147l-246 -377
h139zM664 1147q-242 0 -378 -155.5t-136 -432.5q0 -275 136.5 -431.5t377.5 -156.5q240 0 377 156.5t137 431.5q0 276 -137 432t-377 156zM664 1012q147 0 233 -113.5t86 -306.5q0 -95 -21 -156.5t-66 -93t-98 -42.5t-134 -11q-65 0 -110.5 6.5t-87.5 25t-67 51.5t-40 88
t-15 132q0 195 86 307.5t234 112.5z" />
    <glyph glyph-name="Ocircumflexdotbelow" unicode="&#x1ed8;" horiz-adv-x="1681"
d="M662 1599l180 246l180 -246h139l-246 377h-147l-246 -377h140zM842 1520q-315 0 -503.5 -211t-188.5 -564q0 -354 188 -564t504 -210q315 0 502.5 210.5t187.5 563.5t-187.5 564t-502.5 211zM842 1356q220 0 348.5 -164.5t128.5 -446.5q0 -113 -32.5 -191t-97.5 -121
t-148 -61t-199 -18t-199.5 18t-149 61t-98.5 121t-33 191q0 282 130 446.5t350 164.5zM930 -299v221h-205v-221h205z" />
    <glyph glyph-name="ocircumflexdotbelow" unicode="&#x1ed9;" horiz-adv-x="1327"
d="M483 1227l181 246l180 -246h139l-246 377h-147l-246 -377h139zM664 1147q-242 0 -378 -155.5t-136 -432.5q0 -275 136.5 -431.5t377.5 -156.5q240 0 377 156.5t137 431.5q0 276 -137 432t-377 156zM664 1012q147 0 233 -113.5t86 -306.5q0 -95 -21 -156.5t-66 -93
t-98 -42.5t-134 -11q-65 0 -110.5 6.5t-87.5 25t-67 51.5t-40 88t-15 132q0 195 86 307.5t234 112.5zM690 -299v221h-205v-221h205z" />
    <glyph glyph-name="Ohornacute" unicode="&#x1eda;" horiz-adv-x="1681"
d="M930 2003h-170l313 418h219zM1513 1407l99 -12q10 -42 10 -66q0 -67 -20.5 -131t-63.5 -102q-9 -8 -20 -17t-18 -14.5t-13 -9.5q45 -143 45 -310q0 -353 -187.5 -563.5t-502.5 -210.5q-316 0 -504 210t-188 564q0 353 188.5 564t503.5 211q208 0 365 -97t241 -272
q29 16 39 25q7 6 12.5 14t9.5 16t7 18.5t5 18.5t3.5 20.5t2 19t1 19t0.5 17v15.5v12q0 24 -15 61zM842 354q116 0 199 18t148 61t97.5 121t32.5 191q0 282 -128.5 446.5t-348.5 164.5t-350 -164.5t-130 -446.5q0 -113 33 -191t98.5 -121t149 -61t199.5 -18z" />
    <glyph glyph-name="ohornacute" unicode="&#x1edb;" horiz-adv-x="1327"
d="M752 1630h-170l313 418h219zM1171 1090l99 -13q10 -42 10 -65q0 -67 -20.5 -131.5t-63.5 -102.5l-37 -30q19 -90 19 -189q0 -275 -137 -431.5t-377 -156.5q-241 0 -377.5 156.5t-136.5 431.5q0 277 136 432.5t378 155.5q168 0 286.5 -77.5t177.5 -223.5l17 12
q7 6 12.5 14t9.5 16t7 18.5t5 18.5t3.5 20.5t2 19t1 19t0.5 17v15.5v12q0 24 -15 62zM664 289q81 0 134 11t98 42.5t66 93t21 156.5q0 193 -86 306.5t-233 113.5q-148 0 -234 -112.5t-86 -307.5q0 -77 15 -132t40 -88t67 -51.5t87.5 -25t110.5 -6.5z" />
    <glyph glyph-name="Ohorngrave" unicode="&#x1edc;" horiz-adv-x="1681"
d="M719 2021l-207 375h197l282 -375h-272zM1513 1407l99 -12q10 -42 10 -66q0 -67 -20.5 -131t-63.5 -102q-9 -8 -20 -17t-18 -14.5t-13 -9.5q45 -143 45 -310q0 -353 -187.5 -563.5t-502.5 -210.5q-316 0 -504 210t-188 564q0 353 188.5 564t503.5 211q208 0 365 -97
t241 -272q29 16 39 25q7 6 12.5 14t9.5 16t7 18.5t5 18.5t3.5 20.5t2 19t1 19t0.5 17v15.5v12q0 24 -15 61zM842 354q116 0 199 18t148 61t97.5 121t32.5 191q0 282 -128.5 446.5t-348.5 164.5t-350 -164.5t-130 -446.5q0 -113 33 -191t98.5 -121t149 -61t199.5 -18z" />
    <glyph glyph-name="ohorngrave" unicode="&#x1edd;" horiz-adv-x="1327"
d="M541 1649l-207 374h196l283 -374h-272zM1171 1090l99 -13q10 -42 10 -65q0 -67 -20.5 -131.5t-63.5 -102.5l-37 -30q19 -90 19 -189q0 -275 -137 -431.5t-377 -156.5q-241 0 -377.5 156.5t-136.5 431.5q0 277 136 432.5t378 155.5q168 0 286.5 -77.5t177.5 -223.5l17 12
q7 6 12.5 14t9.5 16t7 18.5t5 18.5t3.5 20.5t2 19t1 19t0.5 17v15.5v12q0 24 -15 62zM664 289q81 0 134 11t98 42.5t66 93t21 156.5q0 193 -86 306.5t-233 113.5q-148 0 -234 -112.5t-86 -307.5q0 -77 15 -132t40 -88t67 -51.5t87.5 -25t110.5 -6.5z" />
    <glyph glyph-name="Ohornhookabove" unicode="&#x1ede;" horiz-adv-x="1681"
d="M870 1724q0 11 -16.5 20t-48.5 9q-36 0 -92 -27v43q58 25 104 25q49 0 82 -20q33 -23 33 -54q0 -29 -43 -63l-23 -15q-6 -4 -18 -16q-4 -12 -4 -24h-58v6q0 18 7 32q8 13 32 31l23 19q22 16 22 34zM1513 1407l99 -12q10 -42 10 -66q0 -67 -20.5 -131t-63.5 -102
q-9 -8 -20 -17t-18 -14.5t-13 -9.5q45 -143 45 -310q0 -353 -187.5 -563.5t-502.5 -210.5q-316 0 -504 210t-188 564q0 353 188.5 564t503.5 211q208 0 365 -97t241 -272q29 16 39 25q7 6 12.5 14t9.5 16t7 18.5t5 18.5t3.5 20.5t2 19t1 19t0.5 17v15.5v12q0 24 -15 61z
M842 354q116 0 199 18t148 61t97.5 121t32.5 191q0 282 -128.5 446.5t-348.5 164.5t-350 -164.5t-130 -446.5q0 -113 33 -191t98.5 -121t149 -61t199.5 -18z" />
    <glyph glyph-name="ohornhookabove" unicode="&#x1edf;" horiz-adv-x="1327"
d="M733 1346q0 11 -16.5 19.5t-48.5 8.5q-39 0 -93 -26v43q55 24 105 24q49 0 82 -20q33 -23 33 -54q0 -29 -43 -63l-23 -14q-3 -2 -18 -17q-4 -12 -4 -24h-58v6q0 21 6 33q6 10 33 30l23 19q22 16 22 35zM1171 1090l99 -13q10 -42 10 -65q0 -67 -20.5 -131.5t-63.5 -102.5
l-37 -30q19 -90 19 -189q0 -275 -137 -431.5t-377 -156.5q-241 0 -377.5 156.5t-136.5 431.5q0 277 136 432.5t378 155.5q168 0 286.5 -77.5t177.5 -223.5l17 12q7 6 12.5 14t9.5 16t7 18.5t5 18.5t3.5 20.5t2 19t1 19t0.5 17v15.5v12q0 24 -15 62zM664 289q81 0 134 11
t98 42.5t66 93t21 156.5q0 193 -86 306.5t-233 113.5q-148 0 -234 -112.5t-86 -307.5q0 -77 15 -132t40 -88t67 -51.5t87.5 -25t110.5 -6.5z" />
    <glyph glyph-name="Ohorntilde" unicode="&#x1ee0;" horiz-adv-x="1681"
d="M657 2101q-17 -35 -20 -119h-125q3 135 53.5 209t141.5 74q73 0 139 -61l57 -56q42 -39 68 -39q39 0 57 37q19 40 19 119h127q-3 -135 -54.5 -209t-142.5 -74q-71 0 -139 62l-56 55q-45 39 -69 39q-38 0 -56 -37zM1513 1407l99 -12q10 -42 10 -66q0 -67 -20.5 -131
t-63.5 -102q-9 -8 -20 -17t-18 -14.5t-13 -9.5q45 -143 45 -310q0 -353 -187.5 -563.5t-502.5 -210.5q-316 0 -504 210t-188 564q0 353 188.5 564t503.5 211q208 0 365 -97t241 -272q29 16 39 25q7 6 12.5 14t9.5 16t7 18.5t5 18.5t3.5 20.5t2 19t1 19t0.5 17v15.5v12
q0 24 -15 61zM842 354q116 0 199 18t148 61t97.5 121t32.5 191q0 282 -128.5 446.5t-348.5 164.5t-350 -164.5t-130 -446.5q0 -113 33 -191t98.5 -121t149 -61t199.5 -18z" />
    <glyph glyph-name="ohorntilde" unicode="&#x1ee1;" horiz-adv-x="1327"
d="M479 1729q-17 -35 -20 -119h-125q3 135 53 208.5t141 73.5q74 0 140 -61l57 -55q42 -39 68 -39q39 0 57 37q18 38 18 118h127q-3 -135 -54 -208.5t-142 -73.5q-74 0 -140 61l-55 55q-45 39 -69 39q-39 0 -56 -36zM1171 1090l99 -13q10 -42 10 -65q0 -67 -20.5 -131.5
t-63.5 -102.5l-37 -30q19 -90 19 -189q0 -275 -137 -431.5t-377 -156.5q-241 0 -377.5 156.5t-136.5 431.5q0 277 136 432.5t378 155.5q168 0 286.5 -77.5t177.5 -223.5l17 12q7 6 12.5 14t9.5 16t7 18.5t5 18.5t3.5 20.5t2 19t1 19t0.5 17v15.5v12q0 24 -15 62zM664 289
q81 0 134 11t98 42.5t66 93t21 156.5q0 193 -86 306.5t-233 113.5q-148 0 -234 -112.5t-86 -307.5q0 -77 15 -132t40 -88t67 -51.5t87.5 -25t110.5 -6.5z" />
    <glyph glyph-name="Ohorndotbelow" unicode="&#x1ee2;" horiz-adv-x="1681"
d="M1513 1407l99 -12q10 -42 10 -66q0 -67 -20.5 -131t-63.5 -102q-9 -8 -20 -17t-18 -14.5t-13 -9.5q45 -143 45 -310q0 -353 -187.5 -563.5t-502.5 -210.5q-316 0 -504 210t-188 564q0 353 188.5 564t503.5 211q208 0 365 -97t241 -272q29 16 39 25q7 6 12.5 14t9.5 16
t7 18.5t5 18.5t3.5 20.5t2 19t1 19t0.5 17v15.5v12q0 24 -15 61zM842 354q116 0 199 18t148 61t97.5 121t32.5 191q0 282 -128.5 446.5t-348.5 164.5t-350 -164.5t-130 -446.5q0 -113 33 -191t98.5 -121t149 -61t199.5 -18zM725 -78h205v-221h-205v221z" />
    <glyph glyph-name="ohorndotbelow" unicode="&#x1ee3;" horiz-adv-x="1327"
d="M1171 1090l99 -13q10 -42 10 -65q0 -67 -20.5 -131.5t-63.5 -102.5l-37 -30q19 -90 19 -189q0 -275 -137 -431.5t-377 -156.5q-241 0 -377.5 156.5t-136.5 431.5q0 277 136 432.5t378 155.5q168 0 286.5 -77.5t177.5 -223.5l17 12q7 6 12.5 14t9.5 16t7 18.5t5 18.5
t3.5 20.5t2 19t1 19t0.5 17v15.5v12q0 24 -15 62zM664 289q81 0 134 11t98 42.5t66 93t21 156.5q0 193 -86 306.5t-233 113.5q-148 0 -234 -112.5t-86 -307.5q0 -77 15 -132t40 -88t67 -51.5t87.5 -25t110.5 -6.5zM547 -78h205v-221h-205v221z" />
    <glyph glyph-name="Udotbelow" unicode="&#x1ee4;" horiz-adv-x="1443"
d="M150 1493v-932q0 -292 144.5 -441t428.5 -149q281 0 425 149t144 441v932h-213l21 -768q6 -236 -87 -343.5t-290 -107.5q-198 0 -291.5 107.5t-89.5 343.5l20 768h-212zM811 -299v221h-205v-221h205z" />
    <glyph glyph-name="udotbelow" unicode="&#x1ee5;" horiz-adv-x="1247"
d="M150 1120v-678q0 -231 100.5 -351t292.5 -120q229 0 360 201l-8 -172h182l21 1120h-203l-21 -475q-11 -167 -92.5 -260.5t-228.5 -93.5q-122 0 -180.5 77.5t-69.5 239.5v512h-153zM631 -299v221h-205v-221h205z" />
    <glyph glyph-name="Uhookabove" unicode="&#x1ee6;" horiz-adv-x="1443"
d="M592 1669v-43q56 27 92 27q32 0 49 -9t17 -20q0 -19 -23 -35l-22 -18q-26 -20 -33 -31q-6 -12 -6 -33v-6h57q0 13 4 25q12 12 18 16l23 14q43 34 43 64t-33 53q-35 21 -82 21q-46 0 -104 -25zM150 1493v-932q0 -292 144.5 -441t428.5 -149q281 0 425 149t144 441v932
h-213l21 -768q6 -236 -87 -343.5t-290 -107.5q-198 0 -291.5 107.5t-89.5 343.5l20 768h-212z" />
    <glyph glyph-name="uhookabove" unicode="&#x1ee7;" horiz-adv-x="1247"
d="M457 1260v-43q54 26 92 26q32 0 48.5 -9t16.5 -20q0 -18 -22 -34l-23 -19q-24 -18 -32 -31q-7 -14 -7 -32v-6h58q0 12 4 24q15 15 18 17l23 14q43 34 43 63q0 31 -33 54q-33 20 -82 20t-104 -24zM150 1120v-678q0 -231 100.5 -351t292.5 -120q229 0 360 201l-8 -172h182
l21 1120h-203l-21 -475q-11 -167 -92.5 -260.5t-228.5 -93.5q-122 0 -180.5 77.5t-69.5 239.5v512h-153z" />
    <glyph glyph-name="Uhornacute" unicode="&#x1ee8;" horiz-adv-x="1443"
d="M809 2003h-170l313 418h219zM1362 1544l98 -12q10 -42 10 -66q0 -67 -20.5 -131t-63.5 -102q-10 -8 -25.5 -21t-21.5 -18t-18.5 -13t-28.5 -16v-604q0 -292 -144 -441t-425 -149q-284 0 -428.5 149t-144.5 441v932h212l-20 -768q-4 -236 89.5 -343.5t291.5 -107.5
q197 0 290 107.5t87 343.5l-21 768h213v-207q28 14 43 27q7 6 12.5 14t9.5 16t7 18.5t5 18.5t3.5 20.5t2 19t1 19t0.5 17v15.5v12q0 26 -14 61z" />
    <glyph glyph-name="uhornacute" unicode="&#x1ee9;" horiz-adv-x="1247"
d="M719 1630h-170l313 418h219zM1167 1200l99 -12q10 -42 10 -66q0 -67 -20.5 -131t-63.5 -102q-9 -7 -22 -18.5t-18.5 -15.5t-15 -11t-19.5 -12.5t-25 -12.5l-15 -819h-182l8 172q-131 -201 -360 -201q-192 0 -292.5 120t-100.5 351v678h153v-512q11 -162 69.5 -239.5
t180.5 -77.5q147 0 228.5 93.5t92.5 260.5l21 475h203l-4 -180q37 21 47 29q7 6 12.5 14t9.5 16t7 18.5t5 18.5t3.5 20.5t2 19t1 19t0.5 17v15.5v12q0 23 -15 61z" />
    <glyph glyph-name="Uhorngrave" unicode="&#x1eea;" horiz-adv-x="1443"
d="M598 2021l-207 375h197l282 -375h-272zM1362 1544l98 -12q10 -42 10 -66q0 -67 -20.5 -131t-63.5 -102q-10 -8 -25.5 -21t-21.5 -18t-18.5 -13t-28.5 -16v-604q0 -292 -144 -441t-425 -149q-284 0 -428.5 149t-144.5 441v932h212l-20 -768q-4 -236 89.5 -343.5
t291.5 -107.5q197 0 290 107.5t87 343.5l-21 768h213v-207q28 14 43 27q7 6 12.5 14t9.5 16t7 18.5t5 18.5t3.5 20.5t2 19t1 19t0.5 17v15.5v12q0 26 -14 61z" />
    <glyph glyph-name="uhorngrave" unicode="&#x1eeb;" horiz-adv-x="1247"
d="M508 1649l-207 374h197l282 -374h-272zM1167 1200l99 -12q10 -42 10 -66q0 -67 -20.5 -131t-63.5 -102q-9 -7 -22 -18.5t-18.5 -15.5t-15 -11t-19.5 -12.5t-25 -12.5l-15 -819h-182l8 172q-131 -201 -360 -201q-192 0 -292.5 120t-100.5 351v678h153v-512
q11 -162 69.5 -239.5t180.5 -77.5q147 0 228.5 93.5t92.5 260.5l21 475h203l-4 -180q37 21 47 29q7 6 12.5 14t9.5 16t7 18.5t5 18.5t3.5 20.5t2 19t1 19t0.5 17v15.5v12q0 23 -15 61z" />
    <glyph glyph-name="Uhornhookabove" unicode="&#x1eec;" horiz-adv-x="1443"
d="M768 1610q0 11 -17 19.5t-49 8.5q-38 0 -92 -26v43q56 24 105 24t82 -20q32 -22 32 -53q0 -30 -43 -64l-22 -14q-6 -4 -19 -17q-4 -12 -4 -24h-57v6q0 21 6 33q6 10 33 30l22 19q23 16 23 35zM1362 1544l98 -12q10 -42 10 -66q0 -67 -20.5 -131t-63.5 -102
q-10 -8 -25.5 -21t-21.5 -18t-18.5 -13t-28.5 -16v-604q0 -292 -144 -441t-425 -149q-284 0 -428.5 149t-144.5 441v932h212l-20 -768q-4 -236 89.5 -343.5t291.5 -107.5q197 0 290 107.5t87 343.5l-21 768h213v-207q28 14 43 27q7 6 12.5 14t9.5 16t7 18.5t5 18.5t3.5 20.5
t2 19t1 19t0.5 17v15.5v12q0 26 -14 61z" />
    <glyph glyph-name="uhornhookabove" unicode="&#x1eed;" horiz-adv-x="1247"
d="M662 1245q0 11 -17 20t-49 9q-36 0 -92 -27v43q58 25 104 25q47 0 82 -21q33 -23 33 -53q0 -29 -43 -63l-23 -15q-6 -4 -18 -16q-4 -12 -4 -25h-57v6q0 21 6 33q8 13 32 31l23 18q23 16 23 35zM1167 1200l99 -12q10 -42 10 -66q0 -67 -20.5 -131t-63.5 -102
q-9 -7 -22 -18.5t-18.5 -15.5t-15 -11t-19.5 -12.5t-25 -12.5l-15 -819h-182l8 172q-131 -201 -360 -201q-192 0 -292.5 120t-100.5 351v678h153v-512q11 -162 69.5 -239.5t180.5 -77.5q147 0 228.5 93.5t92.5 260.5l21 475h203l-4 -180q37 21 47 29q7 6 12.5 14t9.5 16
t7 18.5t5 18.5t3.5 20.5t2 19t1 19t0.5 17v15.5v12q0 23 -15 61z" />
    <glyph glyph-name="Uhorntilde" unicode="&#x1eee;" horiz-adv-x="1443"
d="M537 2101q-18 -38 -21 -119h-125q3 135 53.5 209t141.5 74q73 0 139 -61l57 -56q42 -39 68 -39q39 0 57 37q19 40 19 119h127q-3 -135 -54.5 -209t-142.5 -74q-71 0 -139 62l-55 55q-45 39 -70 39q-37 0 -55 -37zM1362 1544l98 -12q10 -42 10 -66q0 -67 -20.5 -131
t-63.5 -102q-10 -8 -25.5 -21t-21.5 -18t-18.5 -13t-28.5 -16v-604q0 -292 -144 -441t-425 -149q-284 0 -428.5 149t-144.5 441v932h212l-20 -768q-4 -236 89.5 -343.5t291.5 -107.5q197 0 290 107.5t87 343.5l-21 768h213v-207q28 14 43 27q7 6 12.5 14t9.5 16t7 18.5
t5 18.5t3.5 20.5t2 19t1 19t0.5 17v15.5v12q0 26 -14 61z" />
    <glyph glyph-name="uhorntilde" unicode="&#x1eef;" horiz-adv-x="1247"
d="M446 1729q-17 -35 -20 -119h-125q3 135 53.5 208.5t141.5 73.5q73 0 139 -61l57 -55q42 -39 68 -39q39 0 57 37q19 40 19 118h127q-3 -135 -54.5 -208.5t-142.5 -73.5q-73 0 -139 61l-56 55q-45 39 -69 39q-39 0 -56 -36zM1167 1200l99 -12q10 -42 10 -66
q0 -67 -20.5 -131t-63.5 -102q-9 -7 -22 -18.5t-18.5 -15.5t-15 -11t-19.5 -12.5t-25 -12.5l-15 -819h-182l8 172q-131 -201 -360 -201q-192 0 -292.5 120t-100.5 351v678h153v-512q11 -162 69.5 -239.5t180.5 -77.5q147 0 228.5 93.5t92.5 260.5l21 475h203l-4 -180
q37 21 47 29q7 6 12.5 14t9.5 16t7 18.5t5 18.5t3.5 20.5t2 19t1 19t0.5 17v15.5v12q0 23 -15 61z" />
    <glyph glyph-name="Uhorndotbelow" unicode="&#x1ef0;" horiz-adv-x="1443"
d="M1362 1544l98 -12q10 -42 10 -66q0 -67 -20.5 -131t-63.5 -102q-10 -8 -25.5 -21t-21.5 -18t-18.5 -13t-28.5 -16v-604q0 -292 -144 -441t-425 -149q-284 0 -428.5 149t-144.5 441v932h212l-20 -768q-4 -236 89.5 -343.5t291.5 -107.5q197 0 290 107.5t87 343.5l-21 768
h213v-207q28 14 43 27q7 6 12.5 14t9.5 16t7 18.5t5 18.5t3.5 20.5t2 19t1 19t0.5 17v15.5v12q0 26 -14 61zM606 -78h205v-221h-205v221z" />
    <glyph glyph-name="uhorndotbelow" unicode="&#x1ef1;" horiz-adv-x="1247"
d="M1167 1200l99 -12q10 -42 10 -66q0 -67 -20.5 -131t-63.5 -102q-9 -7 -22 -18.5t-18.5 -15.5t-15 -11t-19.5 -12.5t-25 -12.5l-15 -819h-182l8 172q-131 -201 -360 -201q-192 0 -292.5 120t-100.5 351v678h153v-512q11 -162 69.5 -239.5t180.5 -77.5q147 0 228.5 93.5
t92.5 260.5l21 475h203l-4 -180q37 21 47 29q7 6 12.5 14t9.5 16t7 18.5t5 18.5t3.5 20.5t2 19t1 19t0.5 17v15.5v12q0 23 -15 61zM426 -78h205v-221h-205v221z" />
    <glyph glyph-name="Ygrave" unicode="&#x1ef2;" horiz-adv-x="1558"
d="M655 2021h273l-283 375h-196zM639 0h272v512l498 981h-217l-412 -764l-413 764h-217l489 -981v-512z" />
    <glyph glyph-name="ygrave" unicode="&#x1ef3;" horiz-adv-x="1390"
d="M483 1649h273l-283 374h-197zM1044 1120l-303 -651l-397 651h-194l479 -1028l-78 -158q-34 -41 -50 -59t-43 -40t-54.5 -30t-63.5 -8h-129v-243h168q66 0 112.5 12.5t94 48.5t90.5 104t92 177l471 1224h-195z" />
    <glyph glyph-name="Ydotbelow" unicode="&#x1ef4;" horiz-adv-x="1558"
d="M639 0h272v512l498 981h-217l-412 -764l-413 764h-217l489 -981v-512zM881 -299v221h-205v-221h205z" />
    <glyph glyph-name="ydotbelow" unicode="&#x1ef5;" horiz-adv-x="1390"
d="M1044 1120l-303 -651l-397 651h-194l479 -1028l-78 -158q-34 -41 -50 -59t-43 -40t-54.5 -30t-63.5 -8h-129v-243h168q66 0 112.5 12.5t94 48.5t90.5 104t92 177l471 1224h-195zM981 -410v222h-205v-222h205z" />
    <glyph glyph-name="Yhookabove" unicode="&#x1ef6;" horiz-adv-x="1558"
d="M684 1618v-43q56 27 92 27q32 0 49 -9t17 -20q0 -19 -23 -35l-22 -18q-26 -20 -33 -31q-6 -12 -6 -33v-6h57q0 13 4 25q10 10 19 16l22 14q43 34 43 64t-33 53q-33 20 -82 20q-48 0 -104 -24zM639 0h272v512l498 981h-217l-412 -764l-413 764h-217l489 -981v-512z" />
    <glyph glyph-name="yhookabove" unicode="&#x1ef7;" horiz-adv-x="1390"
d="M606 1298v-43q56 27 92 27q32 0 49 -9t17 -20q0 -18 -23 -34l-22 -19q-26 -20 -33 -31q-6 -12 -6 -32v-7h57q0 13 4 25q10 10 19 16l22 15q43 34 43 63q0 32 -32 54q-33 20 -82 20q-47 0 -105 -25zM1044 1120l-303 -651l-397 651h-194l479 -1028l-78 -158
q-34 -41 -50 -59t-43 -40t-54.5 -30t-63.5 -8h-129v-243h168q66 0 112.5 12.5t94 48.5t90.5 104t92 177l471 1224h-195z" />
    <glyph glyph-name="Ytilde" unicode="&#x1ef8;" horiz-adv-x="1558"
d="M719 2099l55 -55q68 -62 139 -62q91 0 142.5 74t54.5 209h-127q0 -81 -18 -119q-18 -37 -58 -37q-25 0 -67 39l-58 56q-66 61 -139 61q-90 0 -140.5 -74t-53.5 -209h124q3 81 21 119q18 37 55 37q25 0 70 -39zM639 0h272v512l498 981h-217l-412 -764l-413 764h-217
l489 -981v-512z" />
    <glyph glyph-name="ytilde" unicode="&#x1ef9;" horiz-adv-x="1390"
d="M547 1726l55 -55q66 -61 139 -61q91 0 142.5 73.5t54.5 208.5h-127q0 -80 -18 -118q-18 -37 -58 -37q-25 0 -67 39l-58 55q-66 61 -139 61q-91 0 -141.5 -73.5t-53.5 -208.5h125q3 81 21 119q17 36 55 36q25 0 70 -39zM1044 1120l-303 -651l-397 651h-194l479 -1028
l-78 -158q-34 -41 -50 -59t-43 -40t-54.5 -30t-63.5 -8h-129v-243h168q66 0 112.5 12.5t94 48.5t90.5 104t92 177l471 1224h-195z" />
    <glyph glyph-name="endash" unicode="&#x2013;" horiz-adv-x="1323"
d="M1174 489v144h-1024v-144h1024z" />
    <glyph glyph-name="emdash" unicode="&#x2014;" horiz-adv-x="2347"
d="M2198 489v144h-2048v-144h2048z" />
    <glyph glyph-name="quoteleft" unicode="&#x2018;" horiz-adv-x="618"
d="M510 1520h-160l-200 -394v-213h260v213z" />
    <glyph glyph-name="quoteright" unicode="&#x2019;" horiz-adv-x="589"
d="M150 938h155l201 387v184h-256v-184z" />
    <glyph glyph-name="quotesinglbase" unicode="&#x201a;" horiz-adv-x="593"
d="M150 -238h129l163 320v172h-211v-172z" />
    <glyph glyph-name="quotedblleft" unicode="&#x201c;" horiz-adv-x="1173"
d="M514 1493h-160l-204 -397v-215h262v215zM1024 1493h-160l-205 -397v-215h263v215z" />
    <glyph glyph-name="quotedblright" unicode="&#x201d;" horiz-adv-x="1116"
d="M150 922h149l193 370v201h-246v-201zM627 922h149l191 370v201h-244v-201z" />
    <glyph glyph-name="quotedblbase" unicode="&#x201e;" horiz-adv-x="1183"
d="M150 -238h161l207 402v217h-264v-217zM666 -238h161l205 402v217h-264v-217z" />
    <glyph glyph-name="dagger" unicode="&#x2020;" horiz-adv-x="1210"
d="M150 1073v-153h366v-1117h176v1117h369v153h-369v420h-176v-420h-366z" />
    <glyph glyph-name="daggerdbl" unicode="&#x2021;" horiz-adv-x="1210"
d="M713 377l-21 543h369v153h-369v420h-176v-420h-366v-153h366l-18 -543h-348v-223h327l-20 -351h297l-21 351h328v223h-348z" />
    <glyph glyph-name="bullet" unicode="&#x2022;" horiz-adv-x="894"
d="M150 762q0 -125 86 -211t210 -86q126 0 211.5 86t85.5 211t-85 210t-209 85q-126 0 -212.5 -85.5t-86.5 -209.5z" />
    <glyph glyph-name="ellipsis" unicode="&#x2026;" horiz-adv-x="1986"
d="M473 0v365h-323v-365h323zM1153 0v365h-322v-365h322zM1835 0v365h-322v-365h322z" />
    <glyph glyph-name="perthousand" unicode="&#x2030;" horiz-adv-x="2822"
d="M494 1520q-158 0 -251 -110t-93 -296q0 -189 92.5 -298t251.5 -109q160 0 253 109t93 298q0 187 -93.5 296.5t-252.5 109.5zM623 -29l933 1549h-159l-1004 -1549h230zM494 1393q86 0 136 -58t50 -159q0 -103 -49 -161.5t-137 -58.5q-86 0 -135.5 58.5t-49.5 161.5
q0 101 49.5 159t135.5 58zM1526 784q-159 0 -252.5 -109.5t-93.5 -297.5q0 -186 93.5 -296t252.5 -110q157 0 250.5 110t93.5 296q0 187 -93 297t-251 110zM2329 784q-159 0 -253 -109.5t-94 -297.5q0 -186 93.5 -296t253.5 -110q157 0 250.5 110t93.5 296q0 187 -93 297
t-251 110zM1526 657q85 0 134.5 -53.5t49.5 -146.5q0 -92 -49.5 -146.5t-134.5 -54.5q-87 0 -137 54t-50 147q0 94 49.5 147t137.5 53zM2329 657q85 0 134.5 -53.5t49.5 -146.5q0 -92 -49.5 -146.5t-134.5 -54.5q-86 0 -136.5 54.5t-50.5 146.5q0 93 50 146.5t137 53.5z" />
    <glyph glyph-name="guilsinglleft" unicode="&#x2039;" horiz-adv-x="768"
d="M150 559l468 -418v191l-301 268l301 268v191l-468 -418v-82z" />
    <glyph glyph-name="guilsinglright" unicode="&#x203a;" horiz-adv-x="768"
d="M451 600l-301 -268v-191l468 418v82l-468 418v-191z" />
    <glyph glyph-name="fraction" unicode="&#x2044;" horiz-adv-x="1392"
d="M309 -29l932 1549h-160l-931 -1549h159z" />
    <glyph glyph-name="Euro" unicode="&#x20ac;" horiz-adv-x="1466"
d="M1317 1214v164q-177 142 -371 142q-235 0 -390.5 -145t-195.5 -402h-155l-55 -123h194v-45q-2 -16 -2 -60q0 -41 2 -55v-47h-139l-55 -164h221q31 -223 187 -365.5t388 -142.5q192 0 371 144v301q-103 -106 -187 -150.5t-186 -44.5q-74 0 -143 29.5t-115.5 71.5t-76.5 84
t-36 73h365l55 164h-444q-4 33 -4 102q0 72 4 105h536l56 123h-578q33 195 136 315.5t255 120.5q104 0 188.5 -45t174.5 -150z" />
    <glyph glyph-name="trademark" unicode="&#x2122;" horiz-adv-x="1640"
d="M150 1399h200l-28 -484h174l-31 484h203v94h-518v-94zM752 915h174l-31 484l182 -432h97l174 432l-29 -484h172l-21 578h-170l-174 -326l-163 326h-172z" />
    <glyph glyph-name="Omega" unicode="&#x2126;" horiz-adv-x="1708"
d="M1559 238h-320q86 75 139 133t92.5 125.5t55.5 141.5t16 171q0 203 -87.5 363.5t-244.5 249.5t-356 89q-202 0 -358.5 -89t-243 -251t-86.5 -372q0 -120 33.5 -214t95.5 -171t174 -176h-319v-238h600v238q-176 56 -276.5 211.5t-100.5 359.5q0 282 129.5 431t351.5 149
t350.5 -148t128.5 -432q0 -204 -100 -359.5t-275 -211.5v-238h601v238z" />
    <glyph glyph-name="partialdiff" unicode="&#x2202;" horiz-adv-x="1157"
d="M803 621q-38 97 -104 142.5t-167 45.5q-162 0 -272 -129t-110 -326q0 -163 101 -271t255 -108q140 0 255 100.5t181 279t66 397.5q0 264 -107 418.5t-289 154.5q-99 0 -171 -48.5t-72 -111.5q0 -29 12.5 -37t50.5 -8q35 0 53 37q14 37 201 49q145 0 145 -260
q0 -143 -28 -325zM715 539q0 -174 -78.5 -286t-198.5 -112q-89 0 -136.5 52.5t-47.5 152.5q0 176 77.5 286.5t198.5 110.5q88 0 136.5 -53t48.5 -151z" />
    <glyph glyph-name="Delta" unicode="&#x2206;" horiz-adv-x="1681"
d="M1532 0l-580 1473h-223l-579 -1473h1382zM422 299l418 1083l417 -1083h-835z" />
    <glyph glyph-name="product" unicode="&#x220f;" horiz-adv-x="1536"
d="M459 -393l-90 1661h757l21 -1661h309l-90 1866h-1237l21 -1866h309z" />
    <glyph glyph-name="summation" unicode="&#x2211;" horiz-adv-x="1613"
d="M1075 557l-925 -721v-229h1314v272h-1007l895 684l-873 758h959v152h-1258v-138z" />
    <glyph glyph-name="minus" unicode="&#x2212;" horiz-adv-x="1581"
d="M1432 557v170h-1282v-170h1282z" />
    <glyph glyph-name="middot.001" unicode="&#x2219;" horiz-adv-x="571"
d="M422 584v327h-272v-327h272z" />
    <glyph glyph-name="radical" unicode="&#x221a;" horiz-adv-x="1544"
d="M432 975l-282 -98l24 -80l125 45l319 -883h66l596 1606h115v96h-191l-516 -1395z" />
    <glyph glyph-name="infinity" unicode="&#x221e;" horiz-adv-x="1566"
d="M793 483q78 -138 152.5 -198t168.5 -60q135 0 218 107t83 282q0 167 -93 279.5t-228 112.5q-97 0 -176 -65.5t-148 -203.5q-70 138 -146.5 201t-172.5 63q-134 0 -217.5 -108.5t-83.5 -282.5q0 -165 93 -277t228 -112q96 0 174.5 64t147.5 198zM844 649q73 160 140 228.5
t149 68.5q89 0 147.5 -67t58.5 -168q0 -105 -64 -172.5t-165 -67.5q-166 0 -266 178zM723 645q-17 -38 -34 -68.5t-35 -51.5t-32.5 -36.5t-34.5 -25t-33 -15t-36 -7.5t-35.5 -2.5t-38.5 -0.5h-6.5h-5.5q-89 0 -148 67.5t-59 168.5q0 105 64 171t166 66q32 0 65 -17
t58.5 -41.5t54.5 -63.5t47.5 -70t42.5 -74z" />
    <glyph glyph-name="integral" unicode="&#x222b;" horiz-adv-x="1271"
d="M414 -262q-19 0 -25 43q-3 44 -14 57q-31 58 -96 58q-60 0 -94.5 -31t-34.5 -88q0 -64 51 -106t129 -42q196 0 291 207t110 686q5 86 8 303q15 619 121 619q17 0 23 -35q3 -37 10 -51q22 -74 108 -74q55 0 87 31.5t32 85.5q0 66 -49.5 107.5t-130.5 41.5
q-203 0 -297 -223q-94 -227 -106 -735q0 -15 -1 -70.5t-1 -95.5q-15 -688 -121 -688z" />
    <glyph glyph-name="approxequal" unicode="&#x2248;" horiz-adv-x="1581"
d="M1432 834v178q-103 -85 -187 -122.5t-172 -37.5q-96 0 -248 61l-22 9q-1 2 -15 6q-142 56 -258 69q-97 0 -185.5 -34.5t-194.5 -112.5v-178q98 83 184 121t174 38q93 0 250 -71l20 -8q8 -4 17 -7q148 -59 256 -59q97 0 187 35t194 113zM1432 444v179
q-103 -85 -187 -122.5t-172 -37.5q-96 0 -248 61l-20 8q-2 0 -8.5 3t-8.5 4q-142 56 -258 69q-97 0 -185.5 -34.5t-194.5 -112.5v-178q98 83 184 121t174 38q93 0 250 -71l20 -9q2 -1 17 -6q148 -59 256 -59q97 0 187 34.5t194 112.5z" />
    <glyph glyph-name="notequal" unicode="&#x2260;" horiz-adv-x="1581"
d="M782 762l-194 -240h-438v-170h299l-175 -211l125 -102l258 313h775v170h-635l194 240h441v168h-304l175 213l-125 102l-256 -315h-772v-168h632z" />
    <glyph glyph-name="lessequal" unicode="&#x2264;" horiz-adv-x="1581"
d="M150 825v-170l1282 -368v178l-961 274l961 277v176zM1432 0v170h-1282v-170h1282z" />
    <glyph glyph-name="greaterequal" unicode="&#x2265;" horiz-adv-x="1581"
d="M150 465v-178l1282 368v170l-1282 367v-176l960 -277zM150 0h1282v170h-1282v-170z" />
    <glyph glyph-name="lozenge" unicode="&#x25ca;" horiz-adv-x="1300"
d="M649 -477l502 1069l-502 1061l-499 -1061zM649 27l-385 565l385 817l385 -817z" />
    <glyph glyph-name="c6459" horiz-adv-x="894"
d="M352 1294v203h-202v-203h202zM743 1294v203h-202v-203h202z" />
    <glyph glyph-name="c6460" horiz-adv-x="681"
d="M303 1262l227 264h-184l-196 -264h153z" />
    <glyph glyph-name="c6461" horiz-adv-x="960"
d="M420 1370l55 -33q50 -26 80 -34.5t66 -8.5q84 0 135.5 59.5t54.5 159.5h-127v-6q0 -41 -20 -66.5t-52 -25.5q-23 0 -71 25l-58 30q-77 43 -143 43q-88 0 -139 -59t-51 -160h124v6q0 44 20.5 69.5t55.5 25.5q21 0 70 -25z" />
    <glyph glyph-name="c6462" horiz-adv-x="681"
d="M381 1262h151l-194 264h-188z" />
    <glyph glyph-name="c6463" horiz-adv-x="909"
d="M289 1262l166 178l166 -178h139l-211 266h-189l-210 -266h139z" />
    <glyph glyph-name="c6466" horiz-adv-x="909"
d="M760 1528h-139l-166 -178l-166 178h-139l210 -266h189z" />
    <glyph glyph-name="c6467" horiz-adv-x="993"
d="M150 854h413v-186h146v186h135v109h-135v540h-166l-393 -528v-121zM256 963l307 419v-419h-307z" />
    <glyph glyph-name="c6468" horiz-adv-x="925"
d="M268 1528h-118q21 -242 313 -242q143 0 223.5 61.5t89.5 180.5h-119q-29 -111 -194 -111q-170 0 -195 111z" />
    <glyph glyph-name="c6469" horiz-adv-x="503"
d="M354 1294v205h-204v-205h204z" />
    <glyph glyph-name="glyph268" horiz-adv-x="0"
 />
    <glyph glyph-name="y.001" horiz-adv-x="1390"
d="M645 -51h127q-8 -110 -46 -191.5t-95 -131t-140 -79.5t-168.5 -40.5t-193.5 -10.5v-317h166q299 0 471 217q144 182 240 576q51 210 139 734q46 268 72 414h-263q-45 -481 -100.5 -684t-161.5 -203q-145 0 -221 29t-104.5 93.5t-29 167.5t4 251.5t-5.5 345.5h-197
q0 -56 -1 -165q1 -124 0 -236.5t8.5 -213.5t27 -186.5t54.5 -154t91 -116.5t136 -73.5t190 -25.5z" />
    <glyph glyph-name="brevecy"
 />
    </font>
</defs>
</svg>
